osu file format v14

[General]
AudioFilename: audio.mp3
AudioLeadIn: 0
PreviewTime: 1282
Countdown: 0
SampleSet: Normal
StackLeniency: 0.7
Mode: 2
LetterboxInBreaks: 0
WidescreenStoryboard: 1

[Editor]
DistanceSpacing: 0.9
BeatDivisor: 4
GridSize: 8
TimelineZoom: 2.2

[Metadata]
Title:kibo refrain (TV Size)
TitleUnicode:希望リフレイン (TV Size)
Artist:Aoshima Moka (CV: Mimori Suzuko)
ArtistUnicode:青島萌香 (CV: 三森すずこ)
Creator:bighzonda
Version:Salad
Source:OneRoom
Tags:one room カントク Kantoku japanese anime rock
BeatmapID:3210175
BeatmapSetID:1572192

[Difficulty]
HPDrainRate:3
CircleSize:3
OverallDifficulty:7
ApproachRate:7
SliderMultiplier:1.6
SliderTickRate:2

[Events]
//Background and Video events
0,0,"258363.jpg",0,0
//Break Periods
//Storyboard Layer 0 (Background)
//Storyboard Layer 1 (Fail)
//Storyboard Layer 2 (Pass)
//Storyboard Layer 3 (Foreground)
//Storyboard Layer 4 (Overlay)
//Storyboard Sound Samples

[TimingPoints]
1370,348.837209302326,4,1,22,60,1,0
36253,-100,4,1,22,5,0,0

[Colours]
Combo1 : 227,64,64
Combo2 : 182,84,24
Combo3 : 211,143,99

[HitObjects]
80,136,1370,6,0,L|248:136,1,160,14|10,0:0|0:0,0:0:0:0:
80,136,2067,2,0,L|80:304,1,160,10|10,0:0|0:0,0:0:0:0:
160,320,2590,1,2,0:0:0:0:
344,296,2765,6,0,L|504:296,1,160,8|8,0:0|0:0,0:0:0:0:
336,200,3463,2,0,L|496:200,1,160,10|10,0:0|0:0,0:0:0:0:
208,208,4160,5,10,0:0:0:0:
128,240,4335,1,2,0:0:0:0:
208,280,4509,1,10,0:0:0:0:
376,200,4858,2,0,P|432:176|368:128,1,160,10|10,0:0|0:0,0:0:0:0:
304,144,5381,1,2,0:0:0:0:
120,144,5556,6,0,P|72:208|128:255,1,160,10|8,0:0|0:0,0:0:0:0:
296,304,6253,2,0,L|136:304,1,160,10|10,0:0|0:0,0:0:0:0:
232,248,6776,1,0,0:0:0:0:
416,112,6951,6,0,P|472:192|328:312,1,320,10|10,0:0|0:0,0:0:0:0:
496,232,7997,1,8,0:0:0:0:
224,112,8346,6,0,P|168:192|312:312,1,320,10|10,0:0|0:0,0:0:0:0:
144,216,9393,1,8,0:0:0:0:
416,312,9742,6,0,L|96:312,1,320,10|8,0:0|0:0,0:0:0:0:
272,232,10788,2,0,L|336:144,1,80,8|2,0:0|0:0,0:0:0:0:
136,232,11137,5,10,0:0:0:0:
64,280,11311,1,2,0:0:0:0:
136,312,11486,1,10,0:0:0:0:
304,232,11835,2,0,L|144:232,1,160,10|10,0:0|0:0,0:0:0:0:
232,168,12358,1,8,0:0:0:0:
320,88,12532,6,0,P|376:105|312:153,1,160,6|10,3:0|0:0,0:0:0:0:
160,144,13230,2,0,L|160:304,1,160,4|10,3:0|0:0,0:0:0:0:
344,208,13753,6,0,P|400:240|344:288,1,160,6|0,0:0|0:0,0:0:0:0:
256,264,14276,1,8,0:0:0:0:
80,208,14625,2,0,L|80:40,1,160,2|8,0:0|0:0,0:0:0:0:
352,128,15323,5,6,1:0:0:0:
432,168,15497,1,6,1:0:0:0:
352,208,15672,1,8,0:0:0:0:
176,80,16021,2,0,L|176:240,1,160,2|10,0:0|0:0,0:0:0:0:
360,288,16544,6,0,P|448:280|376:200,1,240,6|8,0:0|0:0,0:0:0:0:
208,216,17416,2,0,L|208:112,1,80,10|0,0:0|0:0,0:0:0:0:
296,72,17765,2,0,L|296:160,1,80,8|8,0:0|0:0,0:0:0:0:
112,272,18114,6,0,P|56:192|200:72,1,320,6|2,1:0|0:0,0:0:0:0:
32,152,19160,1,8,0:0:0:0:
304,272,19509,6,0,P|360:192|216:72,1,320,6|0,1:0|0:0,0:0:0:0:
384,168,20556,1,8,0:0:0:0:
112,72,20905,6,0,L|432:72,1,320,10|8,0:0|0:0,0:0:0:0:
256,152,21951,2,0,L|192:240,1,80,8|2,0:0|0:0,0:0:0:0:
392,152,22300,5,10,0:0:0:0:
472,112,22474,1,10,0:0:0:0:
392,72,22649,1,8,0:0:0:0:
216,152,22997,1,10,0:0:0:0:
136,192,23171,1,10,0:0:0:0:
136,272,23346,1,10,0:0:0:0:
408,144,23695,6,0,P|451:223|288:352,1,320,14|10,0:0|0:0,0:0:0:0:
224,320,24567,1,2,0:0:0:0:
136,280,24742,1,8,0:0:0:0:
408,144,25090,6,0,P|480:184|408:296,1,240,10|0,0:0|0:0,0:0:0:0:
256,200,25788,2,0,P|168:240|256:272,1,240,10|0,0:0|0:0,0:0:0:0:
416,160,26486,6,0,L|256:160,1,160,10|10,0:0|0:0,0:0:0:0:
432,80,27183,2,0,L|432:240,1,160,10|10,0:0|0:0,0:0:0:0:
160,248,27881,5,10,0:0:0:0:
80,200,28056,1,0,0:0:0:0:
80,112,28230,1,0,0:0:0:0:
160,72,28404,1,0,0:0:0:0:
320,112,28579,2,0,L|480:112,1,160,10|2,0:0|0:0,0:0:0:0:
138,296,29276,5,0,0:0:0:0:
58,248,29451,1,0,0:0:0:0:
58,168,29625,1,8,0:0:0:0:
138,128,29800,1,2,0:0:0:0:
218,224,29974,2,0,L|58:224,1,160,8|8,0:0|0:0,0:0:0:0:
138,168,30497,1,0,0:0:0:0:
327,167,30672,5,14,0:0:0:0:
256,192,31021,12,0,36253,0:0:0:0:
