osu file format v14

[General]
AudioFilename: audio.mp3
AudioLeadIn: 0
PreviewTime: 1282
Countdown: 0
SampleSet: Normal
StackLeniency: 0.7
Mode: 2
LetterboxInBreaks: 0
WidescreenStoryboard: 1

[Editor]
DistanceSpacing: 0.9
BeatDivisor: 4
GridSize: 8
TimelineZoom: 2.2

[Metadata]
Title:kibo refrain (TV Size)
TitleUnicode:希望リフレイン (TV Size)
Artist:Aoshima Moka (CV: Mimori Suzuko)
ArtistUnicode:青島萌香 (CV: 三森すずこ)
Creator:bighzonda
Version:Rain
Source:OneRoom
Tags:one room カントク Kantoku japanese anime rock
BeatmapID:3210174
BeatmapSetID:1572192

[Difficulty]
HPDrainRate:5
CircleSize:4
OverallDifficulty:8.8
ApproachRate:8.8
SliderMultiplier:1.8
SliderTickRate:2

[Events]
//Background and Video events
0,0,"258363.jpg",0,0
//Break Periods
//Storyboard Layer 0 (Background)
//Storyboard Layer 1 (Fail)
//Storyboard Layer 2 (Pass)
//Storyboard Layer 3 (Foreground)
//Storyboard Layer 4 (Overlay)
//Storyboard Sound Samples

[TimingPoints]
1370,348.837209302326,4,1,22,60,1,0
36253,-100,4,1,22,5,0,0

[Colours]
Combo1 : 227,64,64
Combo2 : 182,84,24
Combo3 : 211,143,99

[HitObjects]
280,264,1370,6,0,L|280:168,1,90,14|0,0:0|0:0,0:0:0:0:
104,208,1718,2,0,L|104:104,1,90,10|0,0:0|0:0,0:0:0:0:
280,152,2067,2,0,L|376:152,1,90,10|0,0:0|0:0,0:0:0:0:
176,96,2416,2,0,L|64:96,1,90,10|2,0:0|0:0,0:0:0:0:
152,144,2678,1,0,0:0:0:0:
312,152,2765,6,0,L|312:256,1,90,8|0,0:0|0:0,0:0:0:0:
144,240,3114,2,0,L|144:136,1,90,8|0,0:0|0:0,0:0:0:0:
336,312,3463,2,0,L|440:312,1,90,10|0,0:0|0:0,0:0:0:0:
232,256,3811,2,0,L|128:256,1,90,10|0,0:0|0:0,0:0:0:0:
400,200,4160,5,10,0:0:0:0:
480,232,4335,1,2,0:0:0:0:
480,304,4509,1,10,0:0:0:0:
400,336,4683,1,0,0:0:0:0:
208,216,4858,2,0,L|104:216,2,90,10|0|10,0:0|0:0|0:0,0:0:0:0:
392,160,5381,1,2,0:0:0:0:
144,128,5556,6,0,P|56:184|96:272,1,180,10|8,0:0|0:0,0:0:0:0:
160,200,6079,1,0,0:0:0:0:
408,184,6253,2,0,L|408:80,1,90,10|0,0:0|0:0,0:0:0:0:
160,264,6602,2,0,L|70:264,1,90,10|0,0:0|0:0,0:0:0:0:
136,216,6864,1,0,0:0:0:0:
320,112,6951,6,0,P|377:173|312:224,1,180,10|8,0:0|0:0,0:0:0:0:
224,192,7474,1,0,0:0:0:0:
32,192,7649,2,0,L|32:286,1,90,10|2,0:0|0:0,0:0:0:0:
224,264,7997,2,0,L|336:264,1,90,8|0,0:0|0:0,0:0:0:0:
64,112,8346,6,0,P|7:173|72:224,1,180,10|8,0:0|0:0,0:0:0:0:
160,192,8869,1,0,0:0:0:0:
352,192,9044,2,0,L|352:286,1,90,10|2,0:0|0:0,0:0:0:0:
160,264,9392,2,0,L|48:264,1,90,8|0,0:0|0:0,0:0:0:0:
320,72,9742,6,0,P|384:120|312:160,1,180,10|8,0:0|0:0,0:0:0:0:
232,136,10265,1,0,0:0:0:0:
40,224,10439,2,0,L|40:336,1,90,8|0,0:0|0:0,0:0:0:0:
232,240,10788,2,0,L|336:240,1,90,8|2,0:0|0:0,0:0:0:0:
272,304,11050,1,0,0:0:0:0:
128,160,11137,5,10,0:0:0:0:
80,192,11224,1,0,0:0:0:0:
80,240,11311,1,2,0:0:0:0:
128,272,11399,1,0,0:0:0:0:
280,232,11486,6,0,L|376:232,1,90,10|0,0:0|0:0,0:0:0:0:
320,192,11747,1,0,0:0:0:0:
168,152,11835,2,0,L|64:152,1,90,10|0,0:0|0:0,0:0:0:0:
328,96,12183,5,10,0:0:0:0:
376,128,12270,1,8,0:0:0:0:
376,176,12358,1,8,0:0:0:0:
328,208,12445,1,8,0:0:0:0:
176,248,12532,5,6,3:0:0:0:
80,192,12707,1,6,3:0:0:0:
80,96,12881,1,10,0:0:0:0:
176,40,13056,1,6,3:0:0:0:
342,149,13230,2,0,P|396:186|344:275,1,180,4|10,3:0|0:0,0:0:0:0:
120,176,13753,6,0,P|56:144|120:96,1,180,6|0,0:0|0:0,0:0:0:0:
312,320,14276,2,0,L|360:224,1,90,8|0,0:0|2:0,0:0:0:0:
304,256,14538,1,0,0:0:0:0:
152,224,14625,2,0,L|48:224,1,90,2|0,0:0|2:0,0:0:0:0:
256,288,14974,2,0,L|352:288,1,90,8|0,0:0|0:0,0:0:0:0:
112,256,15323,5,6,1:0:0:0:
32,216,15497,1,6,1:0:0:0:
32,136,15672,1,8,0:0:0:0:
112,96,15846,1,0,0:0:0:0:
304,248,16021,2,0,L|400:248,1,90,2|0,0:0|0:0,0:0:0:0:
216,192,16370,1,10,0:0:0:0:
464,112,16544,6,0,L|280:112,1,180,6|0,0:0|0:0,0:0:0:0:
80,160,17067,2,0,P|96:232|104:248,1,90,8|0,0:0|0:0,0:0:0:0:
152,256,17329,1,0,0:0:0:0:
328,192,17416,5,10,0:0:0:0:
376,216,17503,1,0,0:0:0:0:
376,264,17590,1,0,0:0:0:0:
328,288,17678,1,0,0:0:0:0:
176,248,17765,5,8,0:0:0:0:
128,272,17852,1,8,0:0:0:0:
128,320,17939,1,8,0:0:0:0:
176,344,18027,1,8,0:0:0:0:
352,272,18114,6,0,P|409:211|344:160,1,180,6|8,1:0|0:0,0:0:0:0:
256,192,18637,1,0,0:0:0:0:
64,192,18812,2,0,L|64:98,1,90,2|2,0:0|0:0,0:0:0:0:
256,120,19160,2,0,L|368:120,1,90,8|0,0:0|0:0,0:0:0:0:
96,272,19509,6,0,P|39:211|104:160,1,180,6|8,1:0|0:0,0:0:0:0:
192,192,20032,1,0,0:0:0:0:
384,192,20207,2,0,L|384:98,1,90,0|2,0:0|0:0,0:0:0:0:
192,120,20555,2,0,L|80:120,1,90,8|0,0:0|0:0,0:0:0:0:
352,312,20905,6,0,P|408:264|337:220,1,180,10|8,0:0|0:0,0:0:0:0:
250,247,21428,1,0,0:0:0:0:
72,160,21602,2,0,L|72:48,1,90,8|0,0:0|0:0,0:0:0:0:
264,144,21951,2,0,L|368:144,1,90,8|2,0:0|0:0,0:0:0:0:
304,80,22213,1,0,0:0:0:0:
136,224,22300,5,10,0:0:0:0:
88,192,22387,1,8,0:0:0:0:
88,144,22474,1,10,0:0:0:0:
136,112,22561,1,0,0:0:0:0:
288,152,22649,5,8,0:0:0:0:
336,184,22736,1,8,0:0:0:0:
336,240,22823,1,10,0:0:0:0:
288,280,22910,1,0,0:0:0:0:
136,240,22998,2,0,L|88:144,1,90,10|10,0:0|0:0,0:0:0:0:
344,288,23346,2,0,L|440:288,1,90,10|8,0:0|0:0,0:0:0:0:
384,240,23608,1,8,0:0:0:0:
232,160,23695,6,0,L|120:160,1,90,14|0,0:0|0:0,0:0:0:0:
312,80,24044,2,0,L|312:176,1,90,8|0,0:0|0:0,0:0:0:0:
80,136,24393,1,10,0:0:0:0:
256,208,24567,1,2,0:0:0:0:
80,288,24742,2,0,L|80:184,1,90,8|2,0:0|0:0,0:0:0:0:
328,240,25090,6,0,P|384:176|320:144,1,180,10|10,0:0|0:0,0:0:0:0:
144,176,25614,1,0,0:0:0:0:
376,240,25788,2,0,P|432:304|368:336,1,180,10|8,0:0|0:0,0:0:0:0:
192,304,26311,2,0,L|192:256,1,45,0|0,0:0|0:0,0:0:0:0:
360,120,26486,6,0,L|360:224,1,90,10|0,0:0|0:0,0:0:0:0:
264,264,26835,2,0,L|368:264,1,90,10|0,0:0|0:0,0:0:0:0:
160,240,27183,2,0,L|160:136,1,90,10|0,0:0|0:0,0:0:0:0:
256,96,27532,2,0,L|352:96,1,90,10|0,0:0|0:0,0:0:0:0:
96,136,27881,5,10,0:0:0:0:
16,184,28056,1,0,0:0:0:0:
16,272,28230,1,0,0:0:0:0:
96,312,28404,1,0,0:0:0:0:
280,272,28579,2,0,L|376:272,1,90,10|0,0:0|0:0,0:0:0:0:
176,192,28928,2,0,L|86:192,1,90,2|0,0:0|0:0,0:0:0:0:
328,104,29276,5,0,0:0:0:0:
384,128,29393,1,0,0:0:0:0:
328,160,29509,1,0,0:0:0:0:
192,192,29625,1,8,0:0:0:0:
256,216,29742,1,8,0:0:0:0:
320,240,29858,1,8,0:0:0:0:
139,264,29974,6,0,L|43:264,1,90,8|0,0:0|0:0,0:0:0:0:
339,128,30323,2,0,L|443:128,1,90,8|0,0:0|0:0,0:0:0:0:
113,110,30672,5,14,0:0:0:0:
256,192,30846,12,0,36253,0:0:0:0:
