osu file format v14

[General]
AudioFilename: audio.mp3
AudioLeadIn: 0
PreviewTime: 1282
Countdown: 0
SampleSet: Normal
StackLeniency: 0.7
Mode: 2
LetterboxInBreaks: 0
WidescreenStoryboard: 1

[Editor]
DistanceSpacing: 0.9
BeatDivisor: 4
GridSize: 8
TimelineZoom: 2.2

[Metadata]
Title:kibo refrain (TV Size)
TitleUnicode:希望リフレイン (TV Size)
Artist:Aoshima Moka (CV: Mimori Suzuko)
ArtistUnicode:青島萌香 (CV: 三森すずこ)
Creator:bighzonda
Version:Platter
Source:OneRoom
Tags:one room カントク Kantoku japanese anime rock
BeatmapID:3210173
BeatmapSetID:1572192

[Difficulty]
HPDrainRate:4
CircleSize:3.5
OverallDifficulty:8
ApproachRate:8
SliderMultiplier:1.8
SliderTickRate:2

[Events]
//Background and Video events
0,0,"258363.jpg",0,0
//Break Periods
//Storyboard Layer 0 (Background)
//Storyboard Layer 1 (Fail)
//Storyboard Layer 2 (Pass)
//Storyboard Layer 3 (Foreground)
//Storyboard Layer 4 (Overlay)
//Storyboard Sound Samples

[TimingPoints]
1370,348.837209302326,4,1,22,60,1,0
36253,-100,4,1,22,5,0,0

[Colours]
Combo1 : 227,64,64
Combo2 : 182,84,24
Combo3 : 211,143,99

[HitObjects]
96,152,1370,6,0,L|96:248,1,90,14|0,0:0|0:0,0:0:0:0:
272,208,1718,2,0,L|272:312,1,90,10|0,0:0|0:0,0:0:0:0:
96,264,2067,2,0,P|32:240|104:216,1,180,10|10,0:0|0:0,0:0:0:0:
192,240,2590,1,2,0:0:0:0:
432,304,2765,6,0,P|496:248|432:208,1,180,8|8,0:0|0:0,0:0:0:0:
344,184,3288,1,0,0:0:0:0:
168,104,3463,2,0,L|64:104,1,90,10|0,0:0|0:0,0:0:0:0:
256,160,3811,2,0,L|360:160,1,90,10|0,0:0|0:0,0:0:0:0:
103,272,4160,5,10,0:0:0:0:
23,304,4335,1,2,0:0:0:0:
103,344,4509,1,10,0:0:0:0:
375,365,4858,2,0,P|455:280|464:192,1,180,10|10,0:0|0:0,0:0:0:0:
376,176,5381,1,2,0:0:0:0:
136,72,5556,6,0,P|80:128|144:200,1,180,10|8,0:0|0:0,0:0:0:0:
312,296,6253,2,0,L|402:296,1,90,10|0,0:0|0:0,0:0:0:0:
224,224,6602,2,0,L|134:224,1,90,10|0,0:0|0:0,0:0:0:0:
416,112,6951,6,0,P|496:168|496:248,1,180,10|8,0:0|0:0,0:0:0:0:
408,232,7474,1,0,0:0:0:0:
232,144,7649,2,0,L|232:248,1,90,10|2,0:0|0:0,0:0:0:0:
328,264,7997,2,0,L|328:160,1,90,8|0,0:0|0:0,0:0:0:0:
72,104,8346,6,0,P|72:176|192:224,1,180,10|8,0:0|0:0,0:0:0:0:
248,184,8869,1,0,0:0:0:0:
424,240,9044,2,0,L|424:136,1,90,10|2,0:0|0:0,0:0:0:0:
328,144,9392,2,0,L|216:144,1,90,8|0,0:0|0:0,0:0:0:0:
496,312,9742,6,0,P|496:224|392:208,1,180,10|8,0:0|0:0,0:0:0:0:
328,248,10265,1,0,0:0:0:0:
232,200,10439,2,0,L|200:96,1,90,8|0,0:0|0:0,0:0:0:0:
296,88,10788,2,0,L|328:192,1,90,8|2,0:0|0:0,0:0:0:0:
136,312,11137,5,10,0:0:0:0:
88,280,11224,1,0,0:0:0:0:
40,256,11311,2,0,L|136:256,1,90,2|10,0:0|0:0,0:0:0:0:
304,232,11835,2,0,L|120:232,1,180,10|10,0:0|0:0,0:0:0:0:
72,192,12271,1,8,0:0:0:0:
124,232,12358,1,8,0:0:0:0:
300,177,12532,6,0,L|396:177,1,90,6|6,3:0|3:0,0:0:0:0:
300,177,12881,2,0,L|204:177,1,90,10|6,0:0|3:0,0:0:0:0:
120,133,13230,2,0,P|97:214|158:279,1,180,4|10,3:0|0:0,0:0:0:0:
400,208,13753,6,0,P|464:240|400:288,1,180,6|0,0:0|0:0,0:0:0:0:
304,248,14276,2,0,L|400:248,1,90,8|0,0:0|2:0,0:0:0:0:
304,176,14625,2,0,L|200:176,1,90,2|0,0:0|2:0,0:0:0:0:
408,112,14974,2,0,L|422:4,1,90,8|0,0:0|0:0,0:0:0:0:
180,204,15323,5,6,1:0:0:0:
100,244,15497,1,6,1:0:0:0:
180,284,15672,1,8,0:0:0:0:
360,136,16021,2,0,L|176:136,1,180,2|10,0:0|0:0,0:0:0:0:
424,304,16544,6,0,P|472:256|392:208,1,180,6|0,0:0|0:0,0:0:0:0:
312,232,17067,2,0,L|216:232,1,90,8|0,0:0|0:0,0:0:0:0:
416,216,17416,1,10,0:0:0:0:
464,192,17503,1,0,0:0:0:0:
416,216,17590,1,0,0:0:0:0:
328,136,17765,1,8,0:0:0:0:
280,112,17852,1,8,0:0:0:0:
232,88,17939,1,8,0:0:0:0:
472,320,18114,6,0,L|496:136,1,180,6|8,1:0|0:0,0:0:0:0:
408,144,18637,1,0,0:0:0:0:
224,232,18812,2,0,L|240:136,1,90,2|2,0:0|0:0,0:0:0:0:
336,128,19160,2,0,L|352:240,1,90,8|0,0:0|0:0,0:0:0:0:
96,200,19509,6,0,P|64:168|160:96,1,180,6|8,1:0|0:0,0:0:0:0:
226,144,20032,1,0,0:0:0:0:
424,192,20207,2,0,L|424:96,1,90,0|2,0:0|0:0,0:0:0:0:
336,88,20555,2,0,L|224:88,1,90,8|0,0:0|0:0,0:0:0:0:
504,88,20905,6,0,P|488:168|400:232,1,180,10|8,0:0|0:0,0:0:0:0:
328,152,21428,1,0,0:0:0:0:
232,200,21602,2,0,L|128:200,1,90,8|0,0:0|0:0,0:0:0:0:
240,256,21951,2,0,L|344:256,1,90,8|2,0:0|0:0,0:0:0:0:
136,152,22300,5,10,0:0:0:0:
88,192,22387,1,8,0:0:0:0:
136,232,22474,1,10,0:0:0:0:
224,144,22649,1,8,0:0:0:0:
272,104,22736,1,8,0:0:0:0:
224,64,22823,1,10,0:0:0:0:
48,176,22997,6,0,L|48:80,1,90,10|10,0:0|0:0,0:0:0:0:
144,104,23346,2,0,L|48:104,1,90,10|8,0:0|0:0,0:0:0:0:
296,88,23695,6,0,P|384:152|344:208,1,180,14|8,0:0|0:0,0:0:0:0:
272,224,24218,1,0,0:0:0:0:
80,248,24393,2,0,L|80:128,1,90,10|2,0:0|0:0,0:0:0:0:
176,96,24742,2,0,L|80:96,1,90,8|2,0:0|0:0,0:0:0:0:
321,130,25090,6,0,P|418:179|370:225,1,180,10|10,0:0|0:0,0:0:0:0:
304,216,25614,1,0,0:0:0:0:
120,144,25788,2,0,P|64:208|128:240,1,180,10|8,0:0|0:0,0:0:0:0:
216,216,26312,1,0,0:0:0:0:
456,264,26486,6,0,L|456:160,1,90,10|0,0:0|0:0,0:0:0:0:
360,120,26835,2,0,L|464:120,1,90,10|0,0:0|0:0,0:0:0:0:
263,145,27183,2,0,L|263:249,1,90,10|0,0:0|0:0,0:0:0:0:
352,288,27532,2,0,L|448:288,1,90,10|0,0:0|0:0,0:0:0:0:
192,248,27881,5,10,0:0:0:0:
112,200,28056,1,0,0:0:0:0:
112,112,28230,1,0,0:0:0:0:
192,72,28404,1,0,0:0:0:0:
376,112,28579,2,0,L|472:112,1,90,10|0,0:0|0:0,0:0:0:0:
368,192,28928,2,0,L|472:192,1,90,2|0,0:0|0:0,0:0:0:0:
216,280,29276,5,0,0:0:0:0:
120,232,29451,1,0,0:0:0:0:
216,200,29625,1,8,0:0:0:0:
280,168,29742,1,8,0:0:0:0:
216,136,29858,1,8,0:0:0:0:
152,113,29974,6,0,L|152:209,1,90,8|0,0:0|0:0,0:0:0:0:
329,249,30323,2,0,L|433:249,1,90,8|0,0:0|0:0,0:0:0:0:
161,177,30672,5,14,0:0:0:0:
256,192,30846,12,0,36253,0:0:0:0:
