osu file format v14

[General]
AudioFilename: audio.mp3
AudioLeadIn: 0
PreviewTime: 1282
Countdown: 0
SampleSet: Normal
StackLeniency: 0.7
Mode: 2
LetterboxInBreaks: 0
WidescreenStoryboard: 1

[Editor]
DistanceSpacing: 0.9
BeatDivisor: 4
GridSize: 8
TimelineZoom: 2.2

[Metadata]
Title:kibo refrain (TV Size)
TitleUnicode:希望リフレイン (TV Size)
Artist:Aoshima Moka (CV: Mimori Suzuko)
ArtistUnicode:青島萌香 (CV: 三森すずこ)
Creator:bighzonda
Version:Childhood Dream
Source:OneRoom
Tags:one room カントク Kantoku japanese anime rock
BeatmapID:3210171
BeatmapSetID:1572192

[Difficulty]
HPDrainRate:6
CircleSize:4.5
OverallDifficulty:9.2
ApproachRate:9.2
SliderMultiplier:1.8
SliderTickRate:2

[Events]
//Background and Video events
0,0,"258363.jpg",0,0
//Break Periods
//Storyboard Layer 0 (Background)
//Storyboard Layer 1 (Fail)
//Storyboard Layer 2 (Pass)
//Storyboard Layer 3 (Foreground)
//Storyboard Layer 4 (Overlay)
//Storyboard Sound Samples

[TimingPoints]
1370,348.837209302326,4,1,22,60,1,0
36253,-100,4,1,22,5,0,0

[Colours]
Combo1 : 227,64,64
Combo2 : 182,84,24
Combo3 : 211,143,99

[HitObjects]
224,120,1370,6,0,L|128:120,1,90,14|0,0:0|0:0,0:0:0:0:
400,176,1718,2,0,L|400:280,1,90,10|0,0:0|0:0,0:0:0:0:
224,232,2067,2,0,L|128:232,1,90,10|0,0:0|0:0,0:0:0:0:
384,288,2416,2,0,L|496:288,1,90,10|2,0:0|0:0,0:0:0:0:
408,240,2678,1,0,0:0:0:0:
224,232,2765,6,0,L|128:232,1,90,8|0,0:0|0:0,0:0:0:0:
376,192,3114,2,0,L|376:96,1,90,8|0,0:0|0:0,0:0:0:0:
200,184,3463,2,0,L|96:184,1,90,10|0,0:0|0:0,0:0:0:0:
288,128,3811,2,0,L|392:128,1,90,10|0,0:0|0:0,0:0:0:0:
112,280,4160,5,10,0:0:0:0:
280,240,4335,1,2,0:0:0:0:
40,240,4509,1,10,0:0:0:0:
120,208,4683,1,0,0:0:0:0:
400,136,4858,2,0,L|504:136,2,90,10|0|10,0:0|0:0|0:0,0:0:0:0:
208,192,5381,1,2,0:0:0:0:
448,256,5556,6,0,P|512:200|440:176,1,180,10|8,0:0|0:0,0:0:0:0:
360,184,6079,1,0,0:0:0:0:
112,200,6253,2,0,L|112:304,1,90,10|0,0:0|0:0,0:0:0:0:
360,120,6602,2,0,L|450:120,1,90,10|0,0:0|0:0,0:0:0:0:
384,168,6864,1,0,0:0:0:0:
200,272,6951,6,0,P|120:232|168:184,1,180,10|8,0:0|0:0,0:0:0:0:
248,168,7474,1,0,0:0:0:0:
488,192,7649,1,10,0:0:0:0:
312,144,7823,1,2,0:0:0:0:
488,128,7997,2,0,L|376:128,1,90,8|0,0:0|0:0,0:0:0:0:
152,336,8346,6,0,P|72:296|120:248,1,180,10|8,0:0|0:0,0:0:0:0:
200,232,8869,1,0,0:0:0:0:
440,256,9044,1,10,0:0:0:0:
264,208,9218,1,2,0:0:0:0:
440,192,9392,2,0,L|440:96,1,90,8|0,0:0|0:0,0:0:0:0:
193,119,9742,5,10,0:0:0:0:
280,80,9916,1,0,0:0:0:0:
24,328,10090,2,0,L|24:224,1,90,8|0,0:0|0:0,0:0:0:0:
280,176,10439,2,0,L|384:176,1,90,8|0,0:0|0:0,0:0:0:0:
120,144,10788,2,0,L|16:144,1,90,8|2,0:0|0:0,0:0:0:0:
96,88,11050,1,0,0:0:0:0:
280,224,11137,5,10,0:0:0:0:
344,192,11224,1,0,0:0:0:0:
176,160,11311,1,2,0:0:0:0:
112,128,11399,1,0,0:0:0:0:
280,88,11486,5,10,0:0:0:0:
328,120,11573,1,0,0:0:0:0:
328,176,11660,1,0,0:0:0:0:
280,208,11747,1,0,0:0:0:0:
128,272,11835,5,10,0:0:0:0:
80,240,11922,1,0,0:0:0:0:
80,192,12010,1,0,0:0:0:0:
128,160,12097,1,0,0:0:0:0:
280,192,12183,5,10,0:0:0:0:
344,160,12270,1,8,0:0:0:0:
176,128,12357,1,8,0:0:0:0:
112,96,12445,1,8,0:0:0:0:
344,136,12532,5,6,3:0:0:0:
445,190,12707,1,6,3:0:0:0:
378,223,12794,1,6,3:0:0:0:
311,254,12881,1,10,0:0:0:0:
200,312,13056,1,6,3:0:0:0:
248,247,13143,1,6,3:0:0:0:
296,184,13230,1,4,3:0:0:0:
200,152,13404,1,6,3:0:0:0:
151,141,13492,1,6,3:0:0:0:
104,128,13579,1,10,0:0:0:0:
384,207,13753,6,0,P|448:239|384:287,1,180,6|0,0:0|0:0,0:0:0:0:
136,248,14276,2,0,L|32:248,1,90,8|0,0:0|2:0,0:0:0:0:
296,160,14625,2,0,L|400:160,1,90,2|0,0:0|2:0,0:0:0:0:
144,96,14974,2,0,L|48:96,1,90,8|0,0:0|0:0,0:0:0:0:
120,152,15236,1,0,0:0:0:0:
304,128,15323,5,6,1:0:0:0:
384,168,15497,1,6,1:0:0:0:
112,223,15672,2,0,L|28:266,1,90,8|0,0:0|0:0,0:0:0:0:
88,256,15933,1,0,0:0:0:0:
280,136,16021,2,0,L|376:136,1,90,2|0,0:0|0:0,0:0:0:0:
176,192,16370,1,10,0:0:0:0:
440,272,16544,6,0,L|256:272,1,180,6|0,0:0|0:0,0:0:0:0:
72,224,17067,2,0,P|88:152|112:144,1,90,8|0,0:0|0:0,0:0:0:0:
160,128,17329,1,0,0:0:0:0:
360,192,17416,5,10,0:0:0:0:
408,168,17503,1,0,0:0:0:0:
408,120,17590,1,0,0:0:0:0:
360,96,17678,1,0,0:0:0:0:
208,136,17765,5,8,0:0:0:0:
144,112,17852,1,8,0:0:0:0:
296,88,17939,1,8,0:0:0:0:
360,64,18026,1,8,0:0:0:0:
208,272,18114,6,0,P|128:232|160:168,1,180,6|8,1:0|0:0,0:0:0:0:
248,168,18637,1,0,0:0:0:0:
304,160,18724,1,0,0:0:0:0:
496,192,18812,1,2,0:0:0:0:
320,144,18986,1,2,0:0:0:0:
496,128,19160,2,0,L|384:128,1,90,8|0,0:0|0:0,0:0:0:0:
160,336,19509,6,0,P|80:296|128:248,1,180,6|8,1:0|0:0,0:0:0:0:
208,232,20032,1,0,0:0:0:0:
448,256,20207,1,0,0:0:0:0:
272,208,20381,1,2,0:0:0:0:
448,192,20555,2,0,L|448:96,1,90,8|0,0:0|0:0,0:0:0:0:
201,119,20905,5,10,0:0:0:0:
112,72,21079,1,0,0:0:0:0:
368,160,21253,2,0,L|472:160,1,90,8|0,0:0|0:0,0:0:0:0:
264,208,21602,2,0,L|160:208,1,90,8|0,0:0|0:0,0:0:0:0:
432,240,21951,2,0,L|432:336,1,90,8|2,0:0|0:0,0:0:0:0:
368,328,22213,1,0,0:0:0:0:
216,224,22300,5,10,0:0:0:0:
168,192,22387,1,8,0:0:0:0:
168,144,22474,1,10,0:0:0:0:
216,112,22561,1,0,0:0:0:0:
368,168,22649,5,8,0:0:0:0:
416,200,22736,1,8,0:0:0:0:
464,232,22823,1,10,0:0:0:0:
416,264,22910,1,0,0:0:0:0:
264,280,22997,5,10,0:0:0:0:
200,304,23085,1,8,0:0:0:0:
352,320,23172,1,10,0:0:0:0:
416,344,23259,1,8,0:0:0:0:
264,224,23346,2,0,L|168:224,1,90,10|8,0:0|0:0,0:0:0:0:
174,224,23608,1,8,0:0:0:0:
358,144,23695,6,0,L|470:144,1,90,14|0,0:0|0:0,0:0:0:0:
200,64,24044,2,0,L|104:64,1,90,8|0,0:0|0:0,0:0:0:0:
392,192,24393,1,10,0:0:0:0:
216,264,24567,1,2,0:0:0:0:
479,321,24742,2,0,L|376:320,1,90,8|2,0:0|0:0,0:0:0:0:
128,240,25090,5,10,0:0:0:0:
296,176,25265,1,0,0:0:0:0:
32,96,25439,1,10,0:0:0:0:
205,109,25614,1,0,0:0:0:0:
480,128,25788,2,0,L|384:128,1,90,10|0,0:0|0:0,0:0:0:0:
128,352,26137,2,0,L|32:352,1,90,8|0,0:0|0:0,0:0:0:0:
88,368,26399,1,0,0:0:0:0:
272,120,26486,6,0,L|272:224,1,90,10|0,0:0|0:0,0:0:0:0:
24,240,26835,2,0,L|24:344,1,90,10|0,0:0|0:0,0:0:0:0:
272,248,27183,2,0,L|376:248,1,90,10|0,0:0|0:0,0:0:0:0:
104,304,27532,2,0,L|8:304,1,90,10|0,0:0|0:0,0:0:0:0:
80,272,27794,1,0,0:0:0:0:
272,128,27881,6,0,L|352:176,1,90,10|0,0:0|0:0,0:0:0:0:
192,200,28230,2,0,L|272:241,1,90
16,264,28579,2,0,L|16:160,1,90,10|0,0:0|0:0,0:0:0:0:
176,184,28928,2,0,L|72:184,1,90,2|0,0:0|0:0,0:0:0:0:
360,96,29276,5,0,0:0:0:0:
416,168,29393,1,0,0:0:0:0:
360,192,29509,1,0,0:0:0:0:
176,192,29625,1,8,0:0:0:0:
272,224,29742,1,8,0:0:0:0:
368,248,29858,1,8,0:0:0:0:
136,240,29974,6,0,L|40:240,1,90,8|0,0:0|0:0,0:0:0:0:
328,104,30323,2,0,B|417:104,1,90,8|8,0:0|0:0,0:0:0:0:
39,137,30672,5,14,0:0:0:0:
256,192,30846,12,0,36253,0:0:0:0:
