osu file format v14

[General]
AudioFilename: audio.mp3
AudioLeadIn: 0
PreviewTime: 1370
Countdown: 0
SampleSet: Soft
StackLeniency: 0.7
Mode: 0
LetterboxInBreaks: 0
WidescreenStoryboard: 0

[Editor]
DistanceSpacing: 2.2
BeatDivisor: 4
GridSize: 32
TimelineZoom: 1

[Metadata]
Title:kibo refrain
TitleUnicode:希望リフレイン
Artist:Aoshima Moka (CV: Mimori Suzuko)
ArtistUnicode:青島萌香 (CV: 三森すずこ)
Creator:Supicha
Version:Kurumi Style
Source:OneRoom
Tags:one_room extended tv size
BeatmapID:1794063
BeatmapSetID:858435

[Difficulty]
HPDrainRate:6
CircleSize:4
OverallDifficulty:8
ApproachRate:9.5
SliderMultiplier:1.6
SliderTickRate:1

[Events]
//Background and Video events
0,0,"RefrainBG.jpg",0,0
//Break Periods
//Storyboard Layer 0 (Background)
//Storyboard Layer 1 (Fail)
//Storyboard Layer 2 (Pass)
//Storyboard Layer 3 (Foreground)
//Storyboard Sound Samples

[TimingPoints]
1370,348.837209302326,4,2,0,60,1,0
23695,-83.3333333333333,4,2,0,80,0,0
29276,-83.3333333333333,4,2,0,70,0,0
29974,-83.3333333333333,4,2,0,60,0,0
30672,-83.3333333333333,4,2,0,50,0,0

[HitObjects]
146,74,1370,5,2,1:2:0:0:
445,113,1544,1,0,0:0:0:0:
137,102,1718,1,2,1:2:0:0:
450,88,1893,1,0,0:0:0:0:
139,129,2067,1,2,1:2:0:0:
441,66,2242,1,0,0:0:0:0:
149,153,2416,1,2,1:2:0:0:
430,57,2590,1,0,0:0:0:0:
430,57,2678,1,0,0:0:0:0:
430,57,2765,5,2,1:2:0:0:
326,354,2939,1,0,0:0:0:0:
395,66,3114,1,2,1:2:0:0:
359,366,3288,1,0,0:0:0:0:
363,64,3463,1,2,1:2:0:0:
395,366,3637,1,0,0:0:0:0:
330,52,3811,1,2,1:2:0:0:
426,353,3986,1,0,0:0:0:0:
71,273,4160,5,2,1:2:0:0:
434,118,4335,1,0,0:0:0:0:
55,244,4509,1,2,1:2:0:0:
446,148,4683,1,0,0:0:0:0:
48,211,4858,1,2,1:2:0:0:
449,183,5032,1,0,0:0:0:0:
57,178,5207,1,2,1:2:0:0:
444,216,5381,1,0,0:0:0:0:
444,216,5468,1,0,0:0:0:0:
444,216,5556,5,2,1:2:0:0:
56,69,5730,1,0,0:0:0:0:
426,242,5904,1,2,1:2:0:0:
79,52,6079,1,0,0:0:0:0:
432,274,6253,5,8,0:0:0:0:
92,20,6428,1,0,0:0:0:0:
414,297,6602,1,8,0:0:0:0:
117,6,6776,1,0,0:0:0:0:
155,319,6951,5,2,1:2:0:0:
352,71,7125,1,0,0:0:0:0:
136,331,7300,1,2,1:2:0:0:
371,59,7474,1,0,0:0:0:0:
116,344,7649,1,2,1:2:0:0:
391,46,7823,1,0,0:0:0:0:
96,355,7997,1,2,1:2:0:0:
411,35,8171,1,0,0:0:0:0:
357,319,8346,5,2,1:2:0:0:
160,71,8520,1,0,0:0:0:0:
376,331,8695,1,2,1:2:0:0:
141,59,8869,1,0,0:0:0:0:
396,344,9044,1,2,1:2:0:0:
121,46,9218,1,0,0:0:0:0:
416,355,9392,1,2,1:2:0:0:
101,35,9566,1,0,0:0:0:0:
446,98,9742,5,2,1:2:0:0:
111,280,9916,1,0,0:0:0:0:
471,181,10090,1,2,1:2:0:0:
74,202,10265,1,0,0:0:0:0:
461,264,10439,1,2,1:2:0:0:
75,120,10614,1,0,0:0:0:0:
410,333,10788,1,2,1:2:0:0:
128,51,10963,1,0,0:0:0:0:
332,355,11137,5,2,1:2:0:0:
296,329,11224,1,0,0:0:0:0:
253,316,11311,1,0,0:0:0:0:
209,322,11399,1,0,0:0:0:0:
161,342,11486,5,2,1:2:0:0:
166,290,11573,1,0,0:0:0:0:
151,240,11660,1,0,0:0:0:0:
120,197,11747,1,0,0:0:0:0:
66,161,11835,5,4,0:0:0:0:
107,112,11922,1,0,0:0:0:0:
169,101,12009,1,0,0:0:0:0:
227,125,12096,1,0,0:0:0:0:
289,160,12183,5,4,0:0:0:0:
356,187,12271,1,0,0:0:0:0:
425,170,12358,1,0,0:0:0:0:
474,117,12445,1,0,0:0:0:0:
469,45,12532,6,0,L|377:51,1,80,2|0,1:2|0:0,0:0:0:0:
318,71,12794,1,0,0:0:0:0:
248,95,12881,2,0,L|139:102,1,80,2|0,1:2|0:0,0:0:0:0:
33,152,13230,1,2,1:2:0:0:
419,261,13404,1,0,0:0:0:0:
26,183,13579,1,2,1:2:0:0:
421,228,13753,6,0,L|261:164,1,160,4|0,0:0|0:0,0:0:0:0:
62,87,14276,1,2,1:2:0:0:
248,352,14451,1,0,0:0:0:0:
87,56,14625,5,2,1:2:0:0:
223,372,14800,1,0,0:0:0:0:
118,51,14974,1,2,1:2:0:0:
188,373,15149,1,0,0:0:0:0:
473,202,15323,5,2,1:2:0:0:
152,166,15497,1,0,0:0:0:0:
461,171,15672,1,2,1:2:0:0:
164,198,15846,1,0,0:0:0:0:
164,198,15933,1,0,0:0:0:0:
164,198,16021,5,2,1:2:0:0:
456,139,16195,1,0,0:0:0:0:
170,228,16370,1,2,1:2:0:0:
469,105,16544,2,0,L|306:94,1,160,4|0,0:0|0:0,0:0:0:0:
84,78,17067,1,2,1:2:0:0:
145,356,17242,1,0,0:0:0:0:
107,59,17416,5,2,1:2:0:0:
116,371,17590,1,0,0:0:0:0:
137,45,17765,1,2,1:2:0:0:
87,383,17939,1,0,0:0:0:0:
457,253,18114,5,2,1:2:0:0:
92,266,18288,1,0,0:0:0:0:
477,220,18463,1,2,1:2:0:0:
104,294,18637,1,0,0:0:0:0:
475,184,18811,1,2,1:2:0:0:
122,319,18986,1,0,0:0:0:0:
458,151,19160,1,2,1:2:0:0:
146,341,19335,1,0,0:0:0:0:
426,129,19509,5,2,1:2:0:0:
176,261,19683,1,0,0:0:0:0:
386,108,19858,1,2,1:2:0:0:
211,287,20032,1,0,0:0:0:0:
365,72,20207,1,2,1:2:0:0:
236,325,20381,1,0,0:0:0:0:
373,28,20556,1,2,1:2:0:0:
252,366,20730,1,0,0:0:0:0:
407,5,20904,5,2,1:2:0:0:
95,75,21079,1,0,0:0:0:0:
436,32,21253,1,2,1:2:0:0:
72,108,21428,1,0,0:0:0:0:
464,66,21602,1,2,1:2:0:0:
48,142,21776,1,0,0:0:0:0:
487,103,21951,1,2,1:2:0:0:
30,180,22125,1,0,0:0:0:0:
507,144,22300,5,2,1:2:0:0:
451,175,22387,1,0,0:0:0:0:
387,170,22474,1,0,0:0:0:0:
327,146,22561,1,0,0:0:0:0:
280,90,22649,5,2,1:2:0:0:
210,72,22736,1,0,0:0:0:0:
138,81,22823,1,0,0:0:0:0:
72,109,22910,1,0,0:0:0:0:
35,180,22997,5,2,1:2:0:0:
47,259,23085,1,0,0:0:0:0:
93,323,23172,1,2,1:2:0:0:
170,343,23259,1,0,0:0:0:0:
229,278,23346,5,2,1:2:0:0:
252,193,23433,1,0,0:0:0:0:
327,146,23521,1,2,1:2:0:0:
413,161,23608,1,0,0:0:0:0:
483,239,23695,5,4,0:0:0:0:
145,228,23870,1,0,0:0:0:0:
490,269,24044,5,2,1:2:0:0:
143,191,24218,1,0,0:0:0:0:
494,302,24393,5,2,1:2:0:0:
142,155,24567,1,0,0:0:0:0:
498,331,24742,5,2,1:2:0:0:
141,120,24916,1,0,0:0:0:0:
501,364,25090,5,4,0:0:0:0:
197,29,25265,1,0,0:0:0:0:
469,359,25439,5,2,1:2:0:0:
228,26,25614,1,0,0:0:0:0:
437,356,25788,5,2,1:2:0:0:
259,24,25963,1,0,0:0:0:0:
404,351,26137,5,2,1:2:0:0:
292,23,26311,1,0,0:0:0:0:
370,344,26486,5,4,0:0:0:0:
16,100,26660,1,0,0:0:0:0:
336,344,26835,5,0,1:2:0:0:
48,83,27009,1,0,0:0:0:0:
299,344,27183,5,0,1:2:0:0:
81,66,27358,1,0,0:0:0:0:
260,343,27532,5,0,1:2:0:0:
114,53,27707,1,0,0:0:0:0:
222,343,27881,5,4,0:0:0:0:
361,52,28056,1,0,0:0:0:0:
180,348,28230,5,2,1:2:0:0:
395,37,28404,1,0,0:0:0:0:
137,353,28579,5,2,1:2:0:0:
432,25,28753,1,0,0:0:0:0:
93,356,28928,5,2,1:2:0:0:
472,10,29102,1,0,0:0:0:0:
49,359,29276,6,0,P|40:298|71:246,2,63.9999980468751,2|2|2,1:2|1:2|1:2,0:0:0:0:
166,44,29625,6,0,P|175:105|144:157,2,63.9999980468751,2|2|2,1:2|1:2|1:2,0:0:0:0:
299,353,29974,5,2,1:2:0:0:
404,29,30149,1,0,0:0:0:0:
335,358,30323,5,2,1:2:0:0:
368,22,30497,1,0,0:0:0:0:
373,364,30672,5,4,0:0:0:0:
256,192,30759,12,0,36253,0:0:0:0:
