osu file format v14

[General]
AudioFilename: audio.mp3
AudioLeadIn: 0
PreviewTime: 1282
Countdown: 0
SampleSet: Normal
StackLeniency: 0.7
Mode: 0
LetterboxInBreaks: 0
WidescreenStoryboard: 0

[Editor]
DistanceSpacing: 0.9
BeatDivisor: 4
GridSize: 32
TimelineZoom: 1

[Metadata]
Title:kibo refrain
TitleUnicode:希望リフレイン
Artist:Aoshima Moka (CV: Mimori Suzuko)
ArtistUnicode:青島萌香 (CV: 三森すずこ)
Creator:Sotarks
Version:Expert
Source:OneRoom
Tags:one_room extended tv size カントク kantoku ascendance akitoshi corinn
BeatmapID:1512177
BeatmapSetID:715596

[Difficulty]
HPDrainRate:5.5
CircleSize:3.8
OverallDifficulty:9
ApproachRate:9.2
SliderMultiplier:1.72
SliderTickRate:1

[Events]
//Background and Video events
0,0,"12121212.jpg",0,0
//Break Periods
//Storyboard Layer 0 (Background)
//Storyboard Layer 1 (Fail)
//Storyboard Layer 2 (Pass)
//Storyboard Layer 3 (Foreground)
//Storyboard Sound Samples

[TimingPoints]
1370,348.837209302326,4,1,22,62,1,0
12532,-100,4,1,22,52,0,0
18114,-100,4,1,22,62,0,0
23695,-100,4,1,22,72,0,0
28579,-100,4,1,22,62,0,0
30672,-100,4,1,22,52,0,0
36253,-100,4,2,22,12,0,0

[Colours]
Combo1 : 255,250,185
Combo2 : 111,234,255
Combo3 : 250,179,255

[HitObjects]
215,147,1370,5,14,0:0:0:0:
301,182,1544,1,0,0:0:0:0:
176,220,1718,1,10,0:0:0:0:
249,72,1893,1,0,0:0:0:0:
263,261,2067,1,10,0:0:0:0:
72,161,2242,1,0,0:0:0:0:
379,131,2416,1,10,0:0:0:0:
200,333,2590,1,2,0:0:0:0:
200,333,2678,1,0,0:0:0:0:
200,333,2765,6,0,P|142:319|109:290,1,86,8|0,0:0|0:0,0:0:0:0:
371,230,3114,2,0,P|429:244|462:273,1,86,8|0,0:0|0:0,0:0:0:0:
289,342,3463,1,10,0:0:0:0:
243,187,3637,1,0,0:0:0:0:
74,360,3811,1,10,0:0:0:0:
157,159,3986,1,0,0:0:0:0:
373,332,4160,5,10,0:0:0:0:
112,260,4335,1,2,0:0:0:0:
354,125,4509,1,10,0:0:0:0:
265,264,4683,1,0,0:0:0:0:
97,93,4858,2,0,P|89:34|106:-8,1,86,10|0,0:0|0:0,0:0:0:0:
188,228,5207,5,10,0:0:0:0:
299,45,5381,1,2,0:0:0:0:
299,45,5468,1,0,0:0:0:0:
299,45,5556,2,0,P|359:28|398:45,1,86,8|0,0:0|0:0,0:0:0:0:
499,297,5904,2,0,P|456:302|418:285,1,86,8|0,0:0|0:0,0:0:0:0:
456,56,6253,1,10,0:0:0:0:
467,220,6428,1,0,0:0:0:0:
259,169,6602,2,0,P|207:190|199:198,1,43,10|0,0:0|0:0,0:0:0:0:
142,134,6776,2,0,P|120:185|120:196,1,43
160,255,6951,5,10,0:0:0:0:
218,181,7125,1,0,0:0:0:0:
80,251,7300,1,8,0:0:0:0:
268,263,7474,1,0,0:0:0:0:
144,54,7649,1,10,0:0:0:0:
163,336,7823,1,2,0:0:0:0:
249,99,7997,1,8,0:0:0:0:
51,328,8172,1,0,0:0:0:0:
315,165,8346,6,0,P|369:181|396:217,1,86,10|0,0:0|0:0,0:0:0:0:
270,348,8695,1,8,0:0:0:0:
194,166,8870,1,0,0:0:0:0:
417,279,9044,1,10,0:0:0:0:
109,192,9218,1,2,0:0:0:0:
377,96,9393,1,8,0:0:0:0:
173,267,9567,1,0,0:0:0:0:
210,31,9742,5,10,0:0:0:0:
399,188,9916,1,0,0:0:0:0:
194,166,10090,1,8,0:0:0:0:
417,279,10265,1,0,0:0:0:0:
173,267,10439,1,8,0:0:0:0:
293,178,10614,1,0,0:0:0:0:
152,358,10788,1,8,0:0:0:0:
106,139,10963,2,0,P|128:87|138:79,1,43,2|0,0:0|0:0,0:0:0:0:
271,283,11137,5,10,0:0:0:0:
84,244,11311,1,2,0:0:0:0:
84,244,11399,1,0,0:0:0:0:
84,244,11486,2,0,L|11:252,1,43,10|0,0:0|0:0,0:0:0:0:
67,337,11660,1,0,0:0:0:0:
67,337,11748,1,0,0:0:0:0:
67,337,11835,2,0,L|-6:345,1,43,8|0,0:0|0:0,0:0:0:0:
152,358,12009,2,0,L|225:366,1,43
173,267,12183,1,10,0:0:0:0:
174,224,12271,1,8,0:0:0:0:
176,181,12357,1,8,0:0:0:0:
178,138,12444,1,8,0:0:0:0:
180,95,12531,5,6,3:0:0:0:
89,174,12707,1,6,3:0:0:0:
262,185,12881,2,0,L|365:201,1,86,10|0,0:0|0:0,0:0:0:0:
173,267,13230,2,0,L|70:283,1,86,4|0,3:0|0:0,0:0:0:0:
269,96,13579,1,10,0:0:0:0:
427,308,13753,6,0,L|437:106,1,172,6|0,0:0|0:0,0:0:0:0:
261,10,14276,2,0,L|271:124,1,86,8|0,0:0|2:0,0:0:0:0:
173,267,14625,2,0,L|180:181,1,86,2|0,0:0|2:0,0:0:0:0:
53,44,14974,2,0,L|69:101,1,43,8|0,0:0|0:0,0:0:0:0:
174,59,15149,2,0,L|158:116,1,43
102,163,15323,5,6,1:0:0:0:
259,199,15497,1,6,1:0:0:0:
96,314,15672,2,0,L|-10:292,1,86,8|0,0:0|2:0,0:0:0:0:
290,275,16021,2,0,L|396:253,1,86,2|0,0:0|0:0,0:0:0:0:
272,113,16370,1,10,0:0:0:0:
197,356,16544,6,0,L|177:164,1,172,6|0,0:0|0:0,0:0:0:0:
368,92,17067,2,0,L|358:194,1,86,8|0,0:0|0:0,0:0:0:0:
166,98,17416,2,0,P|215:112|222:122,1,43
263,33,17590,2,0,P|287:77|285:89,1,43
269,151,17765,1,8,0:0:0:0:
269,172,17852,1,8,0:0:0:0:
270,193,17939,1,8,0:0:0:0:
271,215,18026,1,8,0:0:0:0:
272,239,18114,6,0,P|245:313|156:313,1,172,4|8,1:0|0:0,0:0:0:0:
113,139,18637,2,0,P|152:171|159:183,1,43
198,252,18811,1,2,0:0:0:0:
40,178,18986,1,2,0:0:0:0:
187,83,19160,2,0,P|239:79|303:138,1,129,8|0,0:0|2:0,0:0:0:0:
297,124,19509,6,0,P|350:139|381:123,1,86,2|0,0:0|0:0,0:0:0:0:
457,260,19858,2,0,L|470:76,1,172,8|2,0:0|0:0,0:0:0:0:
374,262,20381,1,2,0:0:0:0:
320,50,20556,2,0,P|249:59|231:145,1,129,8|0,0:0|2:2,0:0:0:0:
223,104,20904,6,0,B|249:188|249:188|228:255,1,129,10|0,0:0|0:2,0:0:0:0:
236,228,21253,2,0,L|128:216,1,86,8|0,0:0|0:0,0:0:0:0:
70,337,21602,2,0,L|178:324,1,86,8|0,0:0|0:0,0:0:0:0:
248,241,21951,2,0,L|139:228,1,86,8|2,0:0|0:0,0:0:0:0:
346,324,22300,6,8,L|353:271,1,43,10|8,0:0|0:0,0:0:0:0:
337,202,22474,1,8,0:0:0:0:
125,112,22649,2,8,L|128:154,1,43
162,230,22823,1,10,0:0:0:0:
374,126,22997,5,10,0:0:0:0:
332,116,23084,1,8,0:0:0:0:
292,128,23171,1,10,0:0:0:0:
263,159,23258,1,8,0:0:0:0:
254,201,23346,2,0,L|261:308,1,86,10|8,0:0|0:0,0:0:0:0:
74,167,23695,5,12,0:0:0:0:
162,231,23870,1,0,0:0:0:0:
133,42,24044,1,8,0:0:0:0:
149,149,24219,1,0,0:0:0:0:
343,60,24393,5,10,0:0:0:0:
47,27,24567,1,2,0:0:0:0:
445,116,24742,5,8,0:0:0:0:
149,149,24916,1,2,0:0:0:0:
458,27,25090,5,10,0:0:0:0:
433,193,25265,1,0,0:0:0:0:
232,41,25439,1,10,0:0:0:0:
290,183,25614,1,0,0:0:0:0:
35,35,25788,5,10,0:0:0:0:
350,99,25963,1,0,0:0:0:0:
49,249,26137,5,8,0:0:0:0:
364,185,26312,1,0,0:0:0:0:
131,61,26486,5,10,0:0:0:0:
168,235,26660,1,0,0:0:0:0:
224,78,26835,5,10,0:0:0:0:
168,235,27009,1,0,0:0:0:0:
37,38,27183,5,10,0:0:0:0:
229,326,27358,1,0,0:0:0:0:
300,6,27532,5,10,0:0:0:0:
0,278,27707,1,0,0:0:0:0:
224,78,27881,5,8,0:0:0:0:
62,128,28056,1,0,0:0:0:0:
276,141,28230,1,8,0:0:0:0:
142,104,28405,1,0,0:0:0:0:
325,203,28579,1,2,0:0:0:0:
192,173,28754,1,0,0:0:0:0:
374,267,28928,1,2,0:0:0:0:
242,242,29103,1,0,0:0:0:0:
276,141,29276,6,0,L|326:104,1,57.3333333333333
192,173,29509,1,0,0:0:0:0:
192,173,29625,2,0,L|138:204,1,57.3333333333333,8|0,0:0|0:0,0:0:0:0:
224,78,29858,1,0,0:0:0:0:
276,141,29974,5,10,0:0:0:0:
88,146,30149,1,0,0:0:0:0:
212,282,30323,1,10,0:0:0:0:
224,78,30497,1,0,0:0:0:0:
210,359,30672,5,6,0:0:0:0:
256,192,30759,12,0,36253,0:0:0:0:
