osu file format v14

[General]
AudioFilename: kiborefrain.mp3
AudioLeadIn: 0
PreviewTime: 1282
Countdown: 0
SampleSet: Normal
StackLeniency: 0.9
Mode: 0
LetterboxInBreaks: 0
WidescreenStoryboard: 1

[Editor]
DistanceSpacing: 1.1
BeatDivisor: 4
GridSize: 32
TimelineZoom: 1.5

[Metadata]
Title:kibo refrain
TitleUnicode:希望リフレイン
Artist:Aoshima Moka (CV: Mimori Suzuko)
ArtistUnicode:青島萌香 (CV: 三森すずこ)
Creator:Misery
Version:Normal
Source:OneRoom
Tags:one_room extended tv size カントク kantoku -jordan- jory celektus yaspo mrmenda
BeatmapID:1537432
BeatmapSetID:726185

[Difficulty]
HPDrainRate:3.5
CircleSize:3
OverallDifficulty:4
ApproachRate:4.5
SliderMultiplier:1.1
SliderTickRate:1

[Events]
//Background and Video events
0,0,"cutepic.jpg",0,0
//Break Periods
//Storyboard Layer 0 (Background)
//Storyboard Layer 1 (Fail)
//Storyboard Layer 2 (Pass)
//Storyboard Layer 3 (Foreground)
//Storyboard Sound Samples

[TimingPoints]
1370,348.837209302326,4,1,1,60,1,0
12532,-100,4,1,1,50,0,0
18114,-100,4,1,1,60,0,0
23695,-100,4,1,1,70,0,0
28579,-100,4,1,1,60,0,0
30672,-100,4,1,1,50,0,0
36253,-100,4,2,1,60,0,0

[Colours]
Combo1 : 128,255,255
Combo2 : 255,128,255
Combo3 : 255,255,128

[HitObjects]
96,320,1370,6,0,P|148:337|195:312,1,110,14|10,0:0|0:0,0:0:0:0:
273,220,2067,1,10,0:0:0:0:
164,169,2416,2,0,L|101:163,1,55,10|2,0:0|0:0,0:0:0:0:
63,126,2765,2,0,P|50:74|71:25,1,110,8|8,0:0|0:0,0:0:0:0:
179,83,3463,2,0,L|306:95,1,110,10|10,0:0|0:0,0:0:0:0:
401,51,4160,6,0,L|407:114,1,55,10|2,0:0|0:0,0:0:0:0:
431,161,4509,2,0,L|437:224,1,55,10|0,0:0|0:0,0:0:0:0:
461,272,4858,2,0,P|412:293|360:281,1,110,10|10,0:0|0:0,0:0:0:0:
273,195,5556,2,0,P|221:182|172:203,1,110,8|8,0:0|0:0,0:0:0:0:
94,296,6253,1,10,0:0:0:0:
53,183,6602,1,10,0:0:0:0:
130,91,6951,6,0,L|257:80,1,110,10|8,0:0|0:0,0:0:0:0:
359,72,7649,1,10,0:0:0:0:
359,72,7823,2,0,P|394:113|392:166,1,110,2|0,0:0|0:0,0:0:0:0:
344,173,8346,2,0,P|308:214|310:267,1,110,10|8,0:0|0:0,0:0:0:0:
387,358,9044,1,10,0:0:0:0:
387,358,9218,2,0,L|260:347,1,110,2|0,0:0|0:0,0:0:0:0:
231,311,9742,6,0,P|178:296|131:320,1,110,10|8,0:0|0:0,0:0:0:0:
52,228,10439,2,0,P|39:176|60:127,1,110,8|8,0:0|0:0,0:0:0:0:
152,50,11137,2,0,L|262:41,1,110,10|10,0:0|0:0,0:0:0:0:
381,53,11835,1,8,0:0:0:0:
479,123,12183,1,10,0:0:0:0:
491,243,12532,6,0,P|439:256|389:235,1,110,6|10,3:0|0:0,0:0:0:0:
311,142,13230,2,0,P|259:130|209:151,1,110,4|10,3:0|0:0,0:0:0:0:
182,207,13753,2,0,L|193:335,1,110,6|0,0:0|0:0,0:0:0:0:
165,371,14276,1,8,0:0:0:0:
94,271,14625,2,0,L|82:144,1,110,2|8,0:0|0:0,0:0:0:0:
133,55,15323,6,0,P|185:42|235:63,1,110,6|8,1:0|0:0,0:0:0:0:
313,156,16021,2,0,P|365:168|415:147,1,110,2|10,0:0|0:0,0:0:0:0:
464,113,16544,2,0,L|475:241,1,110,6|0,0:0|0:0,0:0:0:0:
447,277,17067,1,8,0:0:0:0:
336,329,17416,2,0,L|208:318,1,110,0|8,0:0|0:0,0:0:0:0:
127,250,18114,6,0,P|114:198|135:149,1,110,4|8,1:0|0:0,0:0:0:0:
234,80,18811,1,2,0:0:0:0:
234,80,18986,2,0,P|283:102|335:89,1,110,2|0,0:0|0:0,0:0:0:0:
384,55,19509,2,0,L|511:67,1,110,2|8,0:0|0:0,0:0:0:0:
481,185,20207,2,0,L|354:173,1,110,2|8,0:0|0:0,0:0:0:0:
263,225,20904,6,0,L|252:335,2,110,10|8|8,0:0|0:0|0:0,0:0:0:0:
274,104,21951,1,8,0:0:0:0:
395,115,22300,2,0,P|430:156|428:209,1,110,10|10,0:0|0:0,0:0:0:0:
377,319,22997,2,0,L|313:314,1,55,10|10,0:0|0:0,0:0:0:0:
273,280,23346,2,0,L|209:286,1,55,10|8,0:0|0:0,0:0:0:0:
165,260,23695,6,0,P|143:212|155:160,1,110,12|8,0:0|0:0,0:0:0:0:
267,110,24393,1,10,0:0:0:0:
267,110,24567,2,0,L|394:99,1,110,2|2,0:0|0:0,0:0:0:0:
410,150,25090,2,0,P|431:199|419:251,1,110,10|10,0:0|0:0,0:0:0:0:
320,321,25788,2,0,P|271:300|219:312,1,110,10|8,0:0|0:0,0:0:0:0:
168,348,26311,1,0,0:0:0:0:
120,314,26486,6,0,L|109:204,1,110,10|10,0:0|0:0,0:0:0:0:
159,97,27183,1,10,0:0:0:0:
256,29,27532,1,10,0:0:0:0:
363,80,27881,2,0,P|427:144|331:176,1,220,8|2,0:0|0:0,0:0:0:0:
227,225,28928,1,2,0:0:0:0:
329,286,29276,6,0,L|456:298,2,110,0|8|8,0:0|0:0|0:0,0:0:0:0:
218,328,30323,1,8,0:0:0:0:
256,192,30672,12,0,36253,0:0:0:0:
