osu file format v14

[General]
AudioFilename: audio.mp3
AudioLeadIn: 0
PreviewTime: 1021
Countdown: 0
SampleSet: Soft
StackLeniency: 0.7
Mode: 0
LetterboxInBreaks: 0
WidescreenStoryboard: 0

[Editor]
DistanceSpacing: 1
BeatDivisor: 2
GridSize: 4
TimelineZoom: 1.9

[Metadata]
Title:kibo refrain
TitleUnicode:希望リフレイン
Artist:Aoshima Moka (CV: Mimori Suzuko)
ArtistUnicode:青島萌香(CV: 三森すずこ)
Creator:Djulus
Version:Normal
Source:OneRoom
Tags:one_room extended tv size カントク kantoku akitoshi corinn vanucik Komore [c_u_r_i] curi c_u_r_i schoolboy
BeatmapID:1494974
BeatmapSetID:648225

[Difficulty]
HPDrainRate:3
CircleSize:3
OverallDifficulty:3
ApproachRate:5
SliderMultiplier:1
SliderTickRate:1

[Events]
//Background and Video events
0,0,"sdty.jpg",0,0
//Break Periods
//Storyboard Layer 0 (Background)
//Storyboard Layer 1 (Fail)
//Storyboard Layer 2 (Pass)
//Storyboard Layer 3 (Foreground)
//Storyboard Sound Samples

[TimingPoints]
-25,348.837209302326,4,2,1,75,1,0
30323,-100,4,2,1,75,0,0
36253,-100,4,2,1,5,0,0

[Colours]
Combo1 : 181,125,91
Combo2 : 15,221,221

[HitObjects]
32,120,1370,6,0,P|96:112|144:108,1,100,12|8,0:0|0:0,0:0:0:0:
224,68,2067,2,0,L|328:60,1,100,8|8,0:0|0:0,0:0:0:0:
373,57,2590,2,0,P|369:109|384:215,1,150,12|8,0:0|0:0,0:0:0:0:
416,300,3463,1,8,0:0:0:0:
328,348,3811,1,8,0:0:0:0:
240,304,4160,6,0,P|212:301|172:302,2,50,12|8|8,0:0|0:0|0:0,0:0:0:0:
328,348,4858,2,0,P|352:345|428:346,1,100,8|8,0:0|0:0,0:0:0:0:
458,306,5381,2,0,P|458:242|475:155,1,150,12|8,0:0|0:0,0:0:0:0:
458,58,6253,2,0,P|402:50|354:46,1,100,8|8,0:0|0:0,0:0:0:0:
274,100,6951,6,0,P|210:92|170:92,1,100,12|8,0:0|0:0,0:0:0:0:
82,140,7649,1,8,0:0:0:0:
103,184,7823,2,0,P|107:232|100:293,1,100,8|2,0:0|0:0,0:0:0:0:
81,329,8347,2,0,P|141:325|189:325,1,100,12|8,0:0|0:0,0:0:0:0:
272,356,9044,1,8,0:0:0:0:
321,360,9219,2,0,P|379:348|427:345,1,100,2|2,0:0|0:0,0:0:0:0:
468,320,9742,6,0,P|464:272|464:216,1,100,12|8,0:0|0:0,0:0:0:0:
496,124,10439,2,0,P|500:72|496:20,1,100,8|8,0:0|0:0,0:0:0:0:
448,16,10963,1,2,0:0:0:0:
400,32,11137,2,0,P|328:28|288:24,1,100,12|8,0:0|0:0,0:0:0:0:
228,96,11835,1,8,0:0:0:0:
132,64,12183,1,8,0:0:0:0:
58,131,12532,6,0,L|4:132,2,50,12|8|8,0:0|0:0|0:0,0:0:0:0:
134,195,13230,2,0,P|137:237|136:305,1,100,8|8,0:0|0:0,0:0:0:0:
179,320,13753,2,0,P|219:312|331:312,1,150,12|8,0:0|0:0,0:0:0:0:
425,288,14625,1,8,0:0:0:0:
415,188,14974,1,8,0:0:0:0:
401,88,15323,6,0,P|404:58|406:22,2,50,8|8|0,0:0|0:0|0:0,0:0:0:0:
303,109,16021,1,8,0:0:0:0:
204,91,16370,1,8,0:0:0:0:
154,81,16544,6,0,P|154:145|117:239,1,150,12|8,0:0|0:0,0:0:0:0:
82,315,17416,1,8,0:0:0:0:
181,321,17765,1,8,0:0:0:0:
276,328,18114,2,0,P|280:272|284:224,1,100,12|8,0:0|0:0,0:0:0:0:
305,130,18811,1,8,0:0:0:0:
347,157,18987,2,0,P|403:157|447:157,1,100,2|8,0:0|0:0,0:0:0:0:
492,176,19509,6,0,P|508:136|504:80,1,100,12|8,0:0|0:0,0:0:0:0:
421,23,20207,1,8,0:0:0:0:
377,46,20381,2,0,P|320:43|263:39,1,100,2|2,0:0|0:0,0:0:0:0:
228,29,20905,2,0,P|164:25|112:29,1,100,12|8,0:0|0:0,0:0:0:0:
116,132,21602,2,0,P|192:132|232:128,1,100,8|8,0:0|0:0,0:0:0:0:
300,184,22300,5,12,0:0:0:0:
260,276,22649,1,8,0:0:0:0:
328,348,22997,1,8,0:0:0:0:
378,351,23172,2,0,P|438:351|460:348,1,50,10|2,0:0|0:0,0:0:0:0:
488,272,23695,2,0,P|480:208|488:168,1,100,12|8,0:0|0:0,0:0:0:0:
432,88,24393,1,8,0:0:0:0:
384,88,24568,2,0,P|334:84|284:80,1,100,2|8,0:0|0:0,0:0:0:0:
236,80,25091,6,0,P|228:136|240:196,1,100,12|8,0:0|0:0,0:0:0:0:
320,240,25788,2,0,P|328:292|316:344,1,100,8|8,0:0|0:0,0:0:0:0:
218,334,26486,2,0,P|158:330|110:330,1,100,12|8,0:0|0:0,0:0:0:0:
73,240,27183,1,8,0:0:0:0:
116,152,27532,1,8,0:0:0:0:
76,60,27881,6,0,P|160:56|190:58,1,100,12|2,0:0|0:0,0:0:0:0:
264,96,28579,2,0,P|324:104|376:100,1,100,8|8,0:0|0:0,0:0:0:0:
408,80,29102,1,2,0:0:0:0:
452,104,29277,6,0,P|440:148|444:236,1,100,12|2,0:0|0:0,0:0:0:0:
444,304,29975,1,8,0:0:0:0:
352,343,30323,1,2,0:0:0:0:
268,288,30672,1,6,0:0:0:0:
256,192,30847,12,2,36254,0:0:0:0:
