osu file format v14

[General]
AudioFilename: audio.mp3
AudioLeadIn: 0
PreviewTime: 1021
Countdown: 0
SampleSet: Soft
StackLeniency: 0.7
Mode: 0
LetterboxInBreaks: 0
WidescreenStoryboard: 0

[Editor]
DistanceSpacing: 1.5
BeatDivisor: 4
GridSize: 4
TimelineZoom: 3.899998

[Metadata]
Title:kibo refrain
TitleUnicode:希望リフレイン
Artist:Aoshima Moka (CV: Mimori Suzuko)
ArtistUnicode:青島萌香(CV: 三森すずこ)
Creator:Djulus
Version:Hard
Source:OneRoom
Tags:one_room extended tv size カントク kantoku akitoshi corinn vanucik Komore [c_u_r_i] curi c_u_r_i schoolboy
BeatmapID:1494971
BeatmapSetID:648225

[Difficulty]
HPDrainRate:3
CircleSize:3.8
OverallDifficulty:5
ApproachRate:8
SliderMultiplier:1.2
SliderTickRate:1

[Events]
//Background and Video events
0,0,"sdty.jpg",0,0
//Break Periods
//Storyboard Layer 0 (Background)
//Storyboard Layer 1 (Fail)
//Storyboard Layer 2 (Pass)
//Storyboard Layer 3 (Foreground)
//Storyboard Sound Samples

[TimingPoints]
-25,348.837209302326,4,2,1,75,1,0
30323,-100,4,2,1,75,0,0
36253,-100,4,2,1,5,0,0

[Colours]
Combo1 : 181,125,91
Combo2 : 15,221,221

[HitObjects]
0,152,1370,6,0,P|62:148|81:148,1,60,12|2,0:0|0:0,0:0:0:0:
127,88,1718,2,0,L|201:82,1,60,8|2,0:0|0:0,0:0:0:0:
272,56,2067,2,0,P|276:112|276:140,1,60,8|2,0:0|0:0,0:0:0:0:
239,198,2416,1,8,0:0:0:0:
282,326,2591,6,0,P|338:314|404:328,1,120,12|2,0:0|0:0,0:0:0:0:
465,264,3114,2,0,P|469:212|465:180,1,60,8|2,0:0|0:0,0:0:0:0:
469,114,3463,2,0,P|426:110|398:109,1,60,8|2,0:0|0:0,0:0:0:0:
321,129,3811,2,0,P|278:128|247:127,1,60,8|2,0:0|0:0,0:0:0:0:
164,214,4160,6,0,L|91:218,2,60,12|10|8,0:0|0:0|0:0,0:0:0:0:
240,264,4683,1,2,0:0:0:0:
200,344,4858,2,0,P|160:344|128:340,1,60,8|2,0:0|0:0,0:0:0:0:
64,296,5207,1,8,0:0:0:0:
164,214,5381,6,0,P|181:181|142:92,1,120,12|2,0:0|0:0,0:0:0:0:
69,98,5904,2,0,P|73:46|77:18,1,60,8|2,0:0|0:0,0:0:0:0:
163,23,6253,2,0,L|228:28,1,60,8|0,0:0|0:0,0:0:0:0:
293,83,6602,2,0,L|363:82,1,60,8|2,0:0|0:0,0:0:0:0:
487,72,6951,6,0,P|476:136|486:202,1,120,12|8,0:0|0:0,0:0:0:0:
490,280,7474,1,2,0:0:0:0:
442,356,7649,1,8,0:0:0:0:
358,323,7823,2,0,P|294:314|222:314,1,120,10|2,0:0|0:0,0:0:0:0:
104,330,8346,6,0,P|111:281|96:205,1,120,12|8,0:0|0:0,0:0:0:0:
33,142,8870,1,2,0:0:0:0:
80,65,9044,1,8,0:0:0:0:
168,78,9219,2,0,P|212:77|304:68,1,120,10|2,0:0|0:0,0:0:0:0:
423,71,9742,6,0,P|416:135|429:199,1,120,12|8,0:0|0:0,0:0:0:0:
467,269,10265,1,2,0:0:0:0:
405,334,10439,2,0,P|352:334|327:333,1,60,8|2,0:0|0:0,0:0:0:0:
269,284,10788,2,0,P|270:243|272:214,1,60,8|2,0:0|0:0,0:0:0:0:
305,140,11137,6,0,L|315:100,3,30,12|8|10|8,0:0|0:0|0:0|0:0,0:0:0:0:
307,65,11486,2,0,L|296:24,3,30,8|8|10|8,0:0|0:0|0:0|0:0,0:0:0:0:
256,20,11835,2,0,P|219:24|123:19,1,120,8|8,0:0|0:0,0:0:0:0:
56,62,12358,5,10,0:0:0:0:
56,62,12445,1,8,0:0:0:0:
56,62,12532,2,0,P|47:113|49:200,1,120,12|8,0:0|0:0,0:0:0:0:
76,264,13056,1,2,0:0:0:0:
148,320,13230,2,0,P|208:309|289:312,1,120,8|8,0:0|0:0,0:0:0:0:
400,344,13754,6,0,P|401:282|395:199,1,120,12|2,0:0|0:0,0:0:0:0:
444,152,14276,2,0,P|443:122|437:92,1,60,8|2,0:0|0:0,0:0:0:0:
352,64,14625,2,0,P|306:63|274:61,1,60,8|2,0:0|0:0,0:0:0:0:
228,124,14974,2,0,P|198:122|168:120,1,60,8|2,0:0|0:0,0:0:0:0:
72,216,15323,5,12,0:0:0:0:
136,276,15497,1,10,0:0:0:0:
208,332,15672,2,0,P|251:324|333:329,1,120,8|8,0:0|0:0,0:0:0:0:
408,368,16195,1,2,0:0:0:0:
492,332,16370,1,8,0:0:0:0:
484,196,16544,6,0,P|434:191|359:184,1,120,12|2,0:0|0:0,0:0:0:0:
286,127,17067,2,0,L|207:121,1,60,8|0,0:0|0:0,0:0:0:0:
149,170,17416,2,0,P|158:219|148:253,1,60,8|10,0:0|0:0,0:0:0:0:
110,305,17765,2,8,P|106:340|115:380,1,60,8|2,0:0|0:0,0:0:0:0:
242,340,18114,6,0,P|283:324|371:343,1,120,12|8,0:0|0:0,0:0:0:0:
440,368,18637,1,2,0:0:0:0:
484,288,18812,1,10,0:0:0:0:
484,288,18987,2,0,P|469:229|470:169,1,120,8|8,0:0|0:0,0:0:0:0:
360,92,19509,6,0,P|319:108|231:89,1,120,12|8,0:0|0:0,0:0:0:0:
160,76,20032,1,2,0:0:0:0:
83,121,20207,1,10,0:0:0:0:
83,121,20381,2,0,P|93:197|84:256,1,120,8|8,0:0|0:0,0:0:0:0:
176,344,20905,6,0,P|244:340|311:329,1,120,12|8,0:0|0:0,0:0:0:0:
384,356,21428,1,2,0:0:0:0:
461,306,21602,2,0,P|463:263|462:239,1,60,8|2,0:0|0:0,0:0:0:0:
383,201,21951,2,0,P|385:153|389:119,1,60,8|2,0:0|0:0,0:0:0:0:
300,36,22300,6,0,P|232:42|156:41,1,120,12|8,0:0|0:0,0:0:0:0:
97,79,22823,1,10,0:0:0:0:
97,79,22910,1,8,0:0:0:0:
97,79,22997,2,8,L|93:132,3,30,8|8|10|8,0:0|0:0|0:0|0:0,0:0:0:0:
68,152,23346,2,8,L|67:204,3,30
88,216,23695,6,0,P|150:218|225:215,1,120,12|8,0:0|0:0,0:0:0:0:
277,158,24218,1,2,0:0:0:0:
356,200,24393,2,0,P|408:197|438:200,1,60,8|10,0:0|0:0,0:0:0:0:
447,281,24742,2,0,P|407:281|359:282,1,60,8|2,0:0|0:0,0:0:0:0:
258,318,25091,6,0,P|194:304|129:325,1,120,12|8,0:0|0:0,0:0:0:0:
74,257,25614,1,2,0:0:0:0:
118,178,25788,2,0,P|118:130|117:112,1,60,8|10,0:0|0:0,0:0:0:0:
163,40,26137,2,0,P|207:41|236:36,1,60,8|2,0:0|0:0,0:0:0:0:
354,69,26486,6,0,P|338:120|343:191,1,120,12|8,0:0|0:0,0:0:0:0:
319,273,27009,1,2,0:0:0:0:
229,266,27183,2,0,P|183:262|149:266,1,60,8|10,0:0|0:0,0:0:0:0:
166,353,27532,2,0,P|208:356|254:351,1,60,8|2,0:0|0:0,0:0:0:0:
361,352,27881,6,0,P|401:352|460:286,1,120,12|8,0:0|0:0,0:0:0:0:
417,218,28404,1,2,0:0:0:0:
476,152,28579,6,0,P|468:93|423:56,1,120,12|8,0:0|0:0,0:0:0:0:
360,120,29102,1,10,0:0:0:0:
360,120,29189,1,8,0:0:0:0:
360,120,29276,6,0,L|358:160,2,40,12|8|10,0:0|0:0|0:0,0:0:0:0:
260,80,29626,2,0,L|260:27,2,40,8|10|8,0:0|0:0|0:0,0:0:0:0:
224,180,29975,2,0,L|225:250,1,60,8|2,0:0|0:0,0:0:0:0:
136,236,30323,2,0,L|134:152,1,60,8|2,0:0|0:0,0:0:0:0:
96,92,30672,5,12,0:0:0:0:
256,192,30759,12,0,36254,0:0:0:0:
