osu file format v14

[General]
AudioFilename: audio.mp3
AudioLeadIn: 0
PreviewTime: 1292
Countdown: 0
SampleSet: Soft
StackLeniency: 0.5
Mode: 0
LetterboxInBreaks: 0
WidescreenStoryboard: 1

[Editor]
Bookmarks: 12532,23695,36253
DistanceSpacing: 1
BeatDivisor: 4
GridSize: 32
TimelineZoom: 2.4

[Metadata]
Title:Kibo Refrain
TitleUnicode:希望リフレイン
Artist:Aoshima Moka (CV: Mimori Suzuko)
ArtistUnicode:青島萌香 (CV: 三森すずこ)
Creator:HibikiDesu
Version:Hard
Source:OneRoom
Tags:one_room anime tv size LwL kibou neko-san da Ashton
BeatmapID:1527838
BeatmapSetID:723266

[Difficulty]
HPDrainRate:5
CircleSize:3.5
OverallDifficulty:6.5
ApproachRate:8
SliderMultiplier:1.4
SliderTickRate:1

[Events]
//Background and Video events
0,0,"One Room.png",0,0
//Break Periods
//Storyboard Layer 0 (Background)
//Storyboard Layer 1 (Fail)
//Storyboard Layer 2 (Pass)
//Storyboard Layer 3 (Foreground)
//Storyboard Sound Samples

[TimingPoints]
1380,348.837209302326,4,2,1,75,1,0
11670,-100,4,2,3,75,0,0
11845,-100,4,2,2,75,0,0
12193,-100,4,2,3,75,0,0
12368,-100,4,2,4,75,0,0
12542,-100,4,2,5,75,0,0
12630,-100,4,2,1,75,0,0
17426,-100,4,2,2,75,0,0
17775,-100,4,2,3,75,0,0
17949,-100,4,2,4,75,0,0
18124,-100,4,2,5,75,0,0
18211,-100,4,2,1,75,0,0
23705,-100,4,2,1,75,0,1
29286,-100,4,2,2,75,0,1
29635,-100,4,2,3,75,0,1
29984,-100,4,2,4,75,0,1
30682,-100,4,2,5,75,0,0

[HitObjects]
165,167,1380,6,0,L|69:175,1,70,12|0,0:0|0:0,0:0:0:0:
214,236,1728,2,0,L|309:244,1,70,8|0,0:0|0:0,0:0:0:0:
129,243,2077,5,8,0:0:0:0:
178,312,2252,1,0,0:0:0:0:
263,305,2426,1,8,0:0:0:0:
299,229,2600,1,0,0:0:0:0:
299,229,2688,1,0,0:0:0:0:
299,229,2775,6,0,P|285:190|262:167,1,70,8|0,0:0|0:0,0:0:0:0:
263,305,3124,2,0,P|303:312|334:303,1,70,8|0,0:0|0:0,0:0:0:0:
214,236,3473,6,0,L|118:244,1,70,8|0,0:0|0:0,0:0:0:0:
93,319,3821,2,0,L|188:327,1,70,8|0,0:0|0:0,0:0:0:0:
263,305,4170,5,12,0:0:0:0:
299,229,4345,1,0,0:0:0:0:
348,298,4519,2,0,P|342:338|324:364,1,70,8|0,0:0|0:0,0:0:0:0:
263,305,4868,6,0,L|254:209,1,70,8|0,0:0|0:0,0:0:0:0:
335,153,5217,1,8,0:0:0:0:
384,222,5391,6,0,P|346:237|314:234,1,70,0|8,0:0|0:0,0:0:0:0:
419,145,5740,2,0,P|450:170|465:199,1,70,0|8,0:0|0:0,0:0:0:0:
335,153,6089,1,0,0:0:0:0:
419,145,6263,5,8,0:0:0:0:
286,84,6438,1,2,0:0:0:0:
299,229,6612,1,10,0:0:0:0:
370,76,6786,1,2,0:0:0:0:
384,222,6961,6,0,L|375:317,1,70,12|0,0:0|0:0,0:0:0:0:
335,153,7310,2,0,L|326:57,1,70,8|0,0:0|0:0,0:0:0:0:
299,229,7659,5,8,0:0:0:0:
299,229,7833,2,0,P|283:289|210:321,1,140,2|2,0:0|0:0,0:0:0:0:
214,236,8356,6,0,L|222:140,1,70,12|0,0:0|0:0,0:0:0:0:
263,305,8705,2,0,L|271:400,1,70,8|0,0:0|0:0,0:0:0:0:
299,229,9054,5,8,0:0:0:0:
299,229,9228,2,0,P|272:172|195:153,1,140,2|2,0:0|0:0,0:0:0:0:
178,312,9752,5,12,0:0:0:0:
214,236,9926,1,0,0:0:0:0:
263,305,10100,1,8,0:0:0:0:
178,312,10275,1,0,0:0:0:0:
129,243,10449,6,0,L|120:147,1,70,8|0,0:0|0:0,0:0:0:0:
31,105,10798,2,0,L|22:200,1,70,8|2,0:0|0:0,0:0:0:0:
24,200,11060,1,2,0:0:0:0:
23,199,11147,1,10,0:0:0:0:
129,243,11322,5,2,0:0:0:0:
214,236,11496,1,10,0:0:0:0:
248,158,11670,1,6,0:0:0:0:
248,158,11757,1,6,0:0:0:0:
248,158,11845,6,0,L|253:221,3,35,12|4|4|4,0:0|0:0|0:0|0:0,0:0:0:0:
164,166,12193,2,0,L|158:229,3,35,12|4|4|4,0:0|0:0|0:0|0:0,0:0:0:0:
115,97,12542,5,14,0:0:0:0:
151,21,12717,1,2,0:0:0:0:
200,90,12891,1,8,0:0:0:0:
285,83,13066,5,2,0:0:0:0:
285,83,13153,1,0,0:0:0:0:
285,83,13240,2,0,L|444:96,1,140,2|8,0:0|0:0,0:0:0:0:
248,158,13763,2,0,P|204:114|212:34,1,140,6|2,0:0|0:0,0:0:0:0:
285,83,14286,5,8,0:0:0:0:
335,153,14461,1,0,0:0:0:0:
299,229,14635,6,0,L|290:324,1,70,2|2,0:0|0:0,0:0:0:0:
248,158,14984,1,8,0:0:0:0:
164,166,15159,1,2,0:0:0:0:
164,166,15246,1,2,0:0:0:0:
164,166,15333,6,0,L|68:174,1,70,6|2,0:0|0:0,0:0:0:0:
200,90,15682,1,8,0:0:0:0:
214,236,15856,5,2,0:0:0:0:
214,236,15943,1,0,0:0:0:0:
214,236,16031,2,0,L|227:395,1,140,2|8,0:0|0:0,0:0:0:0:
299,229,16554,2,0,P|272:172|195:153,1,140,6|2,0:0|0:0,0:0:0:0:
178,312,17077,5,8,0:0:0:0:
214,236,17252,1,0,0:0:0:0:
263,305,17426,6,0,L|268:368,3,35,6|4|4|4,0:0|0:0|0:0|0:0,0:0:0:0:
178,312,17775,2,0,L|172:375,3,35,12|12|4|4,0:0|0:0|0:0|0:0,0:0:0:0:
129,243,18124,6,0,P|145:182|218:149,1,140,14|8,0:0|0:0,0:0:0:0:
214,236,18647,1,0,0:0:0:0:
214,236,18734,1,0,0:0:0:0:
214,236,18821,1,2,0:0:0:0:
178,312,18996,6,0,P|117:328|52:281,1,140,2|2,0:0|0:0,0:0:0:0:
129,243,19519,6,0,L|288:229,1,140,6|8,0:0|0:0,0:0:0:0:
335,153,20042,1,0,0:0:0:0:
200,90,20217,5,2,0:0:0:0:
200,90,20391,2,0,P|164:141|186:218,1,140,2|2,0:0|0:0,0:0:0:0:
248,158,20914,6,0,L|343:149,1,70,6|0,0:0|0:0,0:0:0:0:
200,90,21263,2,0,L|104:81,1,70,8|0,0:0|0:0,0:0:0:0:
248,158,21612,5,2,0:0:0:0:
285,83,21786,1,2,0:0:0:0:
237,15,21961,5,8,0:0:0:0:
248,158,22135,1,0,0:0:0:0:
368,77,22310,6,0,L|431:71,2,35,8|2|2,0:0|0:0|0:0,0:0:0:0:
200,90,22659,6,0,L|136:95,2,35,8|2|2,0:0|0:0|0:0,0:0:0:0:
335,153,23007,6,0,L|398:158,2,35,8|2|2,0:0|0:0|0:0,0:0:0:0:
248,158,23356,5,8,0:0:0:0:
368,77,23531,1,2,0:0:0:0:
384,222,23705,6,0,L|375:317,1,70,12|0,0:0|0:0,0:0:0:0:
299,229,24054,2,0,L|290:134,1,70,8|0,0:0|0:0,0:0:0:0:
384,222,24403,5,8,0:0:0:0:
344,299,24577,1,0,0:0:0:0:
263,305,24752,1,8,0:0:0:0:
214,236,24926,1,0,0:0:0:0:
248,158,25100,6,0,L|343:149,1,70,12|0,0:0|0:0,0:0:0:0:
384,222,25449,1,8,0:0:0:0:
344,299,25624,1,0,0:0:0:0:
214,236,25798,6,0,L|309:227,1,70,8|0,0:0|0:0,0:0:0:0:
344,299,26147,1,8,0:0:0:0:
263,305,26322,1,0,0:0:0:0:
178,312,26496,6,0,L|83:303,1,70,12|0,0:0|0:0,0:0:0:0:
214,236,26845,5,8,0:0:0:0:
299,229,27019,1,0,0:0:0:0:
248,158,27193,5,8,0:0:0:0:
163,165,27367,1,0,0:0:0:0:
115,97,27542,5,8,0:0:0:0:
200,90,27717,1,0,0:0:0:0:
79,175,27891,6,0,P|106:232|183:251,1,140,12|0,0:0|0:0,0:0:0:0:
163,165,28414,1,2,0:0:0:0:
79,175,28589,6,0,P|43:226|65:303,1,140,8|0,0:0|0:0,0:0:0:0:
129,243,29112,1,2,0:0:0:0:
79,175,29286,6,0,L|15:169,2,46.6666666666667,12|4|4,0:0|0:0|0:0,0:0:0:0:
163,165,29635,2,0,L|226:159,2,46.6666666666667,4|4|4,0:0|0:0|0:0,0:0:0:0:
115,97,29984,5,4,0:0:0:0:
129,243,30159,1,14,0:0:0:0:
213,233,30333,1,14,0:0:0:0:
247,156,30507,1,14,0:0:0:0:
79,175,30682,5,14,0:0:0:0:
256,192,30769,12,0,36263,0:0:0:0:
