osu file format v14

[General]
AudioFilename: audio.mp3
AudioLeadIn: 0
PreviewTime: 1292
Countdown: 0
SampleSet: Soft
StackLeniency: 0.5
Mode: 0
LetterboxInBreaks: 0
WidescreenStoryboard: 0

[Editor]
Bookmarks: 12532,23695,36253
DistanceSpacing: 1
BeatDivisor: 4
GridSize: 32
TimelineZoom: 2.4

[Metadata]
Title:Kibo Refrain
TitleUnicode:希望リフレイン
Artist:Aoshima Moka (CV: Mimori Suzuko)
ArtistUnicode:青島萌香 (CV: 三森すずこ)
Creator:HibikiDesu
Version:Extra
Source:OneRoom
Tags:one_room anime tv size LwL kibou neko-san da Ashton
BeatmapID:1526682
BeatmapSetID:723266

[Difficulty]
HPDrainRate:6
CircleSize:4
OverallDifficulty:9
ApproachRate:9
SliderMultiplier:1.8
SliderTickRate:1

[Events]
//Background and Video events
0,0,"One Room.png",0,0
//Break Periods
//Storyboard Layer 0 (Background)
//Storyboard Layer 1 (Fail)
//Storyboard Layer 2 (Pass)
//Storyboard Layer 3 (Foreground)
//Storyboard Sound Samples

[TimingPoints]
1380,348.837209302326,4,2,1,75,1,0
10973,-100,4,2,3,75,0,0
11147,-100,4,2,2,75,0,0
11496,-100,4,2,3,75,0,0
11845,-100,4,2,4,75,0,0
12193,-100,4,2,3,75,0,0
12368,-100,4,2,4,75,0,0
12542,-100,4,2,5,75,0,0
12630,-100,4,2,1,75,0,0
17426,-100,4,2,2,75,0,0
17775,-100,4,2,3,75,0,0
17949,-100,4,2,4,75,0,0
18124,-100,4,2,5,75,0,0
18211,-100,4,2,1,75,0,0
23705,-100,4,2,1,75,0,1
29286,-100,4,2,2,75,0,1
29635,-100,4,2,3,75,0,1
29984,-100,4,2,4,75,0,1
30682,-100,4,2,5,75,0,0

[HitObjects]
180,112,1380,5,12,0:0:0:0:
227,204,1554,1,0,0:0:0:0:
77,107,1728,1,8,0:0:0:0:
283,117,1903,1,0,0:0:0:0:
124,199,2077,5,8,0:0:0:0:
236,25,2252,1,0,0:0:0:0:
227,204,2426,1,8,0:0:0:0:
133,20,2600,1,0,0:0:0:0:
133,20,2688,1,0,0:0:0:0:
133,20,2775,6,0,L|37:28,1,90,8|0,0:0|0:0,0:0:0:0:
180,112,3124,2,0,L|275:120,1,90,8|0,0:0|0:0,0:0:0:0:
124,199,3473,6,0,P|92:165|78:125,1,90,8|0,0:0|0:0,0:0:0:0:
236,25,3821,2,0,P|268:59|282:99,1,90,8|0,0:0|0:0,0:0:0:0:
180,112,4170,5,12,0:0:0:0:
339,30,4345,1,0,0:0:0:0:
330,209,4519,1,8,0:0:0:0:
236,25,4693,1,0,0:0:0:0:
227,204,4868,5,8,0:0:0:0:
386,122,5042,1,0,0:0:0:0:
180,112,5217,1,8,0:0:0:0:
433,214,5391,1,0,0:0:0:0:
433,214,5478,1,0,0:0:0:0:
433,213,5566,6,0,P|468:183|487:145,1,90,8|0,0:0|0:0,0:0:0:0:
339,30,5914,2,0,P|304:60|284:98,1,90,8|0,0:0|0:0,0:0:0:0:
386,122,6263,5,8,0:0:0:0:
133,20,6438,1,2,0:0:0:0:
339,30,6612,1,10,0:0:0:0:
77,107,6786,1,2,0:0:0:0:
330,209,6961,6,0,L|425:200,1,90,12|0,0:0|0:0,0:0:0:0:
180,112,7310,2,0,L|84:103,1,90,8|0,0:0|0:0,0:0:0:0:
386,122,7659,5,8,0:0:0:0:
377,301,7833,1,2,0:0:0:0:
283,117,8007,1,8,0:0:0:0:
274,296,8182,1,2,0:0:0:0:
433,214,8356,6,0,L|337:205,1,90,12|0,0:0|0:0,0:0:0:0:
171,291,8705,2,0,L|266:282,1,90,8|0,0:0|0:0,0:0:0:0:
433,214,9054,5,8,0:0:0:0:
227,204,9228,1,2,0:0:0:0:
480,306,9403,1,8,0:0:0:0:
386,122,9577,1,2,0:0:0:0:
274,296,9752,5,12,0:0:0:0:
433,214,9926,1,0,0:0:0:0:
283,117,10100,1,8,0:0:0:0:
377,301,10275,1,0,0:0:0:0:
386,122,10449,5,8,0:0:0:0:
274,296,10624,1,0,0:0:0:0:
283,117,10798,1,8,0:0:0:0:
377,301,10973,1,4,0:0:0:0:
377,301,11060,1,4,0:0:0:0:
377,301,11147,6,0,L|313:295,1,45,12|4,0:0|0:0,0:0:0:0:
227,204,11321,2,0,L|290:198,1,45,4|4,0:0|0:0,0:0:0:0:
386,122,11496,1,12,0:0:0:0:
384,167,11583,1,4,0:0:0:0:
382,212,11670,1,4,0:0:0:0:
379,256,11757,1,4,0:0:0:0:
377,301,11845,6,0,L|313:294,1,45,12|4,0:0|0:0,0:0:0:0:
124,199,12019,1,4,0:0:0:0:
124,199,12106,1,4,0:0:0:0:
124,199,12193,2,0,L|187:193,1,45,12|4,0:0|0:0,0:0:0:0:
377,301,12368,2,0,L|313:306,1,45,4|4,0:0|0:0,0:0:0:0:
112,377,12542,5,14,0:0:0:0:
227,204,12717,1,2,0:0:0:0:
215,382,12891,1,8,0:0:0:0:
65,285,13066,1,2,0:0:0:0:
65,285,13153,1,2,0:0:0:0:
65,285,13240,5,2,0:0:0:0:
274,296,13414,1,2,0:0:0:0:
18,193,13589,1,8,0:0:0:0:
331,210,13763,6,0,P|379:290|348:370,1,180,6|2,0:0|0:0,0:0:0:0:
274,296,14286,1,8,0:0:0:0:
386,122,14461,1,0,0:0:0:0:
378,302,14635,5,2,0:0:0:0:
124,199,14810,1,2,0:0:0:0:
433,214,14984,1,8,0:0:0:0:
171,291,15159,1,2,0:0:0:0:
171,291,15246,1,2,0:0:0:0:
171,291,15333,6,0,L|75:299,1,90,6|2,0:0|0:0,0:0:0:0:
227,204,15682,1,8,0:0:0:0:
215,382,15856,1,2,0:0:0:0:
215,382,15943,1,2,0:0:0:0:
215,382,16031,5,2,0:0:0:0:
124,199,16205,1,2,0:0:0:0:
378,302,16380,1,8,0:0:0:0:
112,377,16554,6,0,P|64:297|95:216,1,180,6|2,0:0|0:0,0:0:0:0:
274,296,17077,2,0,P|228:306|186:298,1,90,8|0,0:0|0:0,0:0:0:0:
227,204,17426,5,6,0:0:0:0:
261,192,17513,1,4,0:0:0:0:
297,194,17600,1,4,0:0:0:0:
331,208,17687,1,4,0:0:0:0:
358,232,17774,1,12,0:0:0:0:
374,265,17862,1,12,0:0:0:0:
378,301,17949,1,4,0:0:0:0:
369,336,18036,1,4,0:0:0:0:
349,367,18124,6,0,L|253:358,1,90,14|0,0:0|0:0,0:0:0:0:
65,285,18473,2,0,L|160:276,1,90,8|0,0:0|0:0,0:0:0:0:
378,302,18821,5,2,0:0:0:0:
112,377,18996,1,2,0:0:0:0:
346,380,19170,1,8,0:0:0:0:
65,285,19345,1,2,0:0:0:0:
331,210,19519,6,0,P|363:244|377:284,1,90,6|0,0:0|0:0,0:0:0:0:
112,377,19868,2,0,P|80:343|66:303,1,90,8|0,0:0|0:0,0:0:0:0:
77,107,20217,5,2,0:0:0:0:
331,210,20391,1,2,0:0:0:0:
18,193,20566,1,8,0:0:0:0:
283,117,20740,1,2,0:0:0:0:
30,15,20914,5,6,0:0:0:0:
18,193,21089,1,0,0:0:0:0:
133,20,21263,1,8,0:0:0:0:
65,285,21438,1,0,0:0:0:0:
77,107,21612,5,2,0:0:0:0:
171,291,21786,1,2,0:0:0:0:
133,20,21961,1,8,0:0:0:0:
18,193,22135,1,0,0:0:0:0:
331,210,22310,5,8,0:0:0:0:
331,210,22397,1,2,0:0:0:0:
331,210,22484,1,2,0:0:0:0:
180,112,22659,5,8,0:0:0:0:
180,112,22746,1,2,0:0:0:0:
180,112,22833,1,2,0:0:0:0:
171,291,23007,5,8,0:0:0:0:
171,291,23095,1,2,0:0:0:0:
171,291,23182,2,0,L|234:285,1,45,2|0,0:0|0:0,0:0:0:0:
433,214,23356,5,8,0:0:0:0:
124,199,23531,1,2,0:0:0:0:
339,30,23705,5,12,0:0:0:0:
378,302,23880,1,0,0:0:0:0:
443,36,24054,5,8,0:0:0:0:
181,113,24228,1,0,0:0:0:0:
433,214,24403,5,8,0:0:0:0:
236,25,24577,1,0,0:0:0:0:
275,297,24752,5,8,0:0:0:0:
339,30,24926,1,0,0:0:0:0:
124,199,25100,5,12,0:0:0:0:
433,214,25275,1,0,0:0:0:0:
171,291,25449,5,8,0:0:0:0:
386,122,25624,1,0,0:0:0:0:
68,286,25798,5,8,0:0:0:0:
377,301,25973,1,0,0:0:0:0:
21,194,26147,5,8,0:0:0:0:
386,122,26321,1,0,0:0:0:0:
171,291,26496,5,12,0:0:0:0:
236,25,26670,1,0,0:0:0:0:
275,297,26845,5,8,0:0:0:0:
133,20,27019,1,0,0:0:0:0:
68,286,27193,5,8,0:0:0:0:
339,30,27368,1,0,0:0:0:0:
346,380,27542,5,8,0:0:0:0:
21,194,27717,1,0,0:0:0:0:
386,122,27891,5,12,0:0:0:0:
77,107,28066,1,2,0:0:0:0:
331,210,28240,1,0,0:0:0:0:
236,25,28414,1,2,0:0:0:0:
124,199,28589,5,8,0:0:0:0:
133,20,28763,1,2,0:0:0:0:
227,204,28938,1,0,0:0:0:0:
236,25,29112,1,2,0:0:0:0:
171,291,29286,5,12,0:0:0:0:
171,291,29403,2,0,P|176:325|193:357,1,60,4|4,0:0|0:0,0:0:0:0:
275,297,29635,1,4,0:0:0:0:
275,297,29752,2,0,P|307:309|343:310,1,60,4|4,0:0|0:0,0:0:0:0:
331,210,29984,5,4,0:0:0:0:
124,199,30159,1,14,0:0:0:0:
386,122,30333,1,14,0:0:0:0:
77,107,30507,1,14,0:0:0:0:
433,214,30682,5,14,0:0:0:0:
256,192,30769,12,0,36263,0:0:0:0:
