osu file format v14

[General]
AudioFilename: audio.mp3
AudioLeadIn: 0
PreviewTime: 117679
Countdown: 0
SampleSet: Normal
StackLeniency: 0.7
Mode: 1
LetterboxInBreaks: 0
WidescreenStoryboard: 1

[Editor]
DistanceSpacing: 2.2
BeatDivisor: 4
GridSize: 32
TimelineZoom: 1.5

[Metadata]
Title:Lotus Eater
TitleUnicode:ロータスイーター
Artist:Aoris (feat. Kaai Yuki)
ArtistUnicode:青栗鼠 (feat. 歌愛ユキ)
Creator:TKS
Version:iceOC's Futsuu
Source:
Tags:Electronic Japanese Future Core Bass vocaloid ボーカロイド Cryceptio uranosu1030 iceOC Sammu K_a_y_o_k_o kayoko
BeatmapID:4102386
BeatmapSetID:1556093

[Difficulty]
HPDrainRate:7
CircleSize:5
OverallDifficulty:4
ApproachRate:5
SliderMultiplier:1.4
SliderTickRate:1

[Events]
//Background and Video events
0,0,"bg.jpg",0,0
//Break Periods
//Storyboard Layer 0 (Background)
//Storyboard Layer 1 (Fail)
//Storyboard Layer 2 (Pass)
//Storyboard Layer 3 (Foreground)
//Storyboard Layer 4 (Overlay)
//Storyboard Sound Samples

[TimingPoints]
1746,422.535211267606,4,1,0,75,1,0
13471,-100,4,1,0,75,0,0
15161,-100,4,1,0,75,0,0
40302,-100,4,1,0,75,0,0
42203,-100,4,1,0,75,0,0
43893,-100,4,1,0,75,0,0
45267,-100,4,1,0,75,0,0
50654,-100,4,1,0,75,0,0
51922,-100,4,1,0,75,0,0
55830,-100,4,1,0,85,0,1
69351,-100,4,1,0,80,0,0
96288,-100,4,1,0,80,0,0
103048,-100,4,1,0,80,0,0
109809,-100,4,1,0,80,0,0
118365,422.535211267606,4,1,0,85,1,1
118365,-100,4,1,0,85,0,1
131886,-100,4,1,0,75,0,0
145301,-100,4,1,0,75,0,0
157132,-100,4,1,0,75,0,0

[HitObjects]
266,144,1746,5,4,0:0:0:0:
209,131,2168,1,8,0:0:0:0:
226,63,2802,1,0,0:0:0:0:
224,112,3013,1,8,0:0:0:0:
169,137,3436,1,0,0:0:0:0:
457,88,3858,1,8,0:0:0:0:
160,113,4492,1,0,0:0:0:0:
256,96,4703,1,8,0:0:0:0:
107,134,5126,1,0,0:0:0:0:
441,265,5548,1,8,0:0:0:0:
61,75,6182,1,0,0:0:0:0:
190,140,6393,1,8,0:0:0:0:
190,140,6816,1,0,0:0:0:0:
479,191,7238,1,8,0:0:0:0:
22,164,7872,1,0,0:0:0:0:
144,176,8084,1,8,0:0:0:0:
266,144,8506,5,4,0:0:0:0:
170,89,9351,1,8,0:0:0:0:
226,63,9562,1,0,0:0:0:0:
224,112,9773,1,8,0:0:0:0:
169,137,10196,1,0,0:0:0:0:
160,113,11041,1,8,0:0:0:0:
107,134,11253,1,0,0:0:0:0:
147,53,11464,1,8,0:0:0:0:
107,134,11886,1,0,0:0:0:0:
441,265,12308,1,8,0:0:0:0:
231,135,12731,1,8,0:0:0:0:
61,75,12943,1,0,0:0:0:0:
190,140,13153,1,8,0:0:0:0:
289,97,13576,1,4,0:0:0:0:
213,66,13893,1,4,0:0:0:0:
259,97,14210,1,4,0:0:0:0:
259,97,14527,1,4,0:0:0:0:
259,97,14844,1,12,0:0:0:0:
188,190,15267,1,0,0:0:0:0:
256,192,16112,1,0,0:0:0:0:
211,90,16429,1,0,0:0:0:0:
256,192,16746,1,8,0:0:0:0:
177,147,17168,1,0,0:0:0:0:
256,192,17591,1,0,0:0:0:0:
256,192,17802,1,8,0:0:0:0:
177,147,18224,1,0,0:0:0:0:
186,173,18647,1,8,0:0:0:0:
230,108,18964,1,8,0:0:0:0:
189,86,19281,1,0,0:0:0:0:
256,192,19703,1,0,0:0:0:0:
186,135,19915,1,8,0:0:0:0:
211,149,20337,1,0,0:0:0:0:
220,145,20654,1,0,0:0:0:0:
220,145,20971,1,8,0:0:0:0:
220,145,21605,1,8,0:0:0:0:
251,123,22027,1,4,0:0:0:0:
256,192,22872,1,0,0:0:0:0:
211,90,23189,1,0,0:0:0:0:
256,192,23506,1,8,0:0:0:0:
177,147,23929,1,8,0:0:0:0:
256,192,24140,1,0,0:0:0:0:
256,192,24562,1,8,0:0:0:0:
177,147,24984,1,0,0:0:0:0:
256,192,25196,1,8,0:0:0:0:
186,173,25407,1,0,0:0:0:0:
230,108,25830,1,0,0:0:0:0:
189,86,26253,1,8,0:0:0:0:
186,135,26569,1,8,0:0:0:0:
211,149,26886,1,0,0:0:0:0:
220,145,27309,1,0,0:0:0:0:
220,145,27520,5,8,0:0:0:0:
220,145,28365,1,8,0:0:0:0:
143,155,28788,5,4,0:0:0:0:
141,126,29633,1,0,0:0:0:0:
204,96,30478,1,0,0:0:0:0:
161,117,31323,1,0,0:0:0:0:
226,199,32168,1,0,0:0:0:0:
201,146,32591,1,0,0:0:0:0:
202,198,33013,1,0,0:0:0:0:
232,146,33858,1,0,0:0:0:0:
272,158,34281,1,0,0:0:0:0:
256,192,34492,1,8,0:0:0:0:
188,60,34915,1,8,0:0:0:0:
198,137,35126,1,0,0:0:0:0:
218,144,35548,1,4,0:0:0:0:
236,214,35971,1,8,0:0:0:0:
236,214,36393,1,0,0:0:0:0:
236,214,37238,1,0,0:0:0:0:
236,214,37661,1,0,0:0:0:0:
198,73,37872,1,8,0:0:0:0:
236,214,38084,1,0,0:0:0:0:
236,214,38929,1,0,0:0:0:0:
198,137,39140,1,8,0:0:0:0:
236,214,39351,1,0,0:0:0:0:
256,192,39562,1,8,0:0:0:0:
236,214,39774,1,0,0:0:0:0:
198,137,40196,1,8,0:0:0:0:
249,67,40407,1,4,0:0:0:0:
241,124,40830,1,4,0:0:0:0:
241,124,41041,1,4,0:0:0:0:
241,124,41253,1,4,0:0:0:0:
250,118,41464,1,4,0:0:0:0:
126,204,42309,1,0,0:0:0:0:
127,195,42731,1,0,0:0:0:0:
127,195,43154,1,8,0:0:0:0:
127,195,43576,1,8,0:0:0:0:
127,195,43999,1,4,0:0:0:0:
210,122,44844,1,12,0:0:0:0:
211,146,45689,1,4,0:0:0:0:
179,148,46323,1,0,0:0:0:0:
205,128,46746,1,0,0:0:0:0:
202,188,46957,1,8,0:0:0:0:
179,148,47168,1,0,0:0:0:0:
160,116,47591,1,8,0:0:0:0:
170,163,47802,1,0,0:0:0:0:
133,186,48224,1,0,0:0:0:0:
205,188,48436,1,0,0:0:0:0:
124,189,48647,1,8,0:0:0:0:
154,188,49069,1,0,0:0:0:0:
154,188,49492,1,0,0:0:0:0:
154,188,49915,1,8,0:0:0:0:
154,188,50337,1,8,0:0:0:0:
205,102,50760,1,4,0:0:0:0:
187,134,51605,1,8,0:0:0:0:
222,107,52450,1,4,0:0:0:0:
222,114,52872,1,8,0:0:0:0:
209,151,53084,1,0,0:0:0:0:
256,192,53506,1,0,0:0:0:0:
193,142,53717,1,8,0:0:0:0:
203,117,53929,1,0,0:0:0:0:
108,153,54351,1,0,0:0:0:0:
151,132,54562,1,8,0:0:0:0:
246,94,55407,1,12,0:0:0:0:
193,128,55830,1,0,0:0:0:0:
120,149,56253,1,8,0:0:0:0:
120,149,56675,1,0,0:0:0:0:
120,149,57098,1,8,0:0:0:0:
63,121,57309,1,0,0:0:0:0:
171,128,57731,1,0,0:0:0:0:
171,128,57943,1,8,0:0:0:0:
181,137,58154,1,0,0:0:0:0:
201,40,58576,1,8,0:0:0:0:
171,128,58788,1,8,0:0:0:0:
251,89,58999,1,0,0:0:0:0:
137,108,59422,1,8,0:0:0:0:
171,128,59633,1,8,0:0:0:0:
137,108,59844,1,0,0:0:0:0:
256,192,60267,1,0,0:0:0:0:
196,57,60478,1,8,0:0:0:0:
141,77,60689,1,0,0:0:0:0:
171,128,61112,1,0,0:0:0:0:
171,128,61323,1,0,0:0:0:0:
171,128,61534,1,8,0:0:0:0:
256,192,62379,1,8,0:0:0:0:
171,128,62591,1,0,0:0:0:0:
171,128,63013,1,8,0:0:0:0:
171,128,63436,1,0,0:0:0:0:
234,52,63647,1,8,0:0:0:0:
171,128,63858,1,8,0:0:0:0:
125,94,64069,1,0,0:0:0:0:
191,102,64492,1,0,0:0:0:0:
171,128,64703,1,8,0:0:0:0:
191,102,64915,1,0,0:0:0:0:
171,128,65337,1,8,0:0:0:0:
171,128,65548,1,8,0:0:0:0:
194,117,65760,1,0,0:0:0:0:
224,129,66182,1,8,0:0:0:0:
186,51,66393,1,0,0:0:0:0:
224,129,66605,1,8,0:0:0:0:
191,70,67027,1,8,0:0:0:0:
233,125,67238,1,8,0:0:0:0:
263,125,67450,1,0,0:0:0:0:
270,120,67872,1,0,0:0:0:0:
171,128,68084,1,8,0:0:0:0:
256,192,68295,1,8,0:0:0:0:
197,110,68506,1,4,0:0:0:0:
197,110,68929,1,4,0:0:0:0:
150,170,69351,1,12,0:0:0:0:
187,185,70407,1,8,0:0:0:0:
196,85,70619,1,0,0:0:0:0:
142,125,71041,1,0,0:0:0:0:
167,145,72098,1,0,0:0:0:0:
209,159,72309,1,8,0:0:0:0:
223,119,72731,1,0,0:0:0:0:
169,83,73788,1,8,0:0:0:0:
110,95,73999,1,0,0:0:0:0:
290,188,74422,1,0,0:0:0:0:
183,110,75478,1,0,0:0:0:0:
222,87,75689,1,8,0:0:0:0:
256,192,75900,1,8,0:0:0:0:
251,118,76112,1,0,0:0:0:0:
184,171,76534,1,8,0:0:0:0:
184,171,77168,1,0,0:0:0:0:
135,60,77379,1,8,0:0:0:0:
176,165,77802,1,0,0:0:0:0:
176,165,78224,1,8,0:0:0:0:
225,98,78436,1,0,0:0:0:0:
185,163,78858,1,0,0:0:0:0:
173,131,79069,1,8,0:0:0:0:
256,192,79492,1,0,0:0:0:0:
226,107,79809,1,8,0:0:0:0:
216,97,80126,1,0,0:0:0:0:
192,130,80443,1,8,0:0:0:0:
192,130,80760,1,0,0:0:0:0:
155,122,81076,1,8,0:0:0:0:
155,122,81393,1,0,0:0:0:0:
210,100,81710,1,8,0:0:0:0:
210,100,82027,1,0,0:0:0:0:
188,130,82450,1,0,0:0:0:0:
227,140,82872,1,4,0:0:0:0:
193,115,83717,1,0,0:0:0:0:
271,82,84034,1,0,0:0:0:0:
290,80,84351,1,8,0:0:0:0:
182,125,84774,1,8,0:0:0:0:
193,115,84985,1,0,0:0:0:0:
234,69,85407,1,0,0:0:0:0:
198,37,85619,1,8,0:0:0:0:
193,115,85830,1,0,0:0:0:0:
190,94,86253,1,8,0:0:0:0:
193,115,86569,1,8,0:0:0:0:
53,118,86886,1,0,0:0:0:0:
256,192,87098,1,0,0:0:0:0:
193,115,87415,1,8,0:0:0:0:
141,122,87731,1,0,0:0:0:0:
193,115,87943,1,0,0:0:0:0:
228,74,88260,1,8,0:0:0:0:
143,97,88576,1,8,0:0:0:0:
193,115,88788,1,0,0:0:0:0:
141,193,89210,1,8,0:0:0:0:
216,76,89633,1,0,0:0:0:0:
141,193,90478,1,0,0:0:0:0:
141,193,90795,1,0,0:0:0:0:
230,102,91112,1,8,0:0:0:0:
247,104,91534,1,8,0:0:0:0:
141,193,91746,1,0,0:0:0:0:
141,193,92062,1,8,0:0:0:0:
160,77,92379,1,0,0:0:0:0:
199,87,92591,1,0,0:0:0:0:
141,193,93013,1,8,0:0:0:0:
141,193,93436,1,0,0:0:0:0:
141,193,93858,1,8,0:0:0:0:
141,193,94175,1,8,0:0:0:0:
207,103,94492,1,0,0:0:0:0:
218,84,94915,1,8,0:0:0:0:
141,193,95126,1,0,0:0:0:0:
141,97,95337,1,0,0:0:0:0:
141,193,95548,1,8,0:0:0:0:
163,40,95971,1,8,0:0:0:0:
222,159,96393,1,0,0:0:0:0:
167,156,97238,1,0,0:0:0:0:
213,170,98084,1,0,0:0:0:0:
167,155,98929,1,0,0:0:0:0:
213,170,99774,1,0,0:0:0:0:
202,122,100196,1,0,0:0:0:0:
201,128,100619,1,8,0:0:0:0:
186,117,101041,1,8,0:0:0:0:
213,170,101464,1,0,0:0:0:0:
256,192,102520,1,8,0:0:0:0:
256,192,102731,1,8,0:0:0:0:
213,170,103154,1,4,0:0:0:0:
221,134,103576,1,8,0:0:0:0:
221,134,103999,1,0,0:0:0:0:
206,138,104422,1,0,0:3:0:0:
211,152,104633,1,8,0:0:0:0:
221,134,104844,1,0,0:0:0:0:
221,134,105267,1,8,0:0:0:0:
221,134,105689,1,0,0:0:0:0:
184,100,106112,1,0,0:0:0:0:
210,114,106323,1,8,0:0:0:0:
228,102,106534,1,0,0:0:0:0:
228,102,106957,1,0,0:0:0:0:
228,102,107379,1,8,0:0:0:0:
208,133,107591,1,8,0:0:0:0:
222,99,107802,1,8,0:0:0:0:
241,133,108013,1,4,0:0:0:0:
80,206,108436,1,4,0:0:0:0:
80,206,108647,1,4,0:0:0:0:
80,206,108858,1,4,0:0:0:0:
80,206,109069,1,4,0:0:0:0:
160,158,109915,1,4,0:0:0:0:
160,158,110231,1,4,0:0:0:0:
160,158,110548,1,4,0:0:0:0:
160,158,110865,1,4,0:0:0:0:
160,158,111182,1,4,0:0:0:0:
326,207,111605,1,12,0:0:0:0:
326,207,111922,1,12,0:0:0:0:
326,207,112238,1,12,0:0:0:0:
326,207,112555,1,12,0:0:0:0:
326,207,112872,1,12,0:0:0:0:
254,156,113295,1,4,0:0:0:0:
254,156,113612,1,12,0:0:0:0:
231,122,113929,1,4,0:0:0:0:
256,138,114246,1,12,0:0:0:0:
256,138,114562,1,4,0:0:0:0:
288,124,114985,1,12,0:0:0:0:
288,124,115302,1,12,0:0:0:0:
288,124,115619,1,12,0:0:0:0:
292,127,115830,1,4,0:0:0:0:
292,127,116147,1,4,0:0:0:0:
292,127,116464,1,4,0:0:0:0:
244,137,116675,1,12,0:0:0:0:
266,103,117309,1,4,0:0:0:0:
193,128,118365,1,0,0:0:0:0:
120,149,118788,1,8,0:0:0:0:
120,149,119210,1,0,0:0:0:0:
120,149,119633,1,8,0:0:0:0:
63,121,119844,1,0,0:0:0:0:
171,128,120266,1,0,0:0:0:0:
171,128,120478,1,8,0:0:0:0:
181,137,120689,1,0,0:0:0:0:
201,40,121111,1,8,0:0:0:0:
171,128,121323,1,8,0:0:0:0:
251,89,121534,1,0,0:0:0:0:
137,108,121957,1,8,0:0:0:0:
171,128,122168,1,8,0:0:0:0:
137,108,122379,1,0,0:0:0:0:
256,192,122802,1,0,0:0:0:0:
196,57,123013,1,8,0:0:0:0:
141,77,123224,1,0,0:0:0:0:
171,128,123647,1,0,0:0:0:0:
171,128,123858,1,0,0:0:0:0:
171,128,124069,1,8,0:0:0:0:
256,192,124914,1,8,0:0:0:0:
171,128,125126,1,0,0:0:0:0:
171,128,125548,1,8,0:0:0:0:
171,128,125971,1,0,0:0:0:0:
234,52,126182,1,8,0:0:0:0:
171,128,126393,1,8,0:0:0:0:
125,94,126604,1,0,0:0:0:0:
191,102,127027,1,0,0:0:0:0:
171,128,127238,1,8,0:0:0:0:
191,102,127450,1,0,0:0:0:0:
171,128,127872,1,8,0:0:0:0:
171,128,128083,1,8,0:0:0:0:
194,117,128295,1,0,0:0:0:0:
224,129,128717,1,8,0:0:0:0:
186,51,128928,1,0,0:0:0:0:
224,129,129140,1,8,0:0:0:0:
191,70,129562,1,8,0:0:0:0:
233,125,129773,1,8,0:0:0:0:
263,125,129985,1,0,0:0:0:0:
270,120,130407,1,0,0:0:0:0:
171,128,130619,1,8,0:0:0:0:
256,192,130830,1,8,0:0:0:0:
197,110,131041,1,4,0:0:0:0:
197,110,131464,1,4,0:0:0:0:
150,170,131886,1,12,0:0:0:0:
242,121,132731,1,8,0:0:0:0:
242,121,133153,1,8,0:0:0:0:
242,121,133576,1,0,0:0:0:0:
251,87,134632,1,0,0:0:0:0:
228,143,134843,1,8,0:0:0:0:
243,74,135055,1,8,0:0:0:0:
265,119,135266,1,0,0:0:0:0:
265,119,136111,1,8,0:0:0:0:
181,118,136534,1,8,0:0:0:0:
181,118,136956,1,0,0:0:0:0:
181,118,137801,1,0,0:0:0:0:
181,118,138224,1,8,0:0:0:0:
181,118,138646,1,4,0:0:0:0:
251,168,139069,1,8,0:0:0:0:
183,127,139703,1,0,0:0:0:0:
183,127,139914,1,8,0:0:0:0:
156,161,140336,1,0,0:0:0:0:
256,192,140759,1,8,0:0:0:0:
199,122,141393,1,0,0:0:0:0:
244,156,141604,1,8,0:0:0:0:
220,114,142026,1,0,0:0:0:0:
174,102,142449,1,8,0:0:0:0:
232,107,143083,1,0,0:0:0:0:
232,107,143294,1,8,0:0:0:0:
232,107,143717,1,0,0:0:0:0:
216,99,143928,1,8,0:0:0:0:
216,99,144139,1,8,0:0:0:0:
216,99,144350,1,0,0:0:0:0:
149,97,144773,1,0,0:0:0:0:
149,97,144984,1,8,0:0:0:0:
266,144,145407,1,4,0:0:0:0:
170,89,146252,1,8,0:0:0:0:
224,112,146569,1,8,0:0:0:0:
256,192,147097,1,0,0:0:0:0:
256,192,147942,1,8,0:0:0:0:
258,87,148259,1,8,0:0:0:0:
107,134,148787,1,0,0:0:0:0:
231,135,149632,1,8,0:0:0:0:
61,75,149949,1,8,0:0:0:0:
190,140,150477,1,0,0:0:0:0:
479,191,151322,1,8,0:0:0:0:
22,164,151639,1,8,0:0:0:0:
144,176,151956,1,8,0:0:0:0:
266,144,152167,1,4,0:0:0:0:
226,63,153223,1,0,0:0:0:0:
224,112,153434,1,8,0:0:0:0:
169,137,153857,1,0,0:0:0:0:
457,88,154279,1,8,0:0:0:0:
107,134,154914,1,0,0:0:0:0:
171,85,155125,1,8,0:0:0:0:
107,134,155547,1,0,0:0:0:0:
441,265,155969,1,8,0:0:0:0:
61,75,156603,1,0,0:0:0:0:
190,140,156814,1,8,0:0:0:0:
292,104,157238,1,4,0:0:0:0:
292,104,157555,1,4,0:0:0:0:
292,104,157872,1,12,0:0:0:0:
292,104,158188,1,12,0:0:0:0:
292,104,158505,1,4,0:0:0:0:
292,104,158822,1,4,0:0:0:0:
292,104,159139,1,12,0:0:0:0:
292,104,159456,1,12,0:0:0:0:
292,104,159773,1,4,0:0:0:0:
248,92,160195,1,12,0:0:0:0:
248,92,160618,1,4,0:0:0:0:
