osu file format v14

[General]
AudioFilename: audio.mp3
AudioLeadIn: 0
PreviewTime: 117679
Countdown: 0
SampleSet: Normal
StackLeniency: 0.7
Mode: 1
LetterboxInBreaks: 0
WidescreenStoryboard: 1

[Editor]
DistanceSpacing: 2.2
BeatDivisor: 6
GridSize: 32
TimelineZoom: 2

[Metadata]
Title:Lotus Eater
TitleUnicode:ロータスイーター
Artist:Aoris (feat. Kaai Yuki)
ArtistUnicode:青栗鼠 (feat. 歌愛ユキ)
Creator:TKS
Version:Cry's Oni
Source:
Tags:Electronic Japanese Future Core Bass vocaloid ボーカロイド Cryceptio uranosu1030 iceOC Sammu K_a_y_o_k_o kayoko
BeatmapID:4067493
BeatmapSetID:1556093

[Difficulty]
HPDrainRate:5
CircleSize:5
OverallDifficulty:5.5
ApproachRate:5
SliderMultiplier:1.4
SliderTickRate:1

[Events]
//Background and Video events
0,0,"bg.jpg",0,0
0,0,"bg.jpg",0,0
//Break Periods
//Storyboard Layer 0 (Background)
//Storyboard Layer 1 (Fail)
//Storyboard Layer 2 (Pass)
//Storyboard Layer 3 (Foreground)
//Storyboard Layer 4 (Overlay)
//Storyboard Sound Samples

[TimingPoints]
1746,422.535211267606,4,1,0,60,1,0
27519,-100,4,1,0,60,0,0
27730,-101.429033639763,4,1,0,60,0,0
27836,-102.450207447776,4,1,0,60,0,0
27942,-103.605265719592,4,1,0,60,0,0
28153,-106.257312352691,4,1,0,60,0,0
28259,-107.758268633798,4,1,0,60,0,0
28364,-109.355507580204,4,1,0,60,0,0
28470,-111.111111111111,4,1,0,60,0,0
28575,-112.906047883899,4,1,0,60,0,0
28788,-116.959064327485,4,1,0,60,0,0
35125,-116.959064327485,4,1,0,60,0,0
35336,-114.511376434873,4,1,0,60,0,0
35548,-111.111111111111,4,1,0,60,0,0
39773,-111.111111111111,4,1,0,60,0,0
39984,-110.153688642744,4,1,0,60,0,0
40195,-108.782995314282,4,1,0,60,0,0
40301,-108.017570076288,4,1,0,60,0,0
40406,-107.223764616297,4,1,0,60,0,0
40619,-105.540897097625,4,1,0,60,0,0
42309,-124.223602484472,4,1,0,60,0,0
42730,-120.667742442201,4,1,0,60,0,0
43153,-117.302052785924,4,1,0,60,0,0
43575,-114.126342588372,4,1,0,60,0,0
43998,-111.111111111111,4,1,0,60,0,0
44421,-119.443988854944,4,1,0,60,0,0
44561,-117.410367381963,4,1,0,60,0,0
44702,-115.278624849358,4,1,0,60,0,0
44843,-113.097274086841,4,1,0,60,0,0
45266,-106.470637410079,4,1,0,60,0,0
45689,-100,4,1,0,60,0,0
49069,-125,4,1,0,60,0,0
49491,-121.209949107591,4,1,0,60,0,0
49914,-117.642966467232,4,1,0,60,0,0
50336,-114.287645309543,4,1,0,60,0,0
50760,-111.111111111111,4,1,0,60,0,0
51181,-117.994100294985,4,1,0,60,0,0
51392,-115.966534398688,4,1,0,60,0,0
51533,-114.593069983717,4,1,0,60,0,0
51815,-109.958472011983,4,1,0,60,0,0
52026,-106.669353708121,4,1,0,60,0,0
52237,-103.3356406076,4,1,0,60,0,0
52450,-100,4,1,0,60,0,0
55830,-90.9090909090909,4,1,0,80,0,1
68505,-90.9090909090909,4,1,0,80,0,1
68928,-94.3997456488979,4,1,0,80,0,1
69351,-100,4,1,0,60,0,0
95125,-100,4,1,0,60,0,0
95336,-102.492232495076,4,1,0,60,0,0
95442,-104.305407616887,4,1,0,60,0,0
95547,-106.368694623125,4,1,0,60,0,0
95759,-111.313421757784,4,1,0,60,0,0
95864,-114.16070298291,4,1,0,60,0,0
95970,-117.323195854213,4,1,0,60,0,0
96181,-124.577176368324,4,1,0,60,0,0
96393,-133.333333333333,4,1,0,60,0,0
102308,-133.333333333333,4,1,0,60,0,0
102730,-129.994836917138,4,1,0,60,0,0
102942,-127.763509088791,4,1,0,60,0,0
103154,-125.391849529781,4,1,0,60,0,0
107378,-125.391849529781,4,1,0,60,0,0
107590,-120.44916273426,4,1,0,60,0,0
107801,-113.916839072553,4,1,0,60,0,0
107906,-110.537416025794,4,1,0,60,0,0
108012,-107.129817975471,4,1,0,60,0,0
108224,-100.502512562814,4,1,0,60,0,0
109915,-87.3362444192998,4,1,0,60,0,0
117943,-100.250626562672,4,1,0,60,0,0
118365,422.535211267606,4,1,0,80,1,1
118365,-90.702947845805,4,1,0,80,0,1
130617,-90.702947845805,4,1,0,80,0,1
130828,-91.5297847851976,4,1,0,80,0,1
131040,-92.7728685106468,4,1,0,80,0,1
131251,-94.2620729951337,4,1,0,80,0,1
131356,-95.0846031106339,4,1,0,80,0,1
131462,-95.9670730286404,4,1,0,80,0,1
131673,-97.876455476398,4,1,0,80,0,1
131886,-100,4,1,0,60,0,0
144138,-100,4,1,0,60,0,0
144349,-100.93167241494,4,1,0,60,0,0
144561,-102.333066081235,4,1,0,60,0,0
144772,-104.01302954371,4,1,0,60,0,0
144878,-105.273255858292,4,1,0,60,0,0
144983,-105.937911263458,4,1,0,60,0,0
145407,-110.497237569061,4,1,0,60,0,0
157238,-87.3362442686998,4,1,0,60,0,0

[HitObjects]
64,320,1746,5,4,0:0:0:0:
448,64,1957,1,8,0:0:0:0:
32,32,2168,1,0,0:0:0:0:
32,32,2274,1,0,0:0:0:0:
32,32,2485,1,0,0:0:0:0:
448,64,2591,1,8,0:0:0:0:
448,64,2802,1,8,0:0:0:0:
32,32,2907,1,0,0:0:0:0:
32,32,3436,1,0,0:0:0:0:
448,64,3647,1,8,0:0:0:0:
32,32,3858,1,0,0:0:0:0:
32,32,3964,1,0,0:0:0:0:
32,32,4175,1,0,0:0:0:0:
448,64,4281,1,8,0:0:0:0:
448,64,4492,1,8,0:0:0:0:
32,32,4598,1,0,0:0:0:0:
32,32,5126,1,0,0:0:0:0:
448,64,5337,1,8,0:0:0:0:
32,32,5548,1,0,0:0:0:0:
32,32,5654,1,0,0:0:0:0:
32,32,5865,1,0,0:0:0:0:
448,64,5971,1,8,0:0:0:0:
32,32,6182,1,0,0:0:0:0:
32,32,6288,1,0,0:0:0:0:
32,32,6816,1,0,0:0:0:0:
448,64,7027,1,8,0:0:0:0:
32,32,7238,1,0,0:0:0:0:
448,64,7344,1,8,0:0:0:0:
448,64,7555,1,8,0:0:0:0:
448,64,7767,1,8,0:0:0:0:
32,32,7978,1,0,0:0:0:0:
64,320,8506,1,4,0:0:0:0:
448,64,8717,1,8,0:0:0:0:
32,32,8929,1,0,0:0:0:0:
32,32,9034,1,0,0:0:0:0:
32,32,9246,1,0,0:0:0:0:
448,64,9351,1,8,0:0:0:0:
448,64,9562,1,8,0:0:0:0:
32,32,9668,1,0,0:0:0:0:
32,32,10196,1,0,0:0:0:0:
448,64,10407,1,8,0:0:0:0:
32,32,10619,1,0,0:0:0:0:
32,32,10724,1,0,0:0:0:0:
32,32,10936,1,0,0:0:0:0:
448,64,11041,1,8,0:0:0:0:
448,64,11253,1,8,0:0:0:0:
32,32,11358,1,0,0:0:0:0:
32,32,11886,1,0,0:0:0:0:
448,64,12098,1,8,0:0:0:0:
32,32,12309,1,0,0:0:0:0:
32,32,12415,1,0,0:0:0:0:
32,32,12626,1,0,0:0:0:0:
448,64,12731,1,8,0:0:0:0:
32,32,12943,1,0,0:0:0:0:
448,64,13048,1,8,0:0:0:0:
64,320,13576,1,4,0:0:0:0:
64,320,13893,1,4,0:0:0:0:
64,320,14210,1,4,0:0:0:0:
448,320,14527,1,12,0:0:0:0:
448,64,14844,1,8,0:0:0:0:
448,64,15055,1,8,0:0:0:0:
64,320,15267,1,4,0:0:0:0:
448,64,15689,1,8,0:0:0:0:
32,32,16006,1,0,0:0:0:0:
448,64,16112,1,8,0:0:0:0:
32,32,16323,1,0,0:0:0:0:
448,64,16534,1,8,0:0:0:0:
448,64,16746,1,8,0:0:0:0:
64,64,16957,1,0,0:0:0:0:
32,32,17168,1,0,0:0:0:0:
448,64,17379,1,8,0:0:0:0:
448,64,17591,1,8,0:0:0:0:
448,64,17802,1,8,0:0:0:0:
32,32,17907,1,0,0:0:0:0:
32,32,18013,1,0,0:0:0:0:
448,64,18224,1,8,0:0:0:0:
448,64,18436,1,8,0:0:0:0:
32,32,18647,1,0,0:0:0:0:
448,64,18964,1,8,0:0:0:0:
448,64,19281,1,8,0:0:0:0:
32,32,19492,1,0,0:0:0:0:
448,64,19809,1,8,0:0:0:0:
448,64,20126,1,8,0:0:0:0:
32,32,20337,1,0,0:0:0:0:
32,32,20654,1,0,0:0:0:0:
448,64,20971,1,8,0:0:0:0:
448,64,21076,1,8,0:0:0:0:
32,32,21182,1,0,0:0:0:0:
32,32,21393,1,0,0:0:0:0:
448,64,21605,1,8,0:0:0:0:
64,64,21816,1,0,0:0:0:0:
64,320,22027,1,4,0:0:0:0:
448,64,22450,1,8,0:0:0:0:
32,32,22767,1,0,0:0:0:0:
448,64,22872,1,8,0:0:0:0:
32,32,23084,1,0,0:0:0:0:
448,64,23295,1,8,0:0:0:0:
448,64,23506,1,8,0:0:0:0:
64,64,23717,1,0,0:0:0:0:
448,64,23929,1,8,0:0:0:0:
448,64,24140,1,8,0:0:0:0:
32,32,24246,1,0,0:0:0:0:
448,64,24457,1,8,0:0:0:0:
32,32,24774,1,0,0:0:0:0:
448,64,24985,1,8,0:0:0:0:
448,64,25196,1,8,0:0:0:0:
32,32,25407,1,0,0:0:0:0:
448,64,25830,1,8,0:0:0:0:
32,32,26253,1,0,0:0:0:0:
32,32,26464,1,0,0:0:0:0:
32,32,26569,1,0,0:0:0:0:
448,64,26886,1,8,0:0:0:0:
32,32,27309,1,0,0:0:0:0:
448,64,27520,1,8,0:0:0:0:
32,32,27731,1,0,0:0:0:0:
448,64,27837,1,8,0:0:0:0:
32,32,27943,1,0,0:0:0:0:
32,32,28154,1,0,0:0:0:0:
32,32,28260,1,0,0:0:0:0:
448,64,28365,1,8,0:0:0:0:
32,32,28471,1,0,0:0:0:0:
448,64,28576,1,8,0:0:0:0:
32,32,28788,1,0,0:0:0:0:
448,64,29210,1,8,0:0:0:0:
448,64,29633,1,8,0:0:0:0:
448,64,30055,1,8,0:0:0:0:
448,64,30478,1,8,0:0:0:0:
448,64,30900,1,8,0:0:0:0:
448,64,31323,1,8,0:0:0:0:
448,64,31746,1,8,0:0:0:0:
448,64,32168,1,8,0:0:0:0:
448,64,32591,1,8,0:0:0:0:
448,64,33013,1,8,0:0:0:0:
448,64,33436,1,8,0:0:0:0:
448,64,33858,1,8,0:0:0:0:
448,64,34703,1,8,0:0:0:0:
448,64,35126,1,8,0:0:0:0:
448,64,35337,1,8,0:0:0:0:
32,32,35548,1,0,0:0:0:0:
448,64,35971,1,8,0:0:0:0:
32,32,36393,1,0,0:0:0:0:
448,64,36710,1,8,0:0:0:0:
448,64,36816,1,8,0:0:0:0:
448,64,37027,1,8,0:0:0:0:
32,32,37238,1,0,0:0:0:0:
448,64,37661,1,8,0:0:0:0:
32,32,38084,1,0,0:0:0:0:
448,64,38400,1,8,0:0:0:0:
448,64,38506,1,8,0:0:0:0:
448,64,38717,1,8,0:0:0:0:
32,32,38929,1,0,0:0:0:0:
448,64,39140,1,8,0:0:0:0:
32,32,39351,1,0,0:0:0:0:
32,32,39774,1,0,0:0:0:0:
448,64,39985,1,8,0:0:0:0:
32,32,40196,1,0,0:0:0:0:
32,32,40302,1,0,0:0:0:0:
32,32,40407,1,0,0:0:0:0:
448,320,40830,1,12,0:0:0:0:
448,320,41041,1,12,0:0:0:0:
448,320,41253,1,12,0:0:0:0:
448,320,41464,1,12,0:0:0:0:
64,320,42309,1,4,0:0:0:0:
64,320,42731,1,4,0:0:0:0:
64,320,43154,1,4,0:0:0:0:
64,320,43576,1,4,0:0:0:0:
448,320,43999,1,12,0:0:0:0:
448,64,44422,1,8,0:0:0:0:
448,64,44562,1,8,0:0:0:0:
448,64,44703,1,8,0:0:0:0:
64,320,44844,1,4,0:0:0:0:
32,32,45267,1,0,0:0:0:0:
64,320,45689,1,4,0:0:0:0:
448,64,45900,1,8,0:0:0:0:
448,64,46112,1,8,0:0:0:0:
448,64,46217,1,8,0:0:0:0:
32,32,46323,1,0,0:0:0:0:
448,64,46534,1,8,0:0:0:0:
32,32,46746,1,0,0:0:0:0:
32,32,46851,1,0,0:0:0:0:
448,64,46957,1,8,0:0:0:0:
448,64,47168,1,8,0:0:0:0:
32,32,47379,1,0,0:0:0:0:
32,32,47591,1,0,0:0:0:0:
448,64,47802,1,8,0:0:0:0:
448,64,47907,1,8,0:0:0:0:
448,64,48013,1,8,0:0:0:0:
32,32,48224,1,0,0:0:0:0:
32,32,48436,1,0,0:0:0:0:
448,320,48647,1,12,0:0:0:0:
64,320,49069,1,4,0:0:0:0:
64,320,49492,1,4,0:0:0:0:
64,320,49915,1,4,0:0:0:0:
64,320,50337,1,4,0:0:0:0:
448,320,50760,1,12,0:0:0:0:
448,64,51182,1,8,0:0:0:0:
32,32,51393,1,0,0:0:0:0:
448,64,51534,1,8,0:0:0:0:
32,32,51816,1,0,0:0:0:0:
448,64,52027,1,8,0:0:0:0:
32,32,52238,1,0,0:0:0:0:
64,320,52450,1,4,0:0:0:0:
448,64,52661,1,8,0:0:0:0:
448,64,52872,1,8,0:0:0:0:
448,64,52978,1,8,0:0:0:0:
32,32,53084,1,0,0:0:0:0:
448,64,53295,1,8,0:0:0:0:
32,32,53506,1,0,0:0:0:0:
32,32,53612,1,0,0:0:0:0:
448,64,53717,1,8,0:0:0:0:
448,64,53929,1,8,0:0:0:0:
448,64,54140,1,8,0:0:0:0:
32,32,54351,1,0,0:0:0:0:
448,64,54562,1,8,0:0:0:0:
448,64,54774,1,8,0:0:0:0:
448,64,54985,1,8,0:0:0:0:
448,64,55091,1,8,0:0:0:0:
32,32,55196,1,0,0:0:0:0:
448,320,55407,1,12,0:0:0:0:
64,320,55830,1,4,0:0:0:0:
64,64,56147,1,0,0:0:0:0:
448,64,56253,1,8,0:0:0:0:
448,64,56464,1,8,0:0:0:0:
32,32,56675,1,0,0:0:0:0:
448,64,56886,1,8,0:0:0:0:
448,64,56992,1,8,0:0:0:0:
32,32,57098,1,0,0:0:0:0:
448,64,57309,1,8,0:0:0:0:
448,64,57731,1,8,0:0:0:0:
448,64,57837,1,8,0:0:0:0:
64,64,57943,1,0,0:0:0:0:
448,64,58154,1,8,0:0:0:0:
64,64,58260,1,0,0:0:0:0:
64,64,58365,1,0,0:0:0:0:
64,64,58576,1,0,0:0:0:0:
448,64,58788,1,8,0:0:0:0:
64,64,58893,1,0,0:0:0:0:
448,64,58999,1,8,0:0:0:0:
64,64,59210,1,0,0:0:0:0:
64,64,59422,1,0,0:0:0:0:
448,64,59633,1,8,0:0:0:0:
32,32,59738,1,0,0:0:0:0:
448,64,59844,1,8,0:0:0:0:
64,64,60055,1,0,0:0:0:0:
448,64,60267,1,8,0:0:0:0:
64,64,60478,1,0,0:0:0:0:
448,64,60689,1,8,0:0:0:0:
448,64,61112,1,8,0:0:0:0:
448,64,61217,1,8,0:0:0:0:
64,64,61323,1,0,0:0:0:0:
448,64,61534,1,8,0:0:0:0:
64,64,61745,1,0,0:0:0:0:
32,32,61957,1,0,0:0:0:0:
32,32,62062,1,0,0:0:0:0:
448,64,62168,1,8,0:0:0:0:
448,64,62379,1,8,0:0:0:0:
448,64,62485,1,8,0:0:0:0:
64,320,62591,1,4,0:0:0:0:
448,64,63013,1,8,0:0:0:0:
32,32,63436,1,0,0:0:0:0:
32,32,63647,1,0,0:0:0:0:
448,64,63858,1,8,0:0:0:0:
32,32,63964,1,0,0:0:0:0:
448,64,64069,1,8,0:0:0:0:
32,32,64492,1,0,0:0:0:0:
64,64,64598,1,0,0:0:0:0:
448,64,64703,1,8,0:0:0:0:
32,32,64915,1,0,0:0:0:0:
32,32,65020,1,0,0:0:0:0:
32,32,65126,1,0,0:0:0:0:
448,64,65337,1,8,0:0:0:0:
32,32,65548,1,0,0:0:0:0:
448,64,65760,1,8,0:0:0:0:
32,32,65971,1,0,0:0:0:0:
448,64,66182,1,8,0:0:0:0:
448,64,66288,1,8,0:0:0:0:
64,64,66393,1,0,0:0:0:0:
448,64,66605,1,8,0:0:0:0:
32,32,67027,1,0,0:0:0:0:
448,64,67238,1,8,0:0:0:0:
448,64,67450,1,8,0:0:0:0:
32,32,67661,1,0,0:0:0:0:
27,33,67872,1,0,0:0:0:0:
32,32,67978,1,0,0:0:0:0:
448,64,68084,1,8,0:0:0:0:
32,32,68295,1,0,0:0:0:0:
448,320,68506,1,12,0:0:0:0:
448,320,68929,1,12,0:0:0:0:
64,320,69351,1,4,0:0:0:0:
448,64,69774,1,8,0:0:0:0:
448,64,69985,1,8,0:0:0:0:
448,64,70126,1,8,0:0:0:0:
31,31,70407,1,0,0:0:0:0:
448,64,70619,1,8,0:0:0:0:
448,64,70830,1,8,0:0:0:0:
448,64,70971,1,8,0:0:0:0:
64,64,71253,1,0,0:0:0:0:
448,64,71464,1,8,0:0:0:0:
448,64,71886,1,8,0:0:0:0:
31,31,72098,1,0,0:0:0:0:
448,64,72309,1,8,0:0:0:0:
448,64,72520,1,8,0:0:0:0:
64,64,72661,1,0,0:0:0:0:
31,31,72731,1,0,0:0:0:0:
448,64,73048,1,8,0:0:0:0:
64,64,73365,1,0,0:0:0:0:
448,64,73576,1,8,0:0:0:0:
31,31,73788,1,0,0:0:0:0:
448,64,73999,1,8,0:0:0:0:
448,64,74140,1,8,0:0:0:0:
448,64,74281,1,8,0:0:0:0:
31,31,74422,1,0,0:0:0:0:
448,64,74844,1,8,0:0:0:0:
448,64,75055,1,8,0:0:0:0:
31,31,75478,1,0,0:0:0:0:
448,64,75689,1,8,0:0:0:0:
448,64,75900,1,8,0:0:0:0:
31,31,76112,1,0,0:0:0:0:
64,64,76393,1,0,0:0:0:0:
64,64,76464,1,0,0:0:0:0:
448,64,76534,1,8,0:0:0:0:
31,31,77168,1,0,0:0:0:0:
448,64,77379,1,8,0:0:0:0:
448,64,77661,1,8,0:0:0:0:
31,31,77802,1,0,0:0:0:0:
448,64,78084,1,8,0:0:0:0:
448,64,78154,1,8,0:0:0:0:
31,31,78224,1,0,0:0:0:0:
448,64,78436,1,8,0:0:0:0:
31,31,78858,1,0,0:0:0:0:
448,64,79069,1,8,0:0:0:0:
448,64,79210,1,8,0:0:0:0:
448,64,79351,1,8,0:0:0:0:
64,320,79492,1,4,0:0:0:0:
448,64,79809,1,8,0:0:0:0:
64,320,80126,1,4,0:0:0:0:
448,64,80443,1,8,0:0:0:0:
64,320,80760,1,4,0:0:0:0:
448,64,81076,1,8,0:0:0:0:
64,320,81393,1,4,0:0:0:0:
448,64,81710,1,8,0:0:0:0:
64,320,82027,1,4,0:0:0:0:
448,320,82450,1,12,0:0:0:0:
64,320,82872,1,4,0:0:0:0:
31,31,83295,1,0,0:0:0:0:
448,64,83612,1,8,0:0:0:0:
31,31,83717,1,0,0:0:0:0:
448,64,83929,1,8,0:0:0:0:
33,35,84140,1,0,0:0:0:0:
448,64,84351,1,8,0:0:0:0:
64,64,84562,1,0,0:0:0:0:
448,64,84774,1,8,0:0:0:0:
448,64,85196,1,8,0:0:0:0:
31,30,85407,1,0,0:0:0:0:
448,64,85513,1,8,0:0:0:0:
31,30,85619,1,0,0:0:0:0:
31,30,85830,1,0,0:0:0:0:
448,64,86041,1,8,0:0:0:0:
31,30,86253,1,0,0:0:0:0:
448,64,86569,1,8,0:0:0:0:
448,64,86886,1,8,0:0:0:0:
31,30,87098,1,0,0:0:0:0:
448,64,87415,1,8,0:0:0:0:
448,64,87731,1,8,0:0:0:0:
31,30,87943,1,0,0:0:0:0:
448,64,88260,1,8,0:0:0:0:
448,64,88576,1,8,0:0:0:0:
448,64,88682,1,8,0:0:0:0:
31,30,88788,1,0,0:0:0:0:
448,64,88999,1,8,0:0:0:0:
31,30,89210,1,0,0:0:0:0:
448,64,89422,1,8,0:0:0:0:
64,320,89633,1,4,0:0:0:0:
42,42,90055,1,0,0:0:0:0:
448,64,90372,1,8,0:0:0:0:
42,42,90478,1,0,0:0:0:0:
448,64,90689,1,8,0:0:0:0:
64,64,90900,1,0,0:0:0:0:
448,64,91112,1,8,0:0:0:0:
448,64,91534,1,8,0:0:0:0:
448,64,91746,1,8,0:0:0:0:
38,34,91851,1,0,0:0:0:0:
448,64,92062,1,8,0:0:0:0:
448,64,92379,1,8,0:0:0:0:
33,38,92591,1,0,0:0:0:0:
448,64,92802,1,8,0:0:0:0:
33,38,93013,1,0,0:0:0:0:
33,38,93436,1,0,0:0:0:0:
33,38,93858,1,0,0:0:0:0:
33,38,94069,1,0,0:0:0:0:
448,64,94175,1,8,0:0:0:0:
448,64,94492,1,8,0:0:0:0:
448,64,94915,1,8,0:0:0:0:
448,64,95126,1,8,0:0:0:0:
448,64,95337,1,8,0:0:0:0:
448,64,95443,1,8,0:0:0:0:
33,38,95548,1,0,0:0:0:0:
33,38,95760,1,0,0:0:0:0:
33,38,95865,1,0,0:0:0:0:
448,64,95971,1,8,0:0:0:0:
33,38,96182,1,0,0:0:0:0:
33,38,96393,1,0,0:0:0:0:
448,64,97238,1,8,0:0:0:0:
33,38,98084,1,0,0:0:0:0:
448,64,98929,1,8,0:0:0:0:
33,38,99774,1,0,0:0:0:0:
448,64,100619,1,8,0:0:0:0:
33,38,101464,1,0,0:0:0:0:
448,64,102309,1,8,0:0:0:0:
448,64,102731,1,8,0:0:0:0:
448,64,102943,1,8,0:0:0:0:
33,38,103154,1,0,0:0:0:0:
448,64,103576,1,8,0:0:0:0:
33,38,103999,1,0,0:0:0:0:
448,64,104316,1,8,0:0:0:0:
448,64,104422,1,8,0:0:0:0:
448,64,104633,1,8,0:0:0:0:
32,32,104844,1,0,0:0:0:0:
448,64,105267,1,8,0:0:0:0:
32,32,105689,1,0,0:0:0:0:
448,64,106006,1,8,0:0:0:0:
448,64,106112,1,8,0:0:0:0:
448,64,106323,1,8,0:0:0:0:
32,32,106534,1,0,0:0:0:0:
448,64,106746,1,8,0:0:0:0:
32,32,106957,1,0,0:0:0:0:
32,32,107379,1,0,0:0:0:0:
448,64,107591,1,8,0:0:0:0:
32,32,107802,1,0,0:0:0:0:
32,32,107907,1,0,0:0:0:0:
32,32,108013,1,0,0:0:0:0:
448,320,108436,1,12,0:0:0:0:
448,320,108647,1,12,0:0:0:0:
448,320,108858,1,12,0:0:0:0:
448,320,109069,1,12,0:0:0:0:
64,320,109915,1,4,0:0:0:0:
64,320,110231,1,4,0:0:0:0:
64,320,110548,1,4,0:0:0:0:
64,320,110865,1,4,0:0:0:0:
64,320,111182,1,4,0:0:0:0:
448,64,111393,1,8,0:0:0:0:
64,320,111605,1,4,0:0:0:0:
64,320,111922,1,4,0:0:0:0:
64,320,112238,1,4,0:0:0:0:
64,320,112555,1,4,0:0:0:0:
64,320,112872,1,4,0:0:0:0:
448,64,113084,1,8,0:0:0:0:
64,320,113295,1,4,0:0:0:0:
64,320,113612,1,4,0:0:0:0:
64,320,113929,1,4,0:0:0:0:
64,320,114246,1,4,0:0:0:0:
64,320,114562,1,4,0:0:0:0:
448,64,114774,1,8,0:0:0:0:
64,320,114985,1,4,0:0:0:0:
64,320,115302,1,4,0:0:0:0:
64,320,115619,1,4,0:0:0:0:
448,320,115830,1,12,0:0:0:0:
448,320,116147,1,12,0:0:0:0:
448,320,116464,1,12,0:0:0:0:
64,64,116675,1,4,0:0:0:0:
448,64,116957,1,8,0:0:0:0:
448,64,117027,1,8,0:0:0:0:
448,64,117098,1,8,0:0:0:0:
64,320,117309,1,4,0:0:0:0:
448,64,117943,1,8,0:0:0:0:
64,320,118365,1,4,0:0:0:0:
32,32,118681,1,0,0:0:0:0:
448,64,118787,1,8,0:0:0:0:
448,64,118998,1,8,0:0:0:0:
32,32,119210,1,0,0:0:0:0:
448,64,119421,1,8,0:0:0:0:
448,64,119526,1,8,0:0:0:0:
32,32,119632,1,0,0:0:0:0:
448,64,119843,1,8,0:0:0:0:
448,64,120266,1,8,0:0:0:0:
448,64,120372,1,8,0:0:0:0:
32,32,120477,1,0,0:0:0:0:
448,64,120688,1,8,0:0:0:0:
32,32,120794,1,0,0:0:0:0:
32,32,120900,1,0,0:0:0:0:
32,32,121111,1,0,0:0:0:0:
448,64,121322,1,8,0:0:0:0:
32,32,121428,1,0,0:0:0:0:
448,64,121534,1,8,0:0:0:0:
32,32,121745,1,0,0:0:0:0:
32,32,121956,1,0,0:0:0:0:
448,64,122167,1,8,0:0:0:0:
32,32,122273,1,0,0:0:0:0:
448,64,122379,1,8,0:0:0:0:
32,32,122590,1,0,0:0:0:0:
448,64,122801,1,8,0:0:0:0:
32,32,123012,1,0,0:0:0:0:
448,64,123224,1,8,0:0:0:0:
448,64,123646,1,8,0:0:0:0:
448,64,123752,1,8,0:0:0:0:
32,32,123857,1,0,0:0:0:0:
448,64,124069,1,8,0:0:0:0:
32,32,124280,1,0,0:0:0:0:
32,32,124491,1,0,0:0:0:0:
32,32,124597,1,0,0:0:0:0:
448,64,124703,1,8,0:0:0:0:
448,64,124914,1,8,0:0:0:0:
448,64,125019,1,8,0:0:0:0:
64,320,125125,1,4,0:0:0:0:
448,64,125548,1,8,0:0:0:0:
32,32,125970,1,0,0:0:0:0:
32,32,126181,1,0,0:0:0:0:
448,64,126393,1,8,0:0:0:0:
32,32,126498,1,0,0:0:0:0:
448,64,126604,1,8,0:0:0:0:
32,32,127026,1,0,0:0:0:0:
64,64,127132,1,0,0:0:0:0:
448,64,127238,1,8,0:0:0:0:
32,32,127449,1,0,0:0:0:0:
32,32,127555,1,0,0:0:0:0:
64,64,127660,1,0,0:0:0:0:
448,64,127872,1,8,0:0:0:0:
32,32,128083,1,0,0:0:0:0:
448,64,128294,1,8,0:0:0:0:
448,64,128717,1,8,0:0:0:0:
448,64,128822,1,8,0:0:0:0:
32,32,128928,1,0,0:0:0:0:
448,64,129139,1,8,0:0:0:0:
38,32,129350,1,0,0:0:0:0:
32,32,129562,1,0,0:0:0:0:
448,64,129773,1,8,0:0:0:0:
448,64,129984,1,8,0:0:0:0:
32,32,130195,1,0,0:0:0:0:
32,32,130407,1,0,0:0:0:0:
32,32,130512,1,0,0:0:0:0:
448,64,130618,1,8,0:0:0:0:
32,32,130829,1,0,0:0:0:0:
448,64,131041,1,8,0:0:0:0:
448,64,131252,1,8,0:0:0:0:
448,64,131357,1,8,0:0:0:0:
32,32,131463,1,0,0:0:0:0:
448,64,131674,1,8,0:0:0:0:
64,320,131886,1,4,0:0:0:0:
448,64,132308,1,8,0:0:0:0:
448,64,132519,1,8,0:0:0:0:
448,64,132625,1,8,0:0:0:0:
32,32,132731,1,0,0:0:0:0:
32,32,132942,1,0,0:0:0:0:
448,64,133153,1,8,0:0:0:0:
32,32,133576,1,0,0:0:0:0:
448,64,133998,1,8,0:0:0:0:
448,64,134210,1,8,0:0:0:0:
448,64,134315,1,8,0:0:0:0:
32,32,134421,1,0,0:0:0:0:
32,32,134632,1,0,0:0:0:0:
448,64,134843,1,8,0:0:0:0:
32,32,135266,1,0,0:0:0:0:
448,64,135688,1,8,0:0:0:0:
448,64,135900,1,8,0:0:0:0:
448,64,136005,1,8,0:0:0:0:
448,64,136111,1,8,0:0:0:0:
32,32,136322,1,0,0:0:0:0:
448,64,136534,1,8,0:0:0:0:
32,32,136956,1,0,0:0:0:0:
64,64,137167,1,0,0:0:0:0:
64,64,137273,1,0,0:0:0:0:
448,64,137379,1,8,0:0:0:0:
448,64,137590,1,8,0:0:0:0:
448,64,137801,1,8,0:0:0:0:
32,32,138012,1,0,0:0:0:0:
32,32,138118,1,0,0:0:0:0:
448,64,138224,1,8,0:0:0:0:
64,320,138646,1,4,0:0:0:0:
448,64,139069,1,8,0:0:0:0:
448,64,139280,1,8,0:0:0:0:
448,64,139386,1,8,0:0:0:0:
32,32,139491,1,0,0:0:0:0:
32,32,139703,1,0,0:0:0:0:
448,64,139914,1,8,0:0:0:0:
32,32,140336,1,0,0:0:0:0:
448,64,140759,1,8,0:0:0:0:
448,64,140970,1,8,0:0:0:0:
448,64,141076,1,8,0:0:0:0:
32,32,141287,1,0,0:0:0:0:
32,32,141393,1,0,0:0:0:0:
448,64,141604,1,8,0:0:0:0:
32,32,142026,1,0,0:0:0:0:
448,64,142449,1,8,0:0:0:0:
448,64,142660,1,8,0:0:0:0:
448,64,142766,1,8,0:0:0:0:
448,64,142977,1,8,0:0:0:0:
32,32,143083,1,0,0:0:0:0:
448,64,143294,1,8,0:0:0:0:
448,64,143505,1,8,0:0:0:0:
32,32,143717,1,0,0:0:0:0:
448,64,143928,1,8,0:0:0:0:
448,64,144034,1,8,0:0:0:0:
448,64,144139,1,8,0:0:0:0:
448,64,144350,1,8,0:0:0:0:
448,64,144562,1,8,0:0:0:0:
32,32,144773,1,0,0:0:0:0:
32,32,144879,1,0,0:0:0:0:
448,64,144984,1,8,0:0:0:0:
64,320,145407,1,4,0:0:0:0:
448,64,145618,1,8,0:0:0:0:
32,32,145829,1,0,0:0:0:0:
32,32,145935,1,0,0:0:0:0:
448,64,146146,1,8,0:0:0:0:
448,64,146252,1,8,0:0:0:0:
448,64,146463,1,8,0:0:0:0:
32,32,146569,1,0,0:0:0:0:
32,32,147097,1,0,0:0:0:0:
448,64,147308,1,8,0:0:0:0:
32,32,147519,1,0,0:0:0:0:
32,32,147625,1,0,0:0:0:0:
448,64,147836,1,8,0:0:0:0:
448,64,147942,1,8,0:0:0:0:
448,64,148153,1,8,0:0:0:0:
32,32,148259,1,0,0:0:0:0:
32,32,148787,1,0,0:0:0:0:
448,64,148998,1,8,0:0:0:0:
32,32,149210,1,0,0:0:0:0:
32,32,149315,1,0,0:0:0:0:
32,32,149526,1,0,0:0:0:0:
448,64,149632,1,8,0:0:0:0:
32,32,149843,1,0,0:0:0:0:
32,32,149949,1,0,0:0:0:0:
32,32,150477,1,0,0:0:0:0:
448,64,150688,1,8,0:0:0:0:
32,32,150900,1,0,0:0:0:0:
448,64,151005,1,8,0:0:0:0:
448,64,151217,1,8,0:0:0:0:
448,64,151428,1,8,0:0:0:0:
32,32,151639,1,0,0:0:0:0:
64,320,152167,1,4,0:0:0:0:
448,64,152379,1,8,0:0:0:0:
32,32,152590,1,0,0:0:0:0:
32,32,152695,1,0,0:0:0:0:
448,64,152907,1,8,0:0:0:0:
448,64,153012,1,8,0:0:0:0:
448,64,153224,1,8,0:0:0:0:
32,32,153329,1,0,0:0:0:0:
32,32,153857,1,0,0:0:0:0:
448,64,154069,1,8,0:0:0:0:
32,32,154280,1,0,0:0:0:0:
32,32,154386,1,0,0:0:0:0:
448,64,154597,1,8,0:0:0:0:
448,64,154703,1,8,0:0:0:0:
448,64,154914,1,8,0:0:0:0:
32,32,155019,1,0,0:0:0:0:
32,32,155548,1,0,0:0:0:0:
448,64,155759,1,8,0:0:0:0:
32,32,155970,1,0,0:0:0:0:
32,32,156076,1,0,0:0:0:0:
32,32,156287,1,0,0:0:0:0:
448,64,156393,1,8,0:0:0:0:
32,32,156604,1,0,0:0:0:0:
32,32,156710,1,0,0:0:0:0:
64,320,157238,1,4,0:0:0:0:
64,320,157555,1,4,0:0:0:0:
64,320,157872,1,4,0:0:0:0:
64,320,158188,1,4,0:0:0:0:
64,320,158505,1,4,0:0:0:0:
64,320,158822,1,4,0:0:0:0:
448,320,159139,1,12,0:0:0:0:
64,320,159456,1,4,0:0:0:0:
448,320,159773,1,12,0:0:0:0:
32,32,160195,1,0,0:0:0:0:
448,320,160618,1,12,0:0:0:0:
