osu file format v14

[General]
AudioFilename: audio.mp3
AudioLeadIn: 0
PreviewTime: 117679
Countdown: 0
SampleSet: Normal
StackLeniency: 0.7
Mode: 1
LetterboxInBreaks: 0
WidescreenStoryboard: 0

[Editor]
DistanceSpacing: 2.2
BeatDivisor: 6
GridSize: 32
TimelineZoom: 4.899997

[Metadata]
Title:Lotus Eater
TitleUnicode:ロータスイーター
Artist:Aoris (feat. Kaai Yuki)
ArtistUnicode:青栗鼠 (feat. 歌愛ユキ)
Creator:TKS
Version:Apathy
Source:
Tags:Electronic Japanese Future Core Bass vocaloid ボーカロイド Cryceptio uranosu1030 iceOC Sammu K_a_y_o_k_o kayoko
BeatmapID:3178876
BeatmapSetID:1556093

[Difficulty]
HPDrainRate:6
CircleSize:5
OverallDifficulty:6
ApproachRate:5
SliderMultiplier:1.4
SliderTickRate:1

[Events]
//Background and Video events
0,0,"bg.jpg",0,0
//Break Periods
//Storyboard Layer 0 (Background)
//Storyboard Layer 1 (Fail)
//Storyboard Layer 2 (Pass)
//Storyboard Layer 3 (Foreground)
//Storyboard Layer 4 (Overlay)
//Storyboard Sound Samples

[TimingPoints]
1746,422.535211267606,4,1,0,85,1,0
28841,-125,4,1,0,60,0,0
35496,-111.111111111111,4,1,0,75,0,0
40619,-100,4,1,0,85,0,0
42256,-133.333333333333,4,1,0,85,0,0
45636,-100,4,1,0,85,0,0
49017,-133.333333333333,4,1,0,85,0,0
52397,-100,4,1,0,85,0,0
55830,-86.9565217391304,4,1,0,85,0,1
69351,-100,4,1,0,85,0,0
79439,-90.9090909090909,4,1,0,85,0,0
79545,-100,4,1,0,85,0,0
80073,-90.9090909090909,4,1,0,85,0,0
80179,-100,4,1,0,85,0,0
80707,-90.9090909090909,4,1,0,85,0,0
80812,-100,4,1,0,85,0,0
81341,-90.9090909090909,4,1,0,85,0,0
81446,-100,4,1,0,85,0,0
81974,-90.9090909090909,4,1,0,85,0,0
82819,-100,4,1,0,85,0,0
96446,-181.818181818181,4,1,0,60,0,0
103101,-111.111111111111,4,1,0,75,0,0
108224,-100,4,1,0,85,0,0
109862,-76.9230769230769,4,1,0,85,0,0
111341,-100,4,1,0,85,0,0
111552,-76.9230769230769,4,1,0,85,0,0
113031,-100,4,1,0,85,0,0
113242,-76.9230769230769,4,1,0,85,0,0
114721,-100,4,1,0,85,0,0
114932,-76.9230769230769,4,1,0,85,0,0
116834,-100,4,1,0,85,0,0
117256,-76.9230769230769,4,1,0,85,0,0
117679,-100,4,1,0,85,0,0
118365,422.535211267606,4,1,0,85,1,1
118365,-86.9565217391304,4,1,0,85,0,1
131886,-100,4,1,0,85,0,0
145355,-111.111111111111,4,1,0,85,0,0
157291,-76.9230769230769,4,1,0,85,0,0

[HitObjects]
256,192,1746,5,0,0:0:0:0:
256,192,1957,1,8,0:0:0:0:
256,192,2168,1,0,0:0:0:0:
256,192,2309,1,0,0:0:0:0:
256,192,2485,1,0,0:0:0:0:
256,192,2591,1,8,0:0:0:0:
256,192,2802,1,8,0:0:0:0:
256,192,2943,1,0,0:0:0:0:
256,192,3119,1,0,0:0:0:0:
256,192,3224,1,8,0:0:0:0:
256,192,3365,1,8,0:0:0:0:
256,192,3436,1,0,0:0:0:0:
256,192,3647,1,8,0:0:0:0:
256,192,3858,1,0,0:0:0:0:
256,192,3999,1,0,0:0:0:0:
256,192,4175,1,0,0:0:0:0:
256,192,4281,1,8,0:0:0:0:
256,192,4492,1,8,0:0:0:0:
256,192,4633,1,0,0:0:0:0:
256,192,4809,1,0,0:0:0:0:
256,192,4915,1,8,0:0:0:0:
256,192,5055,1,0,0:0:0:0:
256,192,5126,1,0,0:0:0:0:
256,192,5337,1,8,0:0:0:0:
256,192,5548,1,0,0:0:0:0:
256,192,5689,1,0,0:0:0:0:
256,192,5865,1,0,0:0:0:0:
256,192,5971,1,8,0:0:0:0:
256,192,6182,1,0,0:0:0:0:
256,192,6323,1,0,0:0:0:0:
256,192,6499,1,0,0:0:0:0:
256,192,6605,1,8,0:0:0:0:
256,192,6746,1,8,0:0:0:0:
256,192,6816,1,0,0:0:0:0:
256,192,7027,1,8,0:0:0:0:
256,192,7238,1,0,0:0:0:0:
256,192,7379,1,8,0:0:0:0:
256,192,7591,1,8,0:0:0:0:
256,192,7802,1,8,0:0:0:0:
256,192,8013,1,0,0:0:0:0:
256,192,8189,1,8,0:0:0:0:
256,192,8295,1,8,0:0:0:0:
256,192,8436,1,8,0:0:0:0:
256,192,8506,1,0,0:0:0:0:
256,192,8717,1,8,0:0:0:0:
256,192,8929,1,0,0:0:0:0:
256,192,9069,1,0,0:0:0:0:
256,192,9246,1,0,0:0:0:0:
256,192,9351,1,8,0:0:0:0:
256,192,9562,1,8,0:0:0:0:
256,192,9703,1,0,0:0:0:0:
256,192,9879,1,0,0:0:0:0:
256,192,9985,1,8,0:0:0:0:
256,192,10126,1,8,0:0:0:0:
256,192,10196,1,0,0:0:0:0:
256,192,10407,1,8,0:0:0:0:
256,192,10619,1,0,0:0:0:0:
256,192,10760,1,0,0:0:0:0:
256,192,10936,1,0,0:0:0:0:
256,192,11041,1,8,0:0:0:0:
256,192,11253,1,8,0:0:0:0:
256,192,11393,1,0,0:0:0:0:
256,192,11569,1,0,0:0:0:0:
256,192,11675,1,8,0:0:0:0:
256,192,11816,1,0,0:0:0:0:
256,192,11886,1,0,0:0:0:0:
256,192,12098,1,8,0:0:0:0:
256,192,12309,1,0,0:0:0:0:
256,192,12450,1,0,0:0:0:0:
256,192,12626,1,0,0:0:0:0:
256,192,12731,1,8,0:0:0:0:
256,192,12943,1,0,0:0:0:0:
256,192,13084,1,0,0:0:0:0:
256,192,13260,1,0,0:0:0:0:
256,192,13365,1,8,0:0:0:0:
256,192,13506,1,8,0:0:0:0:
256,192,13576,1,0,0:0:0:0:
256,192,13788,1,8,0:0:0:0:
256,192,13893,1,0,0:0:0:0:
256,192,14105,1,8,0:0:0:0:
256,192,14210,1,0,0:0:0:0:
256,192,14422,1,8,0:0:0:0:
256,192,14527,1,0,0:0:0:0:
288,192,14738,1,0,0:0:0:0:
256,192,14844,1,8,0:0:0:0:
256,192,15055,1,8,0:0:0:0:
256,192,15091,1,8,0:0:0:0:
256,192,15267,1,4,0:0:0:0:
256,192,15689,1,8,0:0:0:0:
256,192,15900,1,8,0:0:0:0:
256,192,16041,1,8,0:0:0:0:
256,192,16253,1,8,0:0:0:0:
256,192,16323,1,0,0:0:0:0:
256,192,16534,1,8,0:0:0:0:
256,192,16746,1,8,0:0:0:0:
256,192,16957,1,0,0:0:0:0:
256,192,17168,1,0,0:0:0:0:
256,192,17309,1,0,0:0:0:0:
256,192,17379,1,8,0:0:0:0:
256,192,17591,1,8,0:0:0:0:
256,192,17731,1,8,0:0:0:0:
256,192,17943,1,0,0:0:0:0:
256,192,18013,1,0,0:0:0:0:
256,192,18224,1,8,0:0:0:0:
256,192,18436,1,8,0:0:0:0:
256,192,18647,1,0,0:0:0:0:
256,192,18999,1,8,0:0:0:0:
256,192,19281,1,8,0:0:0:0:
256,192,19492,1,0,0:0:0:0:
256,192,19844,1,8,0:0:0:0:
256,192,20126,1,8,0:0:0:0:
256,192,20337,1,0,0:0:0:0:
256,192,20548,1,8,0:0:0:0:
256,192,20689,1,0,0:0:0:0:
256,192,20865,1,0,0:0:0:0:
256,192,20971,1,8,0:0:0:0:
256,192,21112,1,8,0:0:0:0:
256,192,21182,1,0,0:0:0:0:
256,192,21393,1,0,0:0:0:0:
256,192,21605,1,8,0:0:0:0:
256,192,21816,1,0,0:0:0:0:
256,192,21886,1,8,0:0:0:0:
256,192,21957,1,8,0:0:0:0:
256,192,22027,1,0,0:0:0:0:
256,192,22450,1,8,0:0:0:0:
256,192,22661,1,8,0:0:0:0:
256,192,22802,1,8,0:0:0:0:
256,192,23013,1,8,0:0:0:0:
256,192,23084,1,0,0:0:0:0:
256,192,23295,1,8,0:0:0:0:
256,192,23506,1,8,0:0:0:0:
256,192,23717,1,0,0:0:0:0:
256,192,23929,1,8,0:0:0:0:
256,192,24069,1,0,0:0:0:0:
256,192,24140,1,8,0:0:0:0:
256,192,24246,1,8,0:0:0:0:
256,192,24351,1,0,0:0:0:0:
256,192,24492,1,8,0:0:0:0:
256,192,24703,1,0,0:0:0:0:
256,192,24774,1,0,0:0:0:0:
256,192,24985,1,8,0:0:0:0:
256,192,25196,1,8,0:0:0:0:
256,192,25407,1,0,0:0:0:0:
256,192,25830,1,8,0:0:0:0:
256,192,26182,1,8,0:0:0:0:
256,192,26253,1,0,0:0:0:0:
256,192,26464,1,0,0:0:0:0:
256,192,26605,1,0,0:0:0:0:
256,192,26675,1,8,0:0:0:0:
256,192,26886,1,8,0:0:0:0:
256,192,27098,1,0,0:0:0:0:
256,192,27309,1,0,0:0:0:0:
256,192,27520,1,8,0:0:0:0:
256,192,27731,1,0,0:0:0:0:
256,192,27872,1,8,0:0:0:0:
256,192,27943,1,0,0:0:0:0:
256,192,28154,1,0,0:0:0:0:
256,192,28224,1,0,0:0:0:0:
256,192,28295,1,0,0:0:0:0:
256,192,28365,1,8,0:0:0:0:
256,192,28436,1,8,0:0:0:0:
256,192,28506,1,8,0:0:0:0:
256,192,28576,1,8,0:0:0:0:
256,192,28717,1,8,0:0:0:0:
256,192,28788,1,0,0:0:0:0:
256,192,29210,1,8,0:0:0:0:
256,192,29633,1,8,0:0:0:0:
256,192,30055,1,8,0:0:0:0:
256,192,30478,1,8,0:0:0:0:
256,192,30900,1,8,0:0:0:0:
256,192,31323,1,8,0:0:0:0:
256,192,31746,1,8,0:0:0:0:
256,192,32168,1,8,0:0:0:0:
256,192,32591,1,8,0:0:0:0:
256,192,33013,1,8,0:0:0:0:
256,192,33436,1,8,0:0:0:0:
256,192,33858,1,8,0:0:0:0:
256,192,34281,1,8,0:0:0:0:
256,192,34703,1,8,0:0:0:0:
256,192,35126,1,8,0:0:0:0:
256,192,35337,1,8,0:0:0:0:
256,192,35548,1,0,0:0:0:0:
256,192,35971,1,8,0:0:0:0:
256,192,36393,1,0,0:0:0:0:
256,192,36605,1,8,0:0:0:0:
256,192,36746,1,8,0:0:0:0:
256,192,36816,1,8,0:0:0:0:
256,192,37027,1,8,0:0:0:0:
256,192,37238,1,0,0:0:0:0:
256,192,37661,1,8,0:0:0:0:
256,192,38084,1,0,0:0:0:0:
256,192,38295,1,8,0:0:0:0:
256,192,38436,1,8,0:0:0:0:
256,192,38506,1,8,0:0:0:0:
256,192,38717,1,8,0:0:0:0:
256,192,38929,1,0,0:0:0:0:
256,192,39140,1,8,0:0:0:0:
256,192,39351,1,0,0:0:0:0:
256,192,39562,1,8,0:0:0:0:
256,192,39774,1,0,0:0:0:0:
256,192,39985,1,8,0:0:0:0:
256,192,40196,1,0,0:0:0:0:
256,192,40267,1,0,0:0:0:0:
256,192,40337,1,0,0:0:0:0:
256,192,40407,1,0,0:0:0:0:
256,192,40830,1,12,0:0:0:0:
256,192,41041,1,12,0:0:0:0:
256,192,41253,1,12,0:0:0:0:
256,192,41464,1,12,0:0:0:0:
256,192,42309,1,4,0:0:0:0:
256,192,42731,1,4,0:0:0:0:
256,192,43154,1,4,0:0:0:0:
256,192,43576,1,4,0:0:0:0:
256,192,43999,1,12,0:0:0:0:
256,192,44210,1,8,0:0:0:0:
256,192,44281,1,8,0:0:0:0:
256,192,44351,1,8,0:0:0:0:
256,192,44422,1,8,0:0:0:0:
256,192,44562,1,8,0:0:0:0:
256,192,44703,1,8,0:0:0:0:
256,192,44844,1,4,0:0:0:0:
256,192,45055,1,8,0:0:0:0:
256,192,45126,1,8,0:0:0:0:
256,192,45196,1,8,0:0:0:0:
256,192,45267,1,0,0:0:0:0:
256,192,45478,1,8,0:0:0:0:
256,192,45531,1,8,0:0:0:0:
256,192,45689,1,4,0:0:0:0:
256,192,45900,1,8,0:0:0:0:
256,192,46112,1,8,0:0:0:0:
256,192,46182,1,8,0:0:0:0:
256,192,46253,1,8,0:0:0:0:
256,192,46323,1,0,0:0:0:0:
256,192,46534,1,8,0:0:0:0:
256,192,46746,1,0,0:0:0:0:
256,192,46816,1,0,0:0:0:0:
256,192,46886,1,0,0:0:0:0:
256,192,46957,1,8,0:0:0:0:
256,192,47168,1,8,0:0:0:0:
256,192,47379,1,0,0:0:0:0:
256,192,47591,1,8,0:0:0:0:
256,192,47731,1,0,0:0:0:0:
256,192,47802,1,8,0:0:0:0:
256,192,47943,1,8,0:0:0:0:
256,192,48013,1,8,0:0:0:0:
256,192,48154,1,8,0:0:0:0:
256,192,48224,1,0,0:0:0:0:
256,192,48436,1,0,0:0:0:0:
256,192,48647,1,8,0:0:0:0:
256,192,49069,1,4,0:0:0:0:
256,192,49492,1,4,0:0:0:0:
256,192,49915,1,4,0:0:0:0:
256,192,50337,1,4,0:0:0:0:
256,192,50760,1,12,0:0:0:0:
256,192,50971,1,8,0:0:0:0:
256,192,51041,1,8,0:0:0:0:
256,192,51112,1,8,0:0:0:0:
256,192,51182,1,8,0:0:0:0:
256,192,51393,1,0,0:0:0:0:
256,192,51534,1,8,0:0:0:0:
256,192,51746,1,8,0:0:0:0:
256,192,51816,1,0,0:0:0:0:
256,192,52027,1,8,0:0:0:0:
256,192,52238,1,0,0:0:0:0:
256,192,52450,1,4,0:0:0:0:
256,192,52661,1,8,0:0:0:0:
256,192,52872,1,8,0:0:0:0:
256,192,52943,1,8,0:0:0:0:
256,192,53013,1,8,0:0:0:0:
256,192,53084,1,0,0:0:0:0:
256,192,53295,1,8,0:0:0:0:
256,192,53506,1,0,0:0:0:0:
256,192,53576,1,0,0:0:0:0:
256,192,53647,1,0,0:0:0:0:
256,192,53717,1,8,0:0:0:0:
256,192,53929,1,8,0:0:0:0:
256,192,54140,1,8,0:0:0:0:
256,192,54210,1,8,0:0:0:0:
256,192,54281,1,8,0:0:0:0:
256,192,54351,1,0,0:0:0:0:
256,192,54562,1,8,0:0:0:0:
256,192,54703,1,8,0:0:0:0:
256,192,54774,1,8,0:0:0:0:
256,192,54915,1,0,0:0:0:0:
256,192,54985,1,8,0:0:0:0:
256,192,55126,1,8,0:0:0:0:
256,192,55196,1,0,0:0:0:0:
256,192,55407,1,12,0:0:0:0:
256,192,55830,1,4,0:0:0:0:
256,192,56147,1,0,0:0:0:0:
256,192,56253,1,8,0:0:0:0:
256,192,56464,1,8,0:0:0:0:
256,192,56675,1,0,0:0:0:0:
256,192,56886,1,8,0:0:0:0:
256,192,57027,1,8,0:0:0:0:
256,192,57098,1,0,0:0:0:0:
256,192,57309,1,8,0:0:0:0:
256,192,57520,1,0,0:0:0:0:
256,192,57731,1,8,0:0:0:0:
256,192,57837,1,8,0:0:0:0:
256,192,57943,1,0,0:0:0:0:
256,192,58154,1,8,0:0:0:0:
256,192,58295,1,0,0:0:0:0:
256,192,58365,1,0,0:0:0:0:
256,192,58506,1,8,0:0:0:0:
256,192,58576,1,0,0:0:0:0:
256,192,58788,1,8,0:0:0:0:
256,192,58893,1,0,0:0:0:0:
256,192,58999,1,8,0:0:0:0:
224,192,59210,1,0,0:0:0:0:
256,192,59422,1,0,0:0:0:0:
256,192,59527,1,0,0:0:0:0:
256,192,59633,1,8,0:0:0:0:
256,192,59738,1,0,0:0:0:0:
256,192,59844,1,8,0:0:0:0:
256,192,59985,1,8,0:0:0:0:
256,192,60055,1,0,0:0:0:0:
256,192,60196,1,0,0:0:0:0:
256,192,60267,1,8,0:0:0:0:
256,192,60478,1,0,0:0:0:0:
256,192,60689,1,8,0:0:0:0:
256,192,60900,1,0,0:0:0:0:
256,192,61112,1,8,0:0:0:0:
256,192,61217,1,8,0:0:0:0:
256,192,61323,1,0,0:0:0:0:
256,192,61534,1,8,0:0:0:0:
256,192,61675,1,8,0:0:0:0:
256,192,61746,1,0,0:0:0:0:
256,192,61886,1,8,0:0:0:0:
256,192,61957,1,0,0:0:0:0:
256,192,62062,1,0,0:0:0:0:
256,192,62168,1,8,0:0:0:0:
256,192,62379,1,8,0:0:0:0:
256,192,62520,1,8,0:0:0:0:
256,192,62591,1,0,0:0:0:0:
256,192,62907,1,0,0:0:0:0:
256,192,63013,1,8,0:0:0:0:
256,192,63224,1,8,0:0:0:0:
256,192,63436,1,0,0:0:0:0:
256,192,63576,1,8,0:0:0:0:
256,192,63647,1,0,0:0:0:0:
256,192,63858,1,8,0:0:0:0:
256,192,63964,1,0,0:0:0:0:
256,192,64069,1,8,0:0:0:0:
256,192,64281,1,0,0:0:0:0:
256,192,64492,1,0,0:0:0:0:
256,192,64598,1,0,0:0:0:0:
256,192,64703,1,8,0:0:0:0:
256,192,64915,1,0,0:0:0:0:
256,192,65055,1,8,0:0:0:0:
256,192,65126,1,0,0:0:0:0:
256,192,65267,1,8,0:0:0:0:
256,192,65337,1,8,0:0:0:0:
256,192,65548,1,0,0:0:0:0:
256,192,65760,1,8,0:0:0:0:
256,192,65971,1,0,0:0:0:0:
256,192,66182,1,8,0:0:0:0:
256,192,66288,1,8,0:0:0:0:
256,192,66393,1,0,0:0:0:0:
256,192,66605,1,8,0:0:0:0:
256,192,66746,1,8,0:0:0:0:
256,192,66816,1,0,0:0:0:0:
256,192,66957,1,0,0:0:0:0:
256,192,67027,1,0,0:0:0:0:
256,192,67168,1,0,0:0:0:0:
256,192,67238,1,8,0:0:0:0:
256,192,67344,1,0,0:0:0:0:
256,192,67450,1,8,0:0:0:0:
256,192,67661,1,0,0:0:0:0:
256,192,67872,1,0,0:0:0:0:
256,192,67978,1,0,0:0:0:0:
256,192,68084,1,8,0:0:0:0:
256,192,68295,1,0,0:0:0:0:
256,192,68506,1,12,0:0:0:0:
256,192,68929,1,12,0:0:0:0:
256,192,69351,5,4,0:0:0:0:
256,192,69562,1,0,0:0:0:0:
256,192,69703,1,0,0:0:0:0:
256,192,69774,1,8,0:0:0:0:
256,192,69985,1,8,0:0:0:0:
256,192,70126,1,8,0:0:0:0:
256,192,70337,1,8,0:0:0:0:
256,192,70407,1,0,0:0:0:0:
256,192,70619,1,8,0:0:0:0:
256,192,70830,1,8,0:0:0:0:
256,192,70971,1,8,0:0:0:0:
256,192,71041,1,0,0:0:0:0:
256,192,71253,1,0,0:0:0:0:
256,192,71464,1,8,0:0:0:0:
256,192,71675,1,8,0:0:0:0:
256,192,71816,1,8,0:0:0:0:
256,192,72027,1,8,0:0:0:0:
256,192,72098,1,0,0:0:0:0:
256,192,72238,1,0,0:0:0:0:
256,192,72309,1,8,0:0:0:0:
256,192,72520,1,8,0:0:0:0:
256,192,72661,1,8,0:0:0:0:
256,192,72731,1,0,0:0:0:0:
256,192,73048,1,8,0:0:0:0:
256,192,73365,1,0,0:0:0:0:
256,192,73506,1,0,0:0:0:0:
256,192,73576,1,8,0:0:0:0:
256,192,73717,1,8,0:0:0:0:
256,192,73788,1,0,0:0:0:0:
256,192,73929,1,0,0:0:0:0:
256,192,73999,1,8,0:0:0:0:
256,192,74140,1,8,0:0:0:0:
256,192,74281,1,8,0:0:0:0:
256,192,74422,1,0,0:0:0:0:
256,192,74633,1,8,0:0:0:0:
256,192,74703,1,0,0:0:0:0:
256,192,74774,1,0,0:0:0:0:
256,192,74844,1,8,0:0:0:0:
256,192,75055,1,8,0:0:0:0:
256,192,75267,1,0,0:0:0:0:
256,192,75407,1,8,0:0:0:0:
256,192,75478,1,0,0:0:0:0:
256,192,75689,1,8,0:0:0:0:
256,192,75900,1,8,0:0:0:0:
256,192,76112,1,0,0:0:0:0:
256,192,76323,1,0,0:0:0:0:
256,192,76393,1,0,0:0:0:0:
256,192,76464,1,0,0:0:0:0:
256,192,76534,1,8,0:0:0:0:
256,192,76746,1,8,0:0:0:0:
256,192,76886,1,8,0:0:0:0:
256,192,77098,1,8,0:0:0:0:
256,192,77168,1,0,0:0:0:0:
256,192,77379,1,8,0:0:0:0:
256,192,77485,1,0,0:0:0:0:
256,192,77591,1,8,0:0:0:0:
256,192,77802,1,0,0:0:0:0:
256,192,78013,1,0,0:0:0:0:
256,192,78084,1,8,0:0:0:0:
256,192,78154,1,8,0:0:0:0:
256,192,78224,1,0,0:0:0:0:
256,192,78436,1,8,0:0:0:0:
256,192,78647,1,0,0:0:0:0:
256,192,78858,1,0,0:0:0:0:
256,192,78929,1,0,0:0:0:0:
256,192,78999,1,0,0:0:0:0:
256,192,79069,1,8,0:0:0:0:
256,192,79210,1,8,0:0:0:0:
256,192,79351,1,8,0:0:0:0:
256,192,79492,1,4,0:0:0:0:
256,192,79809,1,8,0:0:0:0:
256,192,80126,1,4,0:0:0:0:
256,192,80443,1,8,0:0:0:0:
256,192,80760,1,4,0:0:0:0:
256,192,81076,1,8,0:0:0:0:
256,192,81393,1,4,0:0:0:0:
256,192,81710,1,8,0:0:0:0:
256,192,82027,1,4,0:0:0:0:
256,192,82450,1,12,0:0:0:0:
256,192,82872,1,4,0:0:0:0:
256,192,83295,1,0,0:0:0:0:
256,192,83506,1,8,0:0:0:0:
256,192,83647,1,8,0:0:0:0:
256,192,83717,1,0,0:0:0:0:
256,192,83929,1,8,0:0:0:0:
256,192,84140,1,0,0:0:0:0:
256,192,84351,1,8,0:0:0:0:
256,192,84562,1,0,0:0:0:0:
256,192,84774,1,8,0:0:0:0:
256,192,84915,1,8,0:0:0:0:
256,192,84985,1,0,0:0:0:0:
256,192,85196,1,8,0:0:0:0:
256,192,85407,1,0,0:0:0:0:
256,192,85548,1,8,0:0:0:0:
256,192,85619,1,0,0:0:0:0:
256,192,85830,1,0,0:0:0:0:
256,192,86041,1,8,0:0:0:0:
256,192,86253,1,0,0:0:0:0:
256,192,86464,1,0,0:0:0:0:
256,192,86605,1,8,0:0:0:0:
256,192,86675,1,0,0:0:0:0:
256,192,86886,1,8,0:0:0:0:
256,192,87098,1,0,0:0:0:0:
256,192,87309,1,0,0:0:0:0:
256,192,87450,1,8,0:0:0:0:
256,192,87520,1,0,0:0:0:0:
256,192,87731,1,8,0:0:0:0:
256,192,87943,1,0,0:0:0:0:
256,192,88154,1,8,0:0:0:0:
256,192,88295,1,0,0:0:0:0:
256,192,88471,1,0,0:0:0:0:
256,192,88576,1,8,0:0:0:0:
256,192,88717,1,8,0:0:0:0:
256,192,88788,1,0,0:0:0:0:
256,192,88999,1,8,0:0:0:0:
256,192,89210,1,0,0:0:0:0:
256,192,89422,1,0,0:0:0:0:
256,192,89492,1,8,0:0:0:0:
256,192,89562,1,8,0:0:0:0:
256,192,89633,1,0,0:0:0:0:
256,192,90055,1,0,0:0:0:0:
256,192,90267,1,8,0:0:0:0:
256,192,90407,1,8,0:0:0:0:
256,192,90478,1,0,0:0:0:0:
256,192,90689,1,8,0:0:0:0:
256,192,90900,1,0,0:0:0:0:
256,192,91112,1,8,0:0:0:0:
256,192,91217,1,8,0:0:0:0:
256,192,91323,1,0,0:0:0:0:
256,192,91534,1,8,0:0:0:0:
256,192,91675,1,0,0:0:0:0:
256,192,91746,1,8,0:0:0:0:
256,192,91851,1,8,0:0:0:0:
256,192,91957,1,0,0:0:0:0:
256,192,92098,1,8,0:0:0:0:
256,192,92168,1,0,0:0:0:0:
256,192,92379,1,8,0:0:0:0:
256,192,92591,1,0,0:0:0:0:
256,192,92802,1,8,0:0:0:0:
256,192,93013,1,0,0:0:0:0:
256,192,93436,1,0,0:0:0:0:
256,192,93788,1,8,0:0:0:0:
256,192,93858,1,0,0:0:0:0:
256,192,94069,1,0,0:0:0:0:
256,192,94210,1,8,0:0:0:0:
256,192,94281,1,0,0:0:0:0:
256,192,94492,1,8,0:0:0:0:
256,192,94703,1,0,0:0:0:0:
256,192,94915,1,8,0:0:0:0:
256,192,94985,1,8,0:0:0:0:
256,192,95055,1,8,0:0:0:0:
256,192,95126,1,8,0:0:0:0:
256,192,95337,1,8,0:0:0:0:
256,192,95478,1,8,0:0:0:0:
256,192,95548,1,0,0:0:0:0:
256,192,95760,1,0,0:0:0:0:
256,192,95830,1,0,0:0:0:0:
256,192,95900,1,0,0:0:0:0:
256,192,95971,1,8,0:0:0:0:
256,192,96182,1,0,0:0:0:0:
256,192,96323,1,8,0:0:0:0:
256,192,96393,1,0,0:0:0:0:
256,192,97238,1,8,0:0:0:0:
256,192,98084,1,0,0:0:0:0:
256,192,98929,1,8,0:0:0:0:
256,192,99774,1,0,0:0:0:0:
256,192,100619,1,8,0:0:0:0:
256,192,101464,1,0,0:0:0:0:
256,192,101886,1,8,0:0:0:0:
256,192,102309,1,8,0:0:0:0:
256,192,102731,1,8,0:0:0:0:
256,192,102943,1,8,0:0:0:0:
256,192,103154,1,0,0:0:0:0:
256,192,103576,1,8,0:0:0:0:
256,192,103999,1,0,0:0:0:0:
256,192,104210,1,8,0:0:0:0:
256,192,104351,1,8,0:0:0:0:
256,192,104422,1,8,0:0:0:0:
256,192,104633,1,8,0:0:0:0:
256,192,104844,1,0,0:0:0:0:
256,192,105267,1,8,0:0:0:0:
256,192,105689,1,0,0:0:0:0:
256,192,105900,1,8,0:0:0:0:
256,192,106041,1,8,0:0:0:0:
256,192,106112,1,8,0:0:0:0:
256,192,106323,1,8,0:0:0:0:
256,192,106534,1,0,0:0:0:0:
256,192,106746,1,8,0:0:0:0:
256,192,106957,1,0,0:0:0:0:
256,192,107168,1,8,0:0:0:0:
256,192,107379,1,0,0:0:0:0:
256,192,107591,1,8,0:0:0:0:
256,192,107802,1,0,0:0:0:0:
256,192,107872,1,0,0:0:0:0:
256,192,107943,1,0,0:0:0:0:
256,192,108013,1,0,0:0:0:0:
256,192,108436,1,12,0:0:0:0:
256,192,108647,1,12,0:0:0:0:
256,192,108858,1,12,0:0:0:0:
256,192,109069,1,12,0:0:0:0:
256,192,109915,1,4,0:0:0:0:
256,192,110231,1,4,0:0:0:0:
256,192,110548,1,4,0:0:0:0:
256,192,110865,1,4,0:0:0:0:
256,192,111182,1,4,0:0:0:0:
256,192,111393,1,8,0:0:0:0:
256,192,111605,1,4,0:0:0:0:
256,192,111922,1,4,0:0:0:0:
256,192,112238,1,4,0:0:0:0:
256,192,112555,1,4,0:0:0:0:
256,192,112872,1,4,0:0:0:0:
256,192,113084,1,8,0:0:0:0:
256,192,113136,1,8,0:0:0:0:
256,192,113295,1,4,0:0:0:0:
256,192,113612,1,4,0:0:0:0:
256,192,113929,1,4,0:0:0:0:
256,192,114246,1,4,0:0:0:0:
256,192,114562,1,4,0:0:0:0:
256,192,114774,1,8,0:0:0:0:
256,192,114826,1,8,0:0:0:0:
256,192,114879,1,8,0:0:0:0:
256,192,114985,1,4,0:0:0:0:
256,192,115302,1,4,0:0:0:0:
256,192,115619,1,4,0:0:0:0:
256,192,115830,1,12,0:0:0:0:
256,192,116147,1,12,0:0:0:0:
256,192,116464,1,12,0:0:0:0:
256,192,116605,1,0,0:0:0:0:
256,192,116675,1,0,0:0:0:0:
256,192,116886,1,8,0:0:0:0:
256,192,116957,1,8,0:0:0:0:
256,192,117027,1,8,0:0:0:0:
256,192,117098,1,8,0:0:0:0:
256,192,117309,1,4,0:0:0:0:
256,192,117731,1,8,0:0:0:0:
256,192,117943,1,8,0:0:0:0:
256,192,118365,1,4,0:0:0:0:
256,192,118682,1,0,0:0:0:0:
256,192,118788,1,8,0:0:0:0:
256,192,118999,1,8,0:0:0:0:
256,192,119210,1,0,0:0:0:0:
256,192,119422,1,8,0:0:0:0:
256,192,119562,1,8,0:0:0:0:
256,192,119633,1,0,0:0:0:0:
256,192,119844,1,8,0:0:0:0:
256,192,120055,1,0,0:0:0:0:
256,192,120267,1,8,0:0:0:0:
256,192,120372,1,8,0:0:0:0:
256,192,120478,1,0,0:0:0:0:
256,192,120689,1,8,0:0:0:0:
256,192,120830,1,0,0:0:0:0:
256,192,120900,1,0,0:0:0:0:
256,192,121041,1,8,0:0:0:0:
256,192,121112,1,0,0:0:0:0:
256,192,121323,1,8,0:0:0:0:
256,192,121429,1,0,0:0:0:0:
256,192,121534,1,8,0:0:0:0:
224,192,121746,1,0,0:0:0:0:
256,192,121957,1,0,0:0:0:0:
256,192,122062,1,0,0:0:0:0:
256,192,122168,1,8,0:0:0:0:
256,192,122274,1,0,0:0:0:0:
256,192,122379,1,8,0:0:0:0:
256,192,122520,1,8,0:0:0:0:
256,192,122591,1,0,0:0:0:0:
256,192,122731,1,0,0:0:0:0:
256,192,122802,1,8,0:0:0:0:
256,192,123013,1,0,0:0:0:0:
256,192,123224,1,8,0:0:0:0:
256,192,123436,1,0,0:0:0:0:
256,192,123541,1,0,0:0:0:0:
256,192,123647,1,8,0:0:0:0:
256,192,123753,1,8,0:0:0:0:
256,192,123858,1,0,0:0:0:0:
256,192,124069,1,8,0:0:0:0:
256,192,124210,1,8,0:0:0:0:
256,192,124281,1,0,0:0:0:0:
256,192,124422,1,8,0:0:0:0:
256,192,124492,1,0,0:0:0:0:
256,192,124598,1,0,0:0:0:0:
256,192,124703,1,8,0:0:0:0:
256,192,124809,1,0,0:0:0:0:
256,192,124915,1,8,0:0:0:0:
256,192,125055,1,8,0:0:0:0:
256,192,125126,1,0,0:0:0:0:
256,192,125443,1,0,0:0:0:0:
256,192,125548,1,8,0:0:0:0:
256,192,125760,1,8,0:0:0:0:
256,192,125971,1,0,0:0:0:0:
256,192,126112,1,8,0:0:0:0:
256,192,126182,1,0,0:0:0:0:
256,192,126393,1,8,0:0:0:0:
256,192,126499,1,0,0:0:0:0:
256,192,126605,1,8,0:0:0:0:
256,192,126816,1,0,0:0:0:0:
256,192,127027,1,0,0:0:0:0:
256,192,127133,1,0,0:0:0:0:
256,192,127238,1,8,0:0:0:0:
256,192,127450,1,0,0:0:0:0:
256,192,127591,1,8,0:0:0:0:
256,192,127661,1,0,0:0:0:0:
256,192,127802,1,8,0:0:0:0:
256,192,127872,1,8,0:0:0:0:
256,192,128013,1,8,0:0:0:0:
256,192,128084,1,0,0:0:0:0:
256,192,128295,1,8,0:0:0:0:
256,192,128506,1,0,0:0:0:0:
256,192,128717,1,8,0:0:0:0:
256,192,128823,1,8,0:0:0:0:
256,192,128929,1,0,0:0:0:0:
256,192,129140,1,8,0:0:0:0:
256,192,129281,1,8,0:0:0:0:
256,192,129351,1,0,0:0:0:0:
256,192,129492,1,0,0:0:0:0:
256,192,129562,1,0,0:0:0:0:
256,192,129703,1,0,0:0:0:0:
256,192,129774,1,8,0:0:0:0:
256,192,129879,1,0,0:0:0:0:
256,192,129985,1,8,0:0:0:0:
256,192,130196,1,0,0:0:0:0:
256,192,130407,1,0,0:0:0:0:
256,192,130513,1,0,0:0:0:0:
256,192,130619,1,8,0:0:0:0:
256,192,130830,1,0,0:0:0:0:
256,192,131041,1,8,0:0:0:0:
256,192,131182,1,0,0:0:0:0:
256,192,131253,1,8,0:0:0:0:
256,192,131393,1,8,0:0:0:0:
256,192,131464,1,0,0:0:0:0:
256,192,131675,1,8,0:0:0:0:
256,192,131886,1,4,0:0:0:0:
256,192,132309,1,8,0:0:0:0:
256,192,132520,1,8,0:0:0:0:
256,192,132661,1,8,0:0:0:0:
256,192,132731,1,0,0:0:0:0:
256,192,132872,1,8,0:0:0:0:
256,192,132943,1,0,0:0:0:0:
256,192,133154,1,8,0:0:0:0:
256,192,133576,1,0,0:0:0:0:
256,192,133788,1,0,0:0:0:0:
256,192,133929,1,0,0:0:0:0:
256,192,133999,1,8,0:0:0:0:
256,192,134210,1,8,0:0:0:0:
256,192,134351,1,8,0:0:0:0:
256,192,134422,1,0,0:0:0:0:
256,192,134633,1,0,0:0:0:0:
256,192,134844,1,8,0:0:0:0:
256,192,135267,1,0,0:0:0:0:
256,192,135478,1,0,0:0:0:0:
256,192,135689,1,8,0:0:0:0:
256,192,135900,1,8,0:0:0:0:
256,192,136041,1,8,0:0:0:0:
256,192,136253,1,8,0:0:0:0:
256,192,136323,1,0,0:0:0:0:
256,192,136534,1,8,0:0:0:0:
256,192,136746,1,8,0:0:0:0:
256,192,136957,1,0,0:0:0:0:
256,192,137168,1,0,0:0:0:0:
256,192,137309,1,0,0:0:0:0:
256,192,137379,1,8,0:0:0:0:
256,192,137591,1,8,0:0:0:0:
256,192,137731,1,8,0:0:0:0:
256,192,137943,1,8,0:0:0:0:
256,192,138013,1,0,0:0:0:0:
256,192,138154,1,0,0:0:0:0:
256,192,138224,1,8,0:0:0:0:
256,192,138647,1,4,0:0:0:0:
256,192,139069,1,8,0:0:0:0:
256,192,139281,1,8,0:0:0:0:
256,192,139422,1,8,0:0:0:0:
256,192,139633,1,8,0:0:0:0:
256,192,139703,1,0,0:0:0:0:
256,192,139915,1,8,0:0:0:0:
256,192,140337,1,0,0:0:0:0:
256,192,140760,1,8,0:0:0:0:
256,192,140971,1,8,0:0:0:0:
256,192,141112,1,8,0:0:0:0:
256,192,141323,1,0,0:0:0:0:
256,192,141393,1,0,0:0:0:0:
256,192,141605,1,8,0:0:0:0:
256,192,142027,1,0,0:0:0:0:
256,192,142450,1,8,0:0:0:0:
256,192,142661,1,8,0:0:0:0:
256,192,142802,1,8,0:0:0:0:
256,192,143013,1,8,0:0:0:0:
256,192,143084,1,0,0:0:0:0:
256,192,143295,1,8,0:0:0:0:
256,192,143506,1,8,0:0:0:0:
256,192,143717,1,0,0:0:0:0:
256,192,143929,1,8,0:0:0:0:
256,192,143999,1,8,0:0:0:0:
256,192,144069,1,8,0:0:0:0:
256,192,144140,1,8,0:0:0:0:
256,192,144351,1,8,0:0:0:0:
256,192,144492,1,0,0:0:0:0:
256,192,144562,1,8,0:0:0:0:
256,192,144774,1,0,0:0:0:0:
256,192,144844,1,0,0:0:0:0:
256,192,144915,1,0,0:0:0:0:
256,192,144985,1,8,0:0:0:0:
256,192,145407,5,0,0:0:0:0:
256,192,145619,1,8,0:0:0:0:
256,192,145830,1,0,0:0:0:0:
256,192,145971,1,0,0:0:0:0:
256,192,146147,1,8,0:0:0:0:
256,192,146253,1,8,0:0:0:0:
256,192,146464,1,8,0:0:0:0:
256,192,146605,1,0,0:0:0:0:
256,192,146781,1,0,0:0:0:0:
256,192,146886,1,8,0:0:0:0:
256,192,147026,1,0,0:0:0:0:
256,192,147098,1,0,0:0:0:0:
256,192,147309,1,8,0:0:0:0:
256,192,147520,1,0,0:0:0:0:
256,192,147661,1,0,0:0:0:0:
256,192,147837,1,8,0:0:0:0:
256,192,147943,1,8,0:0:0:0:
256,192,148154,1,8,0:0:0:0:
256,192,148295,1,0,0:0:0:0:
256,192,148471,1,0,0:0:0:0:
256,192,148576,1,8,0:0:0:0:
256,192,148717,1,0,0:0:0:0:
256,192,148788,1,0,0:0:0:0:
256,192,148999,1,8,0:0:0:0:
256,192,149210,1,0,0:0:0:0:
256,192,149351,1,0,0:0:0:0:
256,192,149527,1,0,0:0:0:0:
256,192,149633,1,8,0:0:0:0:
256,192,149844,1,0,0:0:0:0:
256,192,149985,1,0,0:0:0:0:
256,192,150161,1,0,0:0:0:0:
256,192,150267,1,8,0:0:0:0:
256,192,150407,1,8,0:0:0:0:
256,192,150478,1,0,0:0:0:0:
256,192,150689,1,8,0:0:0:0:
256,192,150900,1,0,0:0:0:0:
256,192,151041,1,8,0:0:0:0:
256,192,151253,1,8,0:0:0:0:
256,192,151464,1,8,0:0:0:0:
256,192,151675,1,0,0:0:0:0:
256,192,151886,1,8,0:0:0:0:
256,192,151957,1,8,0:0:0:0:
256,192,152098,1,8,0:0:0:0:
256,192,152168,1,0,0:0:0:0:
256,192,152379,1,8,0:0:0:0:
256,192,152591,1,0,0:0:0:0:
256,192,152731,1,0,0:0:0:0:
256,192,152907,1,8,0:0:0:0:
256,192,153013,1,8,0:0:0:0:
256,192,153224,1,8,0:0:0:0:
256,192,153365,1,0,0:0:0:0:
256,192,153541,1,0,0:0:0:0:
256,192,153647,1,8,0:0:0:0:
256,192,153858,1,0,0:0:0:0:
256,192,154069,1,8,0:0:0:0:
256,192,154281,1,0,0:0:0:0:
256,192,154422,1,0,0:0:0:0:
256,192,154598,1,8,0:0:0:0:
256,192,154703,1,8,0:0:0:0:
256,192,154915,1,8,0:0:0:0:
256,192,155055,1,0,0:0:0:0:
256,192,155231,1,0,0:0:0:0:
256,192,155337,1,8,0:0:0:0:
256,192,155548,1,0,0:0:0:0:
256,192,155760,1,8,0:0:0:0:
256,192,155971,1,0,0:0:0:0:
256,192,156112,1,0,0:0:0:0:
256,192,156288,1,0,0:0:0:0:
256,192,156393,1,8,0:0:0:0:
256,192,156605,1,0,0:0:0:0:
256,192,156746,1,0,0:0:0:0:
256,192,156922,1,0,0:0:0:0:
256,192,157027,1,8,0:0:0:0:
256,192,157098,1,8,0:0:0:0:
256,192,157168,1,8,0:0:0:0:
256,192,157238,1,0,0:0:0:0:
256,192,157555,1,4,0:0:0:0:
256,192,157872,1,4,0:0:0:0:
256,192,158189,1,4,0:0:0:0:
256,192,158506,1,4,0:0:0:0:
256,192,158823,1,4,0:0:0:0:
256,192,159140,1,12,0:0:0:0:
256,192,159457,1,4,0:0:0:0:
256,192,159774,1,12,0:0:0:0:
256,192,160196,1,0,0:0:0:0:
256,192,160619,1,12,0:0:0:0:
