osu file format v14

[General]
AudioFilename: audio.mp3
AudioLeadIn: 0
PreviewTime: 108820
Countdown: 0
SampleSet: Drum
StackLeniency: 0.3
Mode: 0
LetterboxInBreaks: 0
WidescreenStoryboard: 0

[Editor]
Bookmarks: 22450,25650,51250,64050,76842,102450,128050,153650,166450,179250,204850,218450,245650,271228,296850,324050
DistanceSpacing: 1.2
BeatDivisor: 4
GridSize: 4
TimelineZoom: 2.5

[Metadata]
Title:Thresher
TitleUnicode:Thresher
Artist:Aoratos
ArtistUnicode:Aoratos
Creator:TheKingHenry
Version:Lullaby
Source:
Tags:black metal atmospheric english gods without name naas alcameth nox corvus menthor nightbringer akhlys
BeatmapID:2964434
BeatmapSetID:1440919

[Difficulty]
HPDrainRate:5.5
CircleSize:4.4
OverallDifficulty:10
ApproachRate:10
SliderMultiplier:1.7
SliderTickRate:0.5

[Events]
//Background and Video events
0,0,"aoratos.jpg",0,0
//Break Periods
2,153843,164364
//Storyboard Layer 0 (Background)
//Storyboard Layer 1 (Fail)
//Storyboard Layer 2 (Pass)
//Storyboard Layer 3 (Foreground)
//Storyboard Layer 4 (Overlay)
//Storyboard Sound Samples

[TimingPoints]
42,400,4,3,1,80,1,0
42,-50,4,3,1,80,0,1
11308,-50,4,3,1,60,0,0
11642,-50,4,3,1,80,0,0
11708,-50,4,3,1,60,0,0
12042,-50,4,3,1,80,0,0
12108,-50,4,3,1,60,0,0
12442,-50,4,3,1,80,0,0
12508,-50,4,3,1,60,0,0
12575,-50,4,3,1,80,0,0
12642,-50,4,3,1,60,0,0
12708,-50,4,3,1,80,0,0
12775,-50,4,3,1,60,0,0
12842,-50,4,3,1,80,0,0
22442,-50,4,3,1,80,0,1
25642,-40,4,3,2,80,0,0
51242,398.671096345515,4,3,1,80,1,1
51242,-50,4,3,1,80,0,1
62404,416.666666666667,4,3,1,80,1,1
62404,-50,4,3,1,80,0,1
62820,407.608695652174,4,3,1,80,1,1
62820,-50,4,3,1,80,0,1
63635,-50,4,3,10,80,0,0
64042,400,4,3,1,80,1,0
64042,-50,4,3,1,80,0,0
75242,-50,4,3,10,80,0,0
76842,-100,4,3,9,80,0,0
79642,352.941176470588,4,3,9,80,1,0
79642,-50,4,3,9,80,0,0
79730,-50,4,3,10,80,0,0
80042,400,4,3,9,80,1,0
80042,-100,4,3,9,80,0,0
81242,-100,4,3,10,80,0,0
81642,-100,4,3,9,80,0,0
86042,-100,4,3,10,80,0,0
87842,-100,4,3,10,80,0,0
88042,-100,4,3,9,80,0,0
88542,-100,4,3,10,80,0,0
88842,-100,4,3,9,80,0,0
90942,-100,4,3,10,80,0,0
91242,-100,4,3,9,80,0,0
94842,379.746835443038,4,3,9,80,1,0
95221,392.156862745098,4,3,9,80,1,0
95711,-100,4,3,10,80,0,0
95809,-100,4,3,9,80,0,0
95907,-100,4,3,10,80,0,0
96005,408.163265306122,4,3,9,80,1,0
96005,-100,4,3,9,80,0,0
97642,400,4,3,9,80,1,0
98842,-100,4,3,10,80,0,0
99242,-100,4,3,9,80,0,0
100442,-100,4,3,10,80,0,0
100842,-500,4,3,1,80,0,0
102442,394.736842105263,4,3,3,80,1,1
102442,-50,4,3,3,80,0,1
104020,400,4,3,3,80,1,1
104020,-50,4,3,3,80,0,1
114420,387.096774193548,4,3,3,80,1,1
114420,-50,4,3,3,80,0,1
115199,397.350993377483,4,3,3,80,1,1
115199,-50,4,3,3,80,0,1
116788,400,4,3,3,80,1,1
116788,-50,4,3,3,80,0,1
118388,403.496973772697,4,3,3,80,1,1
118388,-50,4,3,3,80,0,1
123229,400,4,3,3,80,1,1
123229,-50,4,3,3,80,0,1
124831,394.736842105263,4,3,3,80,1,1
124831,-50,4,3,3,80,0,1
126409,400,4,3,3,80,1,1
126409,-50,4,3,3,80,0,1
127209,-76.9230769230769,4,3,3,80,0,1
127942,-76.9230769230769,4,3,3,80,0,0
128009,400.534045393858,4,3,1,80,1,1
128009,-50,4,3,1,80,0,1
140826,393.44262295082,4,3,1,80,1,1
140826,-50,4,3,1,80,0,1
142399,402.684563758389,4,3,1,80,1,1
142399,-50,4,3,1,80,0,1
143607,408.163265306122,4,3,1,80,1,1
143607,-50,4,3,1,80,0,1
144015,402.684563758389,4,3,1,80,1,1
144015,-50,4,3,1,80,0,1
147236,400,4,3,1,80,1,1
147236,-50,4,3,1,80,0,1
152436,389.61038961039,4,3,1,80,1,1
152436,-50,4,3,1,80,0,1
152890,-50,4,3,10,80,0,1
153215,428.571428571429,4,3,10,80,1,1
153215,-50,4,3,10,80,0,1
153643,400,4,3,1,80,1,0
164843,379.746835443038,4,3,10,80,1,0
165222,384.615384615385,4,3,10,80,1,0
165670,-100,4,3,10,40,0,0
165991,422.535211267606,4,3,10,80,1,0
166413,400.801603206413,4,3,9,80,1,0
167715,-100,4,3,10,80,0,0
168016,-100,4,3,9,80,0,0
169619,406.779661016949,4,3,9,80,1,0
170839,384.615384615385,4,3,10,80,1,0
170839,-100,4,3,10,80,0,0
171222,405.405405405405,4,3,9,80,1,0
171222,-100,4,3,9,80,0,0
172032,400,4,3,9,80,1,0
172424,400,4,3,9,80,1,0
172825,400.801603206413,4,3,9,80,1,0
175631,-100,4,3,10,80,0,0
176032,405.405405405405,4,3,9,80,1,0
177349,-100,4,3,10,80,0,0
177653,389.61038961039,4,3,9,80,1,0
178042,-100,4,3,10,80,0,0
178432,-500,4,3,1,80,0,0
178821,416.666666666667,4,3,1,80,1,0
178821,-500,4,3,1,80,0,0
179237,400,4,3,4,80,1,0
179237,-50,4,3,4,80,0,0
192037,394.736842105263,4,3,4,80,1,0
192037,-50,4,3,4,80,0,0
193615,400,4,3,4,80,1,0
193615,-50,4,3,4,80,0,0
198415,413.793103448276,4,3,4,80,1,0
198415,-50,4,3,4,80,0,0
198828,400,4,3,4,80,1,0
198828,-50,4,3,4,80,0,0
200028,400,4,3,4,80,1,0
200028,-50,4,3,4,80,0,0
203228,405.405405405405,4,3,4,80,1,0
203633,-50,4,3,4,40,0,0
203836,-50,4,3,4,50,0,0
204038,-50,4,3,4,70,0,0
204241,-50,4,3,4,80,0,0
204444,375,4,3,4,80,1,0
204444,-50,4,3,4,80,0,0
204819,397.350993377483,4,3,3,66,1,0
204819,-50,4,3,3,66,0,0
206408,400,4,3,3,68,1,0
206408,-50,4,3,3,68,0,0
208008,-50,4,3,3,70,0,0
209608,-50,4,3,3,72,0,0
211208,402.684563758389,4,3,3,74,1,0
211208,-50,4,3,3,74,0,0
212819,405.405405405405,4,3,3,76,1,0
212819,-50,4,3,3,76,0,0
214437,400,4,3,3,76,1,0
214437,-50,4,3,3,78,0,0
216037,-50,4,3,3,80,0,0
217637,-50,4,3,11,80,0,0
218437,397.350993377483,4,3,1,90,1,1
218437,-50,4,3,1,90,0,1
218503,-50,4,3,1,80,0,1
220026,400,4,3,1,80,1,1
220026,-50,4,3,1,80,0,1
224827,397.350993377483,4,3,1,80,1,1
224827,-50,4,3,1,80,0,1
228005,402.684563758389,4,3,1,80,1,1
228005,-50,4,3,1,80,0,1
231226,394.736842105263,4,3,1,80,1,1
231226,-50,4,3,1,80,0,1
232804,397.350993377483,4,3,1,80,1,1
232804,-50,4,3,1,80,0,1
234393,401.33779264214,4,3,1,80,1,1
234393,-50,4,3,1,80,0,1
235195,407.608695652174,4,3,1,80,1,1
235195,-50,4,3,1,80,0,1
236010,398.671096345515,4,3,1,80,1,1
236010,-50,4,3,1,80,0,1
237604,408.163265306122,4,3,1,80,1,1
237604,-50,4,3,1,80,0,1
239236,394.736842105263,4,3,1,80,1,1
239236,-50,4,3,1,80,0,1
240814,397.350993377483,4,3,1,80,1,1
240814,-50,4,3,1,80,0,1
243595,424.929178470255,4,3,1,80,1,1
243595,-50,4,3,1,80,0,1
244019,397.350993377483,4,3,9,80,1,0
244019,-333.333333333333,4,3,9,80,0,0
244416,-100,4,3,10,40,0,0
244515,-100,4,3,10,50,0,0
244615,-100,4,3,10,70,0,0
244714,-100,4,3,10,80,0,0
244813,-1000,4,3,9,90,0,0
245608,-50,4,3,1,90,0,1
245674,-50,4,3,1,80,0,1
247197,402.684563758389,4,3,1,80,1,1
247197,-50,4,3,1,80,0,1
250418,400.534045393858,4,3,1,80,1,1
250418,-50,4,3,1,80,0,1
258428,400,4,3,1,80,1,1
258428,-50,4,3,1,80,0,1
271294,-50,4,3,4,80,0,1
295228,405.405405405405,4,3,4,80,1,1
295228,-50,4,3,4,80,0,1
296038,389.61038961039,4,3,4,80,1,1
296038,-50,4,3,4,80,0,1
296427,402.684563758389,4,3,9,80,1,0
296427,-50,4,3,9,80,0,0
296829,397.350993377483,4,3,1,80,1,0
296895,-50,4,3,3,60,0,0
298418,400,4,3,3,60,1,0
298418,-50,4,3,3,60,0,0
300018,402.684563758389,4,3,1,80,1,0
300018,-50,4,3,1,80,0,0
303239,399.201596806387,4,3,1,80,1,0
303315,-50,4,3,3,60,0,0
306432,-50,4,3,1,80,0,0
309626,394.736842105263,4,3,1,80,1,0
309715,-50,4,3,3,60,0,0
312389,419.58041958042,4,3,3,60,1,0
312389,-50,4,3,3,60,0,0
312808,404.312668463612,4,3,1,80,1,0
312808,-50,4,3,1,80,0,0
315638,384.615384615385,4,3,1,80,1,0
315638,-50,4,3,1,80,0,0
316022,400,4,3,1,80,1,0
316108,-50,4,3,3,60,0,0
319220,-50,4,3,1,80,0,0
320822,410.958904109589,4,3,1,80,1,0
320822,-50,4,3,1,80,0,0
321649,394.736842105263,4,3,1,80,1,0
322043,387.096774193548,4,3,3,80,1,0
322430,402.684563758389,4,3,3,80,1,0
322430,-1000,4,3,3,80,0,0
324040,398.936170212766,4,3,1,90,1,1
324040,-50,4,3,1,90,0,1
324106,-50,4,3,1,80,0,1
335211,402.684563758389,4,3,1,80,1,1
335211,-50,4,3,1,80,0,1
336821,397.350993377483,4,3,1,80,1,1
336821,-50,4,3,1,80,0,1
341589,408.163265306122,4,3,1,80,1,1
341589,-50,4,3,1,80,0,1
343221,400,4,3,1,80,1,1
343221,-50,4,3,1,80,0,1
349621,-50,4,3,11,80,0,0
349687,-50,4,3,1,20,0,0
350954,-50,4,3,2,10,0,0

[Colours]
Combo1 : 117,0,0
Combo2 : 111,55,0
Combo3 : 92,92,92
Combo4 : 145,145,0

[HitObjects]
407,179,42,5,4,0:0:0:0:
431,243,108,1,0,1:0:0:0:
403,306,175,1,2,0:0:0:0:
340,331,242,1,0,1:0:0:0:
279,304,308,1,2,0:0:0:0:
252,242,375,1,0,1:0:0:0:
275,178,442,1,2,0:0:0:0:
337,151,508,1,0,1:0:0:0:
356,86,575,1,2,0:0:0:0:
330,24,642,1,0,1:0:0:0:
264,13,708,1,2,0:0:0:0:
207,51,775,1,0,1:0:0:0:
204,120,842,1,2,0:0:0:0:
255,165,908,1,0,1:0:0:0:
323,158,975,1,2,0:0:0:0:
374,113,1042,1,0,1:0:0:0:
442,117,1108,1,2,0:0:0:0:
487,170,1175,1,0,1:0:0:0:
490,239,1242,1,2,0:0:0:0:
447,291,1308,1,0,1:0:0:0:
380,299,1375,1,2,0:0:0:0:
325,259,1442,1,0,1:0:0:0:
309,194,1508,1,2,0:0:0:0:
251,160,1575,1,0,1:0:0:0:
185,175,1642,1,2,0:0:0:0:
148,231,1708,1,0,1:0:0:0:
85,256,1775,1,2,0:0:0:0:
26,223,1842,1,0,1:0:0:0:
10,158,1908,1,2,0:0:0:0:
49,102,1975,1,0,1:0:0:0:
117,95,2042,1,2,0:0:0:0:
162,146,2108,1,0,1:0:0:0:
157,215,2175,1,2,0:0:0:0:
107,261,2242,1,0,1:0:0:0:
101,329,2308,1,2,0:0:0:0:
150,378,2375,1,0,1:0:0:0:
218,371,2442,1,2,0:0:0:0:
255,315,2508,1,0,1:0:0:0:
243,248,2575,1,2,0:0:0:0:
280,191,2642,1,0,1:0:0:0:
346,177,2708,1,2,0:0:0:0:
407,209,2775,1,0,1:0:0:0:
474,195,2842,1,2,0:0:0:0:
498,131,2909,1,0,1:0:0:0:
463,74,2975,1,2,0:0:0:0:
395,74,3042,1,0,1:0:0:0:
360,132,3108,1,2,0:0:0:0:
383,197,3175,1,0,1:0:0:0:
450,210,3242,5,4,0:0:0:0:
408,157,3308,1,0,1:0:0:0:
341,148,3375,1,2,0:0:0:0:
291,103,3442,1,0,1:0:0:0:
296,35,3509,1,2,0:0:0:0:
356,5,3575,1,0,1:0:0:0:
421,27,3642,1,2,0:0:0:0:
433,94,3708,1,0,1:0:0:0:
387,144,3775,1,2,0:0:0:0:
319,151,3842,1,0,1:0:0:0:
265,113,3908,1,2,0:0:0:0:
198,125,3975,1,0,1:0:0:0:
158,181,4042,1,2,0:0:0:0:
176,246,4108,1,0,1:0:0:0:
236,281,4175,1,2,0:0:0:0:
301,259,4242,1,0,1:0:0:0:
326,197,4308,1,2,0:0:0:0:
391,174,4375,1,0,1:0:0:0:
450,210,4442,1,2,0:0:0:0:
459,277,4508,1,0,1:0:0:0:
412,327,4575,1,2,0:0:0:0:
344,322,4642,1,0,1:0:0:0:
311,264,4708,1,2,0:0:0:0:
335,200,4775,1,0,1:0:0:0:
397,187,4842,1,2,0:0:0:0:
427,133,4908,1,0,1:0:0:0:
413,72,4975,1,2,0:0:0:0:
358,43,5042,1,0,1:0:0:0:
299,61,5108,1,2,0:0:0:0:
274,119,5175,1,0,1:0:0:0:
215,140,5242,1,2,0:0:0:0:
159,116,5308,1,0,1:0:0:0:
142,56,5375,1,2,0:0:0:0:
87,28,5442,1,0,1:0:0:0:
28,44,5508,1,2,0:0:0:0:
0,100,5575,1,0,1:0:0:0:
20,160,5642,1,2,0:0:0:0:
77,184,5708,1,0,1:0:0:0:
135,161,5775,1,2,0:0:0:0:
160,104,5842,1,0,1:0:0:0:
219,84,5908,1,2,0:0:0:0:
278,108,5975,1,0,1:0:0:0:
304,166,6042,1,2,0:0:0:0:
281,224,6108,1,0,1:0:0:0:
224,250,6175,1,2,0:0:0:0:
164,234,6242,1,0,1:0:0:0:
110,263,6308,1,2,0:0:0:0:
84,320,6375,1,0,1:0:0:0:
98,380,6442,5,4,0:0:0:0:
137,332,6508,1,0,1:0:0:0:
128,271,6575,1,2,0:0:0:0:
81,230,6642,1,0,1:0:0:0:
71,170,6708,1,2,0:0:0:0:
103,116,6775,1,0,1:0:0:0:
164,99,6842,1,2,0:0:0:0:
222,123,6908,1,0,1:0:0:0:
243,183,6975,1,2,0:0:0:0:
228,244,7042,1,0,1:0:0:0:
252,302,7108,1,2,0:0:0:0:
311,324,7175,1,0,1:0:0:0:
369,300,7242,1,2,0:0:0:0:
396,245,7308,1,0,1:0:0:0:
458,235,7375,1,2,0:0:0:0:
503,279,7442,1,0,1:0:0:0:
494,340,7508,1,2,0:0:0:0:
439,370,7575,1,0,1:0:0:0:
382,346,7642,1,2,0:0:0:0:
364,288,7708,1,0,1:0:0:0:
397,235,7775,1,2,0:0:0:0:
387,174,7842,1,0,1:0:0:0:
335,140,7909,1,2,0:0:0:0:
274,149,7975,1,0,1:0:0:0:
223,113,8042,1,2,0:0:0:0:
218,52,8108,1,0,1:0:0:0:
259,5,8175,1,2,0:0:0:0:
322,2,8242,1,0,1:0:0:0:
365,47,8308,1,2,0:0:0:0:
359,110,8375,1,0,1:0:0:0:
309,148,8442,1,2,0:0:0:0:
306,210,8508,1,0,1:0:0:0:
343,261,8575,1,2,0:0:0:0:
335,324,8642,1,0,1:0:0:0:
283,357,8708,1,2,0:0:0:0:
224,339,8775,1,0,1:0:0:0:
204,280,8842,1,2,0:0:0:0:
228,223,8908,1,0,1:0:0:0:
208,164,8975,1,2,0:0:0:0:
150,142,9042,1,0,1:0:0:0:
92,161,9108,1,2,0:0:0:0:
32,145,9175,1,0,1:0:0:0:
10,87,9242,1,2,0:0:0:0:
34,30,9308,1,0,1:0:0:0:
95,16,9375,1,2,0:0:0:0:
145,55,9442,1,0,1:0:0:0:
148,117,9508,1,2,0:0:0:0:
102,160,9575,1,0,1:0:0:0:
45,158,9642,5,4,0:0:0:0:
94,132,9708,1,0,1:0:0:0:
150,141,9775,1,2,0:0:0:0:
179,189,9842,1,0,1:0:0:0:
170,244,9908,1,2,0:0:0:0:
205,288,9975,1,0,1:0:0:0:
261,290,10042,1,2,0:0:0:0:
302,252,10108,1,0,1:0:0:0:
304,195,10175,1,2,0:0:0:0:
342,152,10242,1,0,1:0:0:0:
398,153,10308,1,2,0:0:0:0:
436,195,10375,1,0,1:0:0:0:
434,251,10442,1,2,0:0:0:0:
391,287,10508,1,0,1:0:0:0:
334,282,10575,1,2,0:0:0:0:
279,298,10642,1,0,1:0:0:0:
246,343,10708,1,2,0:0:0:0:
192,363,10775,1,0,1:0:0:0:
138,343,10842,1,2,0:0:0:0:
113,292,10908,1,0,1:0:0:0:
123,235,10975,1,2,0:0:0:0:
167,199,11042,1,0,1:0:0:0:
186,146,11108,1,2,0:0:0:0:
173,90,11175,1,0,1:0:0:0:
123,62,11242,5,2,1:3:0:0:
127,78,11308,1,0,1:0:0:0:
131,94,11375,1,0,1:0:0:0:
135,110,11442,1,0,1:0:0:0:
139,126,11508,1,0,1:0:0:0:
143,142,11575,1,0,1:0:0:0:
182,158,11642,5,0,1:0:0:0:
186,174,11708,1,0,1:0:0:0:
190,190,11775,1,0,1:0:0:0:
194,206,11842,1,0,1:0:0:0:
198,222,11908,1,0,1:0:0:0:
202,238,11975,1,0,1:0:0:0:
171,288,12042,5,0,1:0:0:0:
193,271,12108,1,0,1:0:0:0:
221,267,12175,1,0,1:0:0:0:
248,275,12242,1,0,1:0:0:0:
266,296,12308,1,0,1:0:0:0:
276,322,12375,1,0,1:0:0:0:
260,367,12442,6,0,L|262:301,1,56.6666666666667,0|0,1:0|1:0,1:0:0:0:
289,377,12575,2,0,L|273:312,1,56.6666666666667,0|0,1:0|1:0,1:0:0:0:
319,379,12708,2,0,L|287:320,1,56.6666666666667,0|0,1:0|1:0,1:0:0:0:
368,265,12842,5,4,0:0:0:0:
353,222,12908,1,0,1:0:0:0:
312,200,12975,1,2,0:0:0:0:
267,211,13042,1,0,1:0:0:0:
246,250,13108,1,2,0:0:0:0:
203,267,13175,1,0,1:0:0:0:
159,255,13242,1,2,0:0:0:0:
133,218,13308,1,0,1:0:0:0:
139,172,13375,1,2,0:0:0:0:
172,140,13442,1,0,1:0:0:0:
182,96,13508,1,2,0:0:0:0:
161,55,13575,1,0,1:0:0:0:
116,43,13642,1,2,0:0:0:0:
75,62,13708,1,0,1:0:0:0:
57,104,13775,1,2,0:0:0:0:
69,147,13842,1,0,1:0:0:0:
107,169,13908,1,2,0:0:0:0:
152,170,13975,1,0,1:0:0:0:
187,141,14042,1,2,0:0:0:0:
231,133,14108,1,0,1:0:0:0:
268,158,14175,1,2,0:0:0:0:
277,202,14242,1,0,1:0:0:0:
256,242,14308,1,2,0:0:0:0:
262,287,14375,1,0,1:0:0:0:
298,314,14442,1,2,0:0:0:0:
342,314,14508,1,0,1:0:0:0:
375,283,14575,1,2,0:0:0:0:
381,237,14642,1,0,1:0:0:0:
404,198,14708,1,2,0:0:0:0:
447,184,14775,1,0,1:0:0:0:
479,151,14842,1,2,0:0:0:0:
484,106,14908,1,0,1:0:0:0:
457,69,14975,1,2,0:0:0:0:
412,60,15042,1,0,1:0:0:0:
375,86,15108,1,2,0:0:0:0:
362,129,15175,1,0,1:0:0:0:
380,170,15242,1,2,0:0:0:0:
419,190,15308,1,0,1:0:0:0:
438,231,15375,1,2,0:0:0:0:
430,275,15442,1,0,1:0:0:0:
394,302,15508,1,2,0:0:0:0:
348,300,15575,1,0,1:0:0:0:
317,265,15642,1,2,0:0:0:0:
276,246,15708,1,0,1:0:0:0:
229,254,15775,1,2,0:0:0:0:
202,290,15842,1,0,1:0:0:0:
204,334,15908,1,2,0:0:0:0:
232,369,15975,1,0,1:0:0:0:
277,372,16042,5,4,0:0:0:0:
245,340,16108,1,0,1:0:0:0:
199,336,16175,1,2,0:0:0:0:
162,362,16242,1,0,1:0:0:0:
117,363,16308,1,2,0:0:0:0:
80,335,16375,1,0,1:0:0:0:
67,291,16442,1,2,0:0:0:0:
84,249,16508,1,0,1:0:0:0:
123,225,16575,1,2,0:0:0:0:
140,183,16642,1,0,1:0:0:0:
132,138,16708,1,2,0:0:0:0:
94,112,16775,1,0,1:0:0:0:
48,109,16842,1,2,0:0:0:0:
19,74,16908,1,0,1:0:0:0:
21,28,16975,1,2,0:0:0:0:
60,5,17042,1,0,1:0:0:0:
104,12,17108,1,2,0:0:0:0:
129,50,17175,1,0,1:0:0:0:
129,95,17242,1,2,0:0:0:0:
157,129,17308,1,0,1:0:0:0:
202,133,17375,1,2,0:0:0:0:
238,105,17442,1,0,1:0:0:0:
282,102,17508,1,2,0:0:0:0:
319,128,17575,1,0,1:0:0:0:
331,171,17642,1,2,0:0:0:0:
314,212,17708,1,0,1:0:0:0:
274,234,17775,1,2,0:0:0:0:
264,278,17842,1,0,1:0:0:0:
288,315,17908,1,2,0:0:0:0:
331,327,17975,1,0,1:0:0:0:
371,305,18042,1,2,0:0:0:0:
382,261,18108,1,0,1:0:0:0:
362,219,18175,1,2,0:0:0:0:
322,196,18242,1,0,1:0:0:0:
306,153,18308,1,2,0:0:0:0:
321,110,18375,1,0,1:0:0:0:
363,92,18442,1,2,0:0:0:0:
405,107,18508,1,0,1:0:0:0:
427,146,18575,1,2,0:0:0:0:
471,157,18642,1,0,1:0:0:0:
509,133,18708,1,2,0:0:0:0:
509,87,18775,1,0,1:0:0:0:
477,54,18842,1,2,0:0:0:0:
432,58,18908,1,0,1:0:0:0:
405,94,18975,1,2,0:0:0:0:
362,109,19042,1,0,1:0:0:0:
320,91,19108,1,2,0:0:0:0:
306,47,19175,1,0,1:0:0:0:
324,5,19242,5,4,0:0:0:0:
344,45,19308,1,0,1:0:0:0:
336,89,19375,1,2,0:0:0:0:
295,110,19442,1,0,1:0:0:0:
252,95,19508,1,2,0:0:0:0:
225,58,19575,1,0,1:0:0:0:
180,48,19642,1,2,0:0:0:0:
139,67,19708,1,0,1:0:0:0:
123,109,19775,1,2,0:0:0:0:
136,152,19842,1,0,1:0:0:0:
171,179,19908,1,2,0:0:0:0:
185,222,19975,1,0,1:0:0:0:
166,263,20042,1,2,0:0:0:0:
127,285,20108,1,0,1:0:0:0:
82,277,20175,1,2,0:0:0:0:
55,240,20242,1,0,1:0:0:0:
57,195,20308,1,2,0:0:0:0:
89,162,20375,1,0,1:0:0:0:
134,156,20442,1,2,0:0:0:0:
173,177,20508,1,0,1:0:0:0:
218,171,20575,1,2,0:0:0:0:
247,136,20642,1,0,1:0:0:0:
252,91,20708,1,2,0:0:0:0:
288,64,20775,1,0,1:0:0:0:
333,64,20842,1,2,0:0:0:0:
364,95,20908,1,0,1:0:0:0:
365,140,20975,1,2,0:0:0:0:
339,177,21042,1,0,1:0:0:0:
339,221,21108,1,2,0:0:0:0:
368,255,21175,1,0,1:0:0:0:
413,260,21242,1,2,0:0:0:0:
444,292,21308,1,0,1:0:0:0:
441,337,21375,1,2,0:0:0:0:
407,368,21442,1,0,1:0:0:0:
362,368,21508,1,2,0:0:0:0:
331,333,21575,1,0,1:0:0:0:
287,320,21642,1,2,0:0:0:0:
247,341,21708,1,0,1:0:0:0:
202,332,21775,1,2,0:0:0:0:
173,296,21842,1,0,1:0:0:0:
180,251,21908,1,2,0:0:0:0:
214,221,21975,1,0,1:0:0:0:
259,223,22042,1,2,0:0:0:0:
297,199,22108,1,0,1:0:0:0:
309,155,22175,1,2,0:0:0:0:
288,114,22242,1,0,1:0:0:0:
246,95,22308,1,2,0:0:0:0:
203,111,22375,1,0,1:0:0:0:
178,149,22442,6,0,L|174:201,7,42.5,4|0|0|0|0|0|0|0,0:0|1:0|0:0|1:0|0:0|1:0|0:0|1:0,0:0:0:0:
99,212,22842,5,2,0:0:0:0:
91,208,22892,1,0,1:0:0:0:
83,204,22942,1,2,0:0:0:0:
76,199,22992,1,0,1:0:0:0:
70,194,23042,1,2,0:0:0:0:
64,187,23092,1,0,1:0:0:0:
59,180,23142,1,0,0:0:0:0:
55,173,23192,1,0,1:0:0:0:
52,165,23242,5,2,0:0:0:0:
49,157,23292,1,0,1:0:0:0:
48,149,23342,1,2,0:0:0:0:
47,140,23392,1,0,1:0:0:0:
47,132,23442,1,2,0:0:0:0:
49,123,23492,1,0,1:0:0:0:
51,115,23542,1,0,0:0:0:0:
54,107,23592,1,0,1:0:0:0:
59,101,23642,6,0,L|85:62,7,42.5,2|0|2|0|2|0|0|0,0:0|1:0|0:0|1:0|0:0|1:0|0:0|1:0,0:0:0:0:
167,43,24042,6,0,L|176:93,1,42.5,2|0,0:0|1:0,0:0:0:0:
187,153,24142,2,0,L|196:103,1,42.5,2|0,0:0|1:0,0:0:0:0:
266,61,24242,1,2,0:0:0:0:
271,67,24292,1,0,1:0:0:0:
276,73,24342,1,0,0:0:0:0:
281,79,24392,1,0,1:0:0:0:
286,85,24442,6,0,L|333:76,1,42.5,2|0,0:0|1:0,0:0:0:0:
407,106,24542,2,0,L|360:97,1,42.5,2|0,0:0|1:0,0:0:0:0:
306,169,24642,1,2,0:0:0:0:
304,177,24692,1,0,1:0:0:0:
302,185,24742,1,0,0:0:0:0:
300,193,24792,1,0,1:0:0:0:
298,201,24842,5,2,0:0:0:0:
319,204,24892,1,0,1:0:0:0:
337,214,24942,1,2,0:0:0:0:
352,229,24992,1,0,1:0:0:0:
361,248,25042,6,0,L|359:303,3,42.5,2|0|2|0,0:0|1:0|0:0|1:0,0:0:0:0:
258,218,25242,5,4,0:0:0:0:
276,325,25342,1,0,0:0:0:0:
170,353,25442,1,0,0:0:0:0:
151,244,25542,1,0,0:0:0:0:
198,356,25642,6,0,B|171:304|171:304|100:265,1,106.25,4|0,0:0|1:0,0:0:0:0:
20,162,25842,1,0,0:0:0:0:
31,266,25942,1,0,1:0:0:0:
52,172,26042,6,0,B|117:138|117:138|153:93,1,106.25,0|0,0:0|1:0,0:0:0:0:
265,27,26242,1,0,0:0:0:0:
176,2,26342,1,0,1:0:0:0:
241,61,26442,6,0,B|230:121|230:121|236:171,1,106.25,0|0,0:0|1:0,0:0:0:0:
327,300,26642,1,0,0:0:0:0:
216,263,26742,1,0,1:0:0:0:
267,350,26842,5,0,0:0:0:0:
302,265,26942,1,0,1:0:0:0:
392,232,27042,1,0,0:0:0:0:
470,287,27142,1,0,1:0:0:0:
462,370,27242,6,0,B|441:312|441:312|401:274,1,106.25,2|0,0:0|1:0,0:0:0:0:
278,356,27442,1,0,0:0:0:0:
297,256,27542,1,0,1:0:0:0:
235,371,27642,6,0,B|171:344|171:344|141:305,1,106.25,2|0,0:0|1:0,0:0:0:0:
140,130,27842,1,0,0:0:0:0:
30,200,27942,1,0,1:0:0:0:
163,157,28042,6,0,B|231:170|231:170|271:201,1,106.25,2|0,0:0|1:0,0:0:0:0:
430,139,28242,1,0,0:0:0:0:
468,281,28342,1,0,1:0:0:0:
397,162,28442,6,0,B|382:107|382:107|390:42,1,106.25,2|0,0:0|1:0,0:0:0:0:
168,42,28642,1,0,0:0:0:0:
347,0,28742,1,0,0:0:0:0:
214,111,28842,6,0,B|166:82|166:82|77:84,1,106.25,4|0,0:0|1:0,0:0:0:0:
36,218,29042,1,0,0:0:0:0:
85,113,29142,1,0,1:0:0:0:
143,231,29242,5,2,0:0:0:0:
185,142,29342,1,0,1:0:0:0:
89,152,29442,2,0,B|113:221|113:221|98:268,1,106.25,0|0,0:0|1:0,0:0:0:0:
210,358,29642,5,2,0:0:0:0:
130,329,29742,1,0,1:0:0:0:
193,281,29842,2,0,B|233:328|233:328|288:344,1,106.25,0|0,0:0|1:0,0:0:0:0:
372,254,30042,5,2,0:0:0:0:
297,212,30142,1,0,1:0:0:0:
274,130,30242,1,0,0:0:0:0:
323,60,30342,1,0,1:0:0:0:
406,45,30442,5,2,0:0:0:0:
316,137,30542,1,0,1:0:0:0:
436,121,30642,2,0,B|388:72|388:72|339:61,1,106.25,0|0,0:0|1:0,0:0:0:0:
186,139,30842,5,2,0:0:0:0:
127,107,30942,1,0,1:0:0:0:
62,125,31042,1,0,0:0:0:0:
38,188,31142,1,0,1:0:0:0:
61,255,31242,6,0,B|71:196|71:196|62:146,1,106.25,2|0,0:0|1:0,0:0:0:0:
154,353,31442,2,0,B|144:294|144:294|153:244,1,106.25,0|0,0:0|1:0,0:0:0:0:
405,162,31642,5,8,0:0:0:0:
296,169,31742,1,0,1:0:0:0:
262,290,31842,1,0,0:0:0:0:
391,256,31942,1,0,1:0:0:0:
273,190,32042,6,0,B|229:143|229:143|216:79,1,106.25,4|0,0:0|1:0,0:0:0:0:
365,8,32242,1,0,0:0:0:0:
349,107,32342,1,0,1:0:0:0:
326,0,32442,6,0,B|261:16|261:16|197:5,1,106.25,2|0,0:0|1:0,0:0:0:0:
112,92,32642,1,0,0:0:0:0:
213,81,32742,1,0,1:0:0:0:
96,51,32842,6,0,B|63:102|63:102|56:160,1,106.25,2|0,0:0|1:0,0:0:0:0:
144,259,33042,1,0,0:0:0:0:
35,288,33142,1,0,1:0:0:0:
117,212,33242,6,0,B|174:231|174:231|234:225,1,106.25,2|0,0:0|1:0,0:0:0:0:
346,348,33442,1,0,0:0:0:0:
314,247,33542,1,0,1:0:0:0:
318,360,33642,6,0,B|368:304|368:304|418:289,1,106.25,2|0,0:0|1:0,0:0:0:0:
424,165,33842,1,0,0:0:0:0:
501,216,33942,1,0,1:0:0:0:
512,125,34042,5,2,0:0:0:0:
410,120,34142,1,0,1:0:0:0:
383,221,34242,1,0,0:0:0:0:
490,195,34342,1,0,1:0:0:0:
369,116,34442,6,0,B|310:162|310:162|254:170,1,106.25,2|0,0:0|1:0,0:0:0:0:
115,98,34642,1,0,0:0:0:0:
152,200,34742,1,0,1:0:0:0:
59,172,34842,5,2,0:0:0:0:
87,74,34942,1,0,1:0:0:0:
184,71,35042,1,0,0:0:0:0:
138,173,35142,1,0,1:0:0:0:
10,61,35242,6,0,B|70:31|70:31|134:24,1,106.25,4|0,0:0|1:0,0:0:0:0:
280,158,35442,1,0,0:0:0:0:
206,40,35542,1,0,1:0:0:0:
177,171,35642,5,2,0:0:0:0:
267,83,35742,1,0,1:0:0:0:
320,159,35842,1,0,0:0:0:0:
252,233,35942,1,0,1:0:0:0:
187,123,36042,5,2,0:0:0:0:
95,123,36142,1,0,1:0:0:0:
96,230,36242,1,0,0:0:0:0:
188,210,36342,1,0,1:0:0:0:
286,89,36442,6,0,B|352:127|352:127|414:135,1,106.25,2|0,0:0|1:0,0:0:0:0:
512,269,36642,2,0,B|438:249|438:249|376:257,1,106.25,0|0,0:0|1:0,0:0:0:0:
246,359,36842,5,8,0:0:0:0:
274,298,36942,1,0,1:0:0:0:
252,233,37042,1,0,0:0:0:0:
188,210,37142,1,0,1:0:0:0:
122,292,37242,5,2,0:0:0:0:
181,254,37342,1,0,1:0:0:0:
196,184,37442,1,0,0:0:0:0:
145,128,37542,1,0,1:0:0:0:
49,175,37642,6,0,B|105:144|105:144|132:95,1,106.25,2|0,0:0|1:0,0:0:0:0:
276,53,37842,1,0,0:0:0:0:
189,9,37942,1,0,1:0:0:0:
257,98,38042,5,2,0:0:0:0:
318,58,38142,1,0,1:0:0:0:
391,68,38242,1,0,0:0:0:0:
426,132,38342,1,0,1:0:0:0:
359,225,38442,6,0,B|412:185|412:185|472:175,1,106.25,4|0,0:0|1:0,0:0:0:0:
506,350,38642,1,0,0:0:0:0:
446,258,38742,1,0,1:0:0:0:
468,373,38842,6,0,B|414:342|414:342|365:338,1,106.25,2|0,0:0|1:0,0:0:0:0:
225,360,39042,1,0,0:0:0:0:
282,262,39142,1,0,1:0:0:0:
181,348,39242,6,0,B|160:283|160:283|118:229,1,106.25,2|0,0:0|1:0,0:0:0:0:
38,150,39442,1,0,0:0:0:0:
55,261,39542,1,0,1:0:0:0:
6,171,39642,5,2,0:0:0:0:
98,193,39742,1,0,1:0:0:0:
161,127,39842,1,0,0:0:0:0:
146,38,39942,1,0,1:0:0:0:
57,9,40042,6,0,B|110:73|110:73|158:93,1,106.25,2|0,0:0|1:0,0:0:0:0:
285,58,40242,1,0,0:0:0:0:
236,154,40342,1,0,1:0:0:0:
244,32,40442,6,0,B|315:43|315:43|376:24,1,106.25,2|0,0:0|1:0,0:0:0:0:
490,128,40642,1,0,0:0:0:0:
448,43,40742,1,0,1:0:0:0:
449,138,40842,6,0,B|420:210|420:210|426:273,1,106.25,2|0,0:0|1:0,0:0:0:0:
323,361,41042,1,0,0:0:0:0:
441,330,41142,1,0,1:0:0:0:
347,384,41242,6,0,B|328:318|328:318|279:270,1,106.25,2|0,0:0|1:0,0:0:0:0:
99,273,41442,1,0,0:0:0:0:
245,221,41542,1,0,1:0:0:0:
140,350,41642,6,0,B|137:288|137:288|165:230,1,106.25,4|0,0:0|1:0,0:0:0:0:
316,210,41842,1,0,0:0:0:0:
177,211,41942,1,0,1:0:0:0:
283,131,42042,5,2,0:0:0:0:
245,221,42142,1,0,1:0:0:0:
186,139,42242,2,0,B|246:122|246:122|289:83,1,106.25,0|0,0:0|1:0,0:0:0:0:
398,14,42442,5,2,0:0:0:0:
368,90,42542,1,0,1:0:0:0:
449,80,42642,2,0,B|428:38|428:38|364:12,1,106.25,0|0,0:0|1:0,0:0:0:0:
283,131,42842,5,2,0:0:0:0:
355,123,42942,1,0,1:0:0:0:
411,172,43042,1,0,0:0:0:0:
407,249,43142,1,0,1:0:0:0:
354,298,43242,6,0,B|376:240|376:240|369:189,1,106.25,2|0,0:0|1:0,0:0:0:0:
277,366,43442,2,0,B|255:308|255:308|262:257,1,106.25,0|0,0:0|1:0,0:0:0:0:
132,254,43642,5,2,0:0:0:0:
71,280,43742,1,0,1:0:0:0:
13,246,43842,1,0,0:0:0:0:
11,178,43942,1,0,1:0:0:0:
67,138,44042,6,0,B|51:197|51:197|55:254,1,106.25,2|0,0:0|1:0,0:0:0:0:
160,47,44242,2,0,B|176:106|176:106|172:163,1,106.25,0|0,0:0|1:0,0:0:0:0:
301,322,44442,5,8,0:0:0:0:
212,268,44542,1,0,1:0:0:0:
212,158,44642,1,0,0:0:0:0:
305,92,44742,1,0,1:0:0:0:
409,137,44842,5,4,0:0:0:0:
284,124,44942,1,0,1:0:0:0:
377,204,45042,2,0,B|370:134|370:134|386:73,1,106.25,0|0,0:0|1:0,0:0:0:0:
230,5,45242,5,2,0:0:0:0:
237,94,45342,1,0,1:0:0:0:
156,52,45442,2,0,B|194:98|194:98|201:148,1,106.25,0|0,0:0|1:0,0:0:0:0:
77,273,45642,5,2,0:0:0:0:
149,228,45742,1,0,1:0:0:0:
152,311,45842,2,0,B|158:261|158:261|202:210,1,106.25,0|0,0:0|1:0,0:0:0:0:
345,249,46042,5,2,0:0:0:0:
282,195,46142,1,0,1:0:0:0:
271,279,46242,2,0,B|343:285|343:285|395:323,1,106.25,0|0,0:0|1:0,0:0:0:0:
496,371,46442,5,2,0:0:0:0:
436,334,46542,1,0,1:0:0:0:
413,268,46642,1,0,0:0:0:0:
447,205,46742,1,0,1:0:0:0:
512,186,46842,6,0,B|455:184|455:184|403:161,1,106.25,2|0,0:0|1:0,0:0:0:0:
455,27,47042,2,0,B|398:29|398:29|346:52,1,106.25,0|0,0:0|1:0,0:0:0:0:
310,216,47242,5,2,0:0:0:0:
215,259,47342,1,0,1:0:0:0:
189,157,47442,1,0,0:0:0:0:
287,148,47542,1,0,1:0:0:0:
301,255,47642,6,0,B|241:236|241:236|177:244,1,106.25,2|0,0:0|1:0,0:0:0:0:
73,307,47842,1,0,0:0:0:0:
122,378,47942,1,0,1:0:0:0:
156,223,48042,6,0,B|132:275|132:275|88:313,1,106.25,4|0,0:0|1:0,0:0:0:0:
7,182,48242,1,0,0:0:0:0:
29,289,48342,1,0,1:0:0:0:
119,141,48442,5,2,0:0:0:0:
109,240,48542,1,0,1:0:0:0:
55,124,48642,2,0,B|123:129|123:129|185:101,1,106.25,0|0,0:0|1:0,0:0:0:0:
276,11,48842,5,2,0:0:0:0:
262,118,48942,1,0,1:0:0:0:
364,98,49042,1,0,0:0:0:0:
353,0,49142,1,0,1:0:0:0:
240,77,49242,6,0,B|293:117|293:117|316:170,1,106.25,2|0,0:0|1:0,0:0:0:0:
286,281,49442,1,0,0:0:0:0:
386,230,49542,1,0,1:0:0:0:
344,331,49642,6,0,B|318:280|318:280|251:244,1,106.25,4|0,0:0|1:0,0:0:0:0:
107,294,49842,1,0,0:0:0:0:
204,228,49942,1,0,1:0:0:0:
67,269,50042,6,0,B|105:222|105:222|124:157,1,106.25,2|0,0:0|1:0,0:0:0:0:
91,23,50242,1,0,0:0:0:0:
47,125,50342,1,0,1:0:0:0:
23,11,50442,6,0,B|100:45|100:45|161:43,1,106.25,2|0,0:0|1:0,0:0:0:0:
271,27,50642,1,0,0:0:0:0:
190,94,50742,1,0,1:0:0:0:
287,57,50842,6,0,B|305:116|305:116|295:166,1,106.25,2|0,0:0|1:0,0:0:0:0:
443,106,51042,2,0,B|425:165|425:165|435:215,1,106.25,0|0,0:0|1:0,0:0:0:0:
388,348,51242,5,4,0:0:0:0:
384,318,51291,1,0,1:0:0:0:
371,291,51341,1,0,0:0:0:0:
351,269,51391,1,0,1:0:0:0:
326,255,51441,1,0,0:0:0:0:
297,248,51491,1,0,1:0:0:0:
267,251,51541,1,0,0:0:0:0:
240,263,51590,1,0,1:0:0:0:
218,283,51640,1,2,0:0:0:0:
196,303,51690,1,0,1:0:0:0:
169,315,51740,1,2,0:0:0:0:
140,319,51790,1,0,1:0:0:0:
111,312,51840,1,2,0:0:0:0:
86,296,51889,1,0,1:0:0:0:
67,274,51939,1,0,0:0:0:0:
57,246,51989,1,0,1:0:0:0:
56,216,52039,6,0,L|62:170,3,42.5,2|0|2|0,0:0|1:0|0:0|1:0,0:0:0:0:
146,134,52238,1,2,0:0:0:0:
164,157,52288,1,0,1:0:0:0:
190,171,52338,1,0,0:0:0:0:
219,173,52388,1,0,1:0:0:0:
247,163,52438,1,2,0:0:0:0:
268,142,52487,1,0,1:0:0:0:
280,115,52537,1,2,0:0:0:0:
296,90,52587,1,0,1:0:0:0:
321,74,52637,1,2,0:0:0:0:
350,66,52687,1,0,1:0:0:0:
379,70,52737,1,0,0:0:0:0:
405,83,52786,1,0,1:0:0:0:
425,105,52836,6,0,L|432:172,1,42.5,2|0,0:0|1:0,0:0:0:0:
455,262,52936,2,0,L|459:219,1,42.5,2|0,0:0|1:0,0:0:0:0:
354,177,53036,1,2,0:0:0:0:
342,180,53085,1,0,1:0:0:0:
329,183,53135,1,0,0:0:0:0:
316,186,53185,1,0,1:0:0:0:
303,190,53235,6,0,L|293:257,1,42.5,2|0,0:0|1:0,0:0:0:0:
256,337,53335,2,0,L|249:294,1,42.5,2|0,0:0|1:0,0:0:0:0:
194,209,53434,1,2,0:0:0:0:
188,197,53484,1,0,1:0:0:0:
182,185,53534,1,0,0:0:0:0:
176,173,53584,1,0,1:0:0:0:
169,161,53634,6,0,L|204:121,1,42.5,2|0,0:0|1:0,0:0:0:0:
168,27,53733,2,0,L|153:71,1,42.5,2|0,0:0|1:0,0:0:0:0:
85,138,53833,1,2,0:0:0:0:
82,150,53883,1,0,1:0:0:0:
79,162,53933,1,0,0:0:0:0:
77,174,53982,1,0,1:0:0:0:
75,186,54032,6,0,L|115:211,1,42.5,2|0,0:0|1:0,0:0:0:0:
215,237,54132,2,0,L|164:245,1,42.5,2|0,0:0|1:0,0:0:0:0:
68,274,54232,2,0,L|116:283,3,42.5,2|0|0|0,0:0|1:0|0:0|1:0,0:0:0:0:
196,362,54431,5,4,0:0:0:0:
187,325,54481,1,0,1:0:0:0:
196,288,54531,1,0,0:0:0:0:
222,260,54580,1,0,1:0:0:0:
257,246,54630,1,0,0:0:0:0:
295,251,54680,1,0,1:0:0:0:
326,272,54730,1,0,0:0:0:0:
360,288,54780,1,0,1:0:0:0:
398,289,54830,1,2,0:0:0:0:
432,273,54879,1,0,1:0:0:0:
457,245,54929,1,2,0:0:0:0:
468,208,54979,1,0,1:0:0:0:
463,171,55029,1,2,0:0:0:0:
442,139,55079,1,0,1:0:0:0:
410,119,55129,1,0,0:0:0:0:
373,114,55178,1,0,1:0:0:0:
336,125,55228,6,0,L|295:149,3,42.5,2|0|2|0,0:0|1:0|0:0|1:0,0:0:0:0:
240,54,55428,1,2,0:0:0:0:
239,91,55477,1,0,1:0:0:0:
221,125,55527,1,0,0:0:0:0:
190,147,55577,1,0,1:0:0:0:
153,152,55627,1,2,0:0:0:0:
117,140,55677,1,0,1:0:0:0:
79,132,55727,1,2,0:0:0:0:
43,143,55776,1,0,1:0:0:0:
16,169,55826,1,2,0:0:0:0:
3,205,55876,1,0,1:0:0:0:
9,242,55926,1,0,0:0:0:0:
31,273,55976,1,0,1:0:0:0:
65,290,56026,6,0,L|122:285,1,42.5,2|0,0:0|1:0,0:0:0:0:
215,345,56125,2,0,L|157:335,1,42.5,2|0,0:0|1:0,0:0:0:0:
178,242,56225,1,2,0:0:0:0:
184,230,56275,1,0,1:0:0:0:
190,218,56325,1,0,0:0:0:0:
196,207,56374,1,0,1:0:0:0:
202,195,56424,6,0,L|193:137,1,42.5,2|0,0:0|1:0,0:0:0:0:
260,57,56524,2,0,L|253:98,1,42.5,2|0,0:0|1:0,0:0:0:0:
309,182,56624,1,2,0:0:0:0:
318,189,56673,1,0,1:0:0:0:
327,197,56723,1,0,0:0:0:0:
336,205,56773,1,0,1:0:0:0:
345,213,56823,6,0,L|411:198,1,42.5,2|0,0:0|1:0,0:0:0:0:
498,176,56923,2,0,L|432:161,1,42.5,2|0,0:0|1:0,0:0:0:0:
448,250,57022,1,2,0:0:0:0:
445,262,57072,1,0,1:0:0:0:
442,274,57122,1,0,0:0:0:0:
439,286,57172,1,0,1:0:0:0:
436,298,57222,6,0,L|383:308,1,42.5,2|0,0:0|1:0,0:0:0:0:
300,353,57321,2,0,L|353:363,1,42.5,2|0,0:0|1:0,0:0:0:0:
322,280,57421,2,0,L|360:221,3,42.5,2|0|0|0,0:0|1:0|0:0|1:0,0:0:0:0:
266,190,57620,5,4,0:0:0:0:
242,171,57670,1,0,1:0:0:0:
214,163,57720,1,0,0:0:0:0:
185,166,57770,1,0,1:0:0:0:
159,181,57820,1,0,0:0:0:0:
140,204,57869,1,0,1:0:0:0:
132,232,57919,1,0,0:0:0:0:
135,262,57969,1,0,1:0:0:0:
150,287,58019,1,2,0:0:0:0:
173,306,58069,1,0,1:0:0:0:
201,314,58119,1,2,0:0:0:0:
230,311,58168,1,0,1:0:0:0:
256,297,58218,1,2,0:0:0:0:
285,288,58268,1,0,1:0:0:0:
314,289,58318,1,0,0:0:0:0:
341,300,58368,1,0,1:0:0:0:
361,321,58418,6,0,L|376:362,3,42.5,2|0|2|0,0:0|1:0|0:0|1:0,0:0:0:0:
477,287,58617,1,2,0:0:0:0:
449,276,58667,1,0,1:0:0:0:
427,256,58717,1,0,0:0:0:0:
416,229,58766,1,0,1:0:0:0:
416,200,58816,1,2,0:0:0:0:
428,173,58866,1,0,1:0:0:0:
430,143,58916,1,2,0:0:0:0:
422,115,58966,1,0,1:0:0:0:
404,92,59016,1,2,0:0:0:0:
378,77,59065,1,0,1:0:0:0:
349,73,59115,1,0,0:0:0:0:
320,81,59165,1,0,1:0:0:0:
296,99,59215,6,0,L|261:148,1,42.5,2|0,0:0|1:0,0:0:0:0:
258,248,59315,2,0,L|271:192,1,42.5,2|0,0:0|1:0,0:0:0:0:
197,135,59414,1,2,0:0:0:0:
184,136,59464,1,0,1:0:0:0:
171,137,59514,1,0,0:0:0:0:
158,138,59564,1,0,1:0:0:0:
145,139,59614,6,0,L|121:198,1,42.5,2|0,0:0|1:0,0:0:0:0:
32,244,59713,2,0,L|61:206,1,42.5,2|0,0:0|1:0,0:0:0:0:
133,252,59813,1,2,0:0:0:0:
137,264,59863,1,0,1:0:0:0:
141,276,59913,1,0,0:0:0:0:
145,287,59962,1,0,1:0:0:0:
149,299,60012,6,0,L|201:320,1,42.5,2|0,0:0|1:0,0:0:0:0:
290,347,60112,2,0,L|238:368,1,42.5,2|0,0:0|1:0,0:0:0:0:
252,267,60212,1,2,0:0:0:0:
249,254,60261,1,0,1:0:0:0:
246,241,60311,1,0,0:0:0:0:
243,228,60361,1,0,1:0:0:0:
240,215,60411,6,0,L|287:177,1,42.5,2|0,0:0|1:0,0:0:0:0:
386,222,60511,2,0,L|334:202,1,42.5,2|0,0:0|1:0,0:0:0:0:
327,134,60610,2,0,L|387:114,3,42.5,2|0|0|0,0:0|1:0|0:0|1:0,0:0:0:0:
382,35,60810,5,4,0:0:0:0:
380,56,60859,1,0,1:0:0:0:
385,76,60909,1,0,0:0:0:0:
396,94,60959,1,0,1:0:0:0:
412,108,61009,1,0,0:0:0:0:
432,116,61059,1,0,1:0:0:0:
453,118,61109,1,0,0:0:0:0:
473,123,61158,1,0,1:0:0:0:
491,134,61208,1,0,0:0:0:0:
504,151,61258,1,0,1:0:0:0:
511,171,61308,1,0,0:0:0:0:
511,192,61358,1,0,1:0:0:0:
505,212,61408,1,0,0:0:0:0:
492,229,61457,1,0,1:0:0:0:
475,241,61507,1,0,0:0:0:0:
455,247,61557,1,0,1:0:0:0:
434,246,61607,6,0,L|395:229,3,42.5,2|0|2|0,0:0|1:0|0:0|1:0,0:0:0:0:
350,317,61806,1,2,0:0:0:0:
342,297,61856,1,0,1:0:0:0:
330,279,61906,1,0,0:0:0:0:
313,266,61956,1,0,1:0:0:0:
294,259,62006,1,2,0:0:0:0:
273,257,62055,1,0,1:0:0:0:
252,261,62105,1,2,0:0:0:0:
233,271,62155,1,0,1:0:0:0:
218,286,62205,1,2,0:0:0:0:
198,294,62255,1,0,1:0:0:0:
177,295,62305,1,0,0:0:0:0:
157,289,62354,1,0,1:0:0:0:
139,277,62404,6,0,L|114:234,7,42.5,4|0|0|0|0|0|0|0,0:0|1:0|0:0|1:0|0:0|1:0|0:0|1:0,0:0:0:0:
170,136,62820,2,0,L|144:184,1,42.5,2|0,0:0|1:0,0:0:0:0:
31,162,62921,2,0,L|89:182,1,42.5,2|0,0:0|1:0,0:0:0:0:
106,101,63023,2,0,L|116:53,3,42.5,2|0|0|0,0:0|1:0|0:0|1:0,0:0:0:0:
211,70,63227,5,4,0:0:0:0:
204,107,63278,1,0,1:0:0:0:
220,140,63329,1,0,0:0:0:0:
253,159,63380,1,0,1:0:0:0:
291,154,63431,1,0,0:0:0:0:
328,148,63482,1,0,1:0:0:0:
362,165,63533,1,0,0:0:0:0:
381,197,63584,1,0,1:0:0:0:
379,235,63635,5,12,0:0:0:0:
379,235,64042,5,4,0:0:0:0:
350,201,64108,1,0,1:0:0:0:
350,155,64175,1,0,0:0:0:0:
387,128,64242,1,0,1:0:0:0:
431,134,64308,1,0,0:0:0:0:
471,113,64375,1,0,1:0:0:0:
485,69,64442,1,2,0:0:0:0:
467,27,64508,1,0,1:0:0:0:
424,11,64575,1,2,0:0:0:0:
381,27,64642,1,0,1:0:0:0:
359,66,64708,1,2,0:0:0:0:
359,111,64775,1,0,1:0:0:0:
332,148,64842,1,2,0:0:0:0:
288,158,64908,1,0,1:0:0:0:
249,133,64975,1,2,0:0:0:0:
203,126,65042,1,0,1:0:0:0:
164,148,65108,1,2,0:0:0:0:
143,188,65175,1,0,1:0:0:0:
146,233,65242,1,2,0:0:0:0:
176,266,65308,1,0,1:0:0:0:
219,279,65375,1,2,0:0:0:0:
262,267,65442,1,0,1:0:0:0:
288,230,65508,1,2,0:0:0:0:
295,184,65575,1,0,1:0:0:0:
273,144,65642,1,2,0:0:0:0:
235,119,65708,1,0,1:0:0:0:
189,117,65775,1,2,0:0:0:0:
149,93,65842,1,0,1:0:0:0:
139,49,65908,1,2,0:0:0:0:
102,21,65975,1,0,1:0:0:0:
56,26,66042,1,2,0:0:0:0:
25,58,66108,1,0,1:0:0:0:
22,103,66175,1,2,0:0:0:0:
49,139,66242,1,0,1:0:0:0:
89,157,66308,1,2,0:0:0:0:
111,196,66375,1,0,1:0:0:0:
105,241,66442,6,0,P|88:259|51:277,1,56.6666666666667,2|0,0:0|1:0,0:0:0:0:
128,268,66575,2,0,P|106:280|66:288,1,56.6666666666667,2|0,0:0|1:0,0:0:0:0:
143,300,66708,2,0,P|119:307|78:304,1,56.6666666666667,2|0,0:0|1:0,0:0:0:0:
202,364,66842,6,0,P|229:367|255:380,1,56.6666666666667,2|0,0:0|1:0,0:0:0:0:
218,344,66975,2,0,P|244:354|265:373,1,56.6666666666667,2|0,0:0|1:0,0:0:0:0:
238,328,67108,2,0,P|260:345|276:368,1,56.6666666666667,2|0,0:0|1:0,0:0:0:0:
430,305,67242,5,4,0:0:0:0:
375,292,67308,1,0,1:0:0:0:
349,241,67375,1,2,0:0:0:0:
371,188,67442,1,0,1:0:0:0:
423,167,67508,1,2,0:0:0:0:
453,118,67575,1,0,1:0:0:0:
442,62,67642,1,2,0:0:0:0:
391,36,67708,1,0,1:0:0:0:
336,51,67775,1,2,0:0:0:0:
310,101,67842,1,0,1:0:0:0:
259,124,67908,1,2,0:0:0:0:
204,105,67975,1,0,1:0:0:0:
174,56,68042,1,2,0:0:0:0:
120,40,68108,1,0,1:0:0:0:
68,63,68175,1,2,0:0:0:0:
56,118,68242,1,0,1:0:0:0:
82,167,68308,1,2,0:0:0:0:
137,178,68375,1,0,1:0:0:0:
186,149,68442,1,2,0:0:0:0:
199,94,68508,1,0,1:0:0:0:
238,52,68575,1,2,0:0:0:0:
294,43,68642,1,0,1:0:0:0:
342,70,68708,1,2,0:0:0:0:
361,123,68775,1,0,1:0:0:0:
346,178,68842,1,2,0:0:0:0:
303,214,68908,1,0,1:0:0:0:
295,270,68975,1,2,0:0:0:0:
325,318,69042,1,0,1:0:0:0:
379,329,69108,1,2,0:0:0:0:
428,301,69175,1,0,1:0:0:0:
440,245,69242,1,2,0:0:0:0:
415,194,69308,1,0,1:0:0:0:
361,174,69375,1,2,0:0:0:0:
304,181,69442,1,0,1:0:0:0:
257,150,69508,1,2,0:0:0:0:
247,93,69575,1,0,1:0:0:0:
280,47,69642,6,0,P|319:39|346:45,5,56.6666666666667,2|0|2|0|2|0,0:0|1:0|0:0|1:0|0:0|1:0,0:0:0:0:
359,145,70042,2,0,P|396:132|417:113,5,56.6666666666667,2|0|2|0|2|0,0:0|1:0|0:0|1:0|0:0|1:0,0:0:0:0:
353,296,70442,5,4,0:0:0:0:
314,263,70508,1,0,1:0:0:0:
263,253,70575,1,2,0:0:0:0:
219,280,70642,1,0,1:0:0:0:
200,326,70708,1,2,0:0:0:0:
156,352,70775,1,0,1:0:0:0:
105,346,70842,1,2,0:0:0:0:
71,308,70908,1,0,1:0:0:0:
70,256,70975,1,2,0:0:0:0:
99,214,71042,1,0,1:0:0:0:
101,163,71108,1,2,0:0:0:0:
71,121,71175,1,0,1:0:0:0:
23,102,71242,1,2,0:0:0:0:
9,53,71308,1,0,1:0:0:0:
32,7,71375,1,2,0:0:0:0:
83,2,71442,1,0,1:0:0:0:
122,33,71508,1,2,0:0:0:0:
130,83,71575,1,0,1:0:0:0:
109,129,71642,1,2,0:0:0:0:
116,178,71708,1,0,1:0:0:0:
156,209,71775,1,2,0:0:0:0:
207,210,71842,1,0,1:0:0:0:
249,182,71908,1,2,0:0:0:0:
300,182,71975,1,0,1:0:0:0:
338,215,72042,1,2,0:0:0:0:
353,262,72108,1,0,1:0:0:0:
400,282,72175,1,2,0:0:0:0:
450,270,72242,1,0,1:0:0:0:
474,226,72308,1,2,0:0:0:0:
462,176,72375,1,0,1:0:0:0:
420,146,72442,1,2,0:0:0:0:
369,149,72508,1,0,1:0:0:0:
320,131,72575,1,2,0:0:0:0:
297,84,72642,1,0,1:0:0:0:
317,37,72708,1,2,0:0:0:0:
366,22,72775,1,0,1:0:0:0:
412,42,72842,6,0,P|432:74|434:106,1,56.6666666666667,2|0,0:0|1:0,0:0:0:0:
439,53,72975,2,0,P|450:89|443:120,1,56.6666666666667,2|0,0:0|1:0,0:0:0:0:
462,70,73108,2,0,P|463:107|449:136,1,56.6666666666667,2|0,0:0|1:0,0:0:0:0:
367,169,73242,6,0,P|359:205|368:236,1,56.6666666666667,2|0,0:0|1:0,0:0:0:0:
345,188,73375,2,0,P|346:225|363:253,1,56.6666666666667,2|0,0:0|1:0,0:0:0:0:
329,212,73508,2,0,P|340:247|363:269,1,56.6666666666667,2|0,0:0|1:0,0:0:0:0:
242,103,73642,5,4,0:0:0:0:
215,66,73708,1,0,1:0:0:0:
170,56,73775,1,0,0:0:0:0:
129,76,73842,1,0,1:0:0:0:
111,117,73908,1,0,0:0:0:0:
121,161,73975,1,0,1:0:0:0:
156,189,74042,1,2,0:0:0:0:
200,192,74108,1,0,1:0:0:0:
236,219,74175,1,2,0:0:0:0:
247,263,74242,1,0,1:0:0:0:
231,305,74308,1,2,0:0:0:0:
192,329,74375,1,0,1:0:0:0:
146,327,74442,1,2,0:0:0:0:
113,295,74508,1,0,1:0:0:0:
107,249,74575,1,2,0:0:0:0:
128,208,74642,1,0,1:0:0:0:
169,191,74708,1,2,0:0:0:0:
195,153,74775,1,0,1:0:0:0:
190,107,74842,1,2,0:0:0:0:
203,64,74908,1,0,1:0:0:0:
244,46,74975,2,0,P|279:30|301:6,3,56.6666666666667,2|0|0|0,0:0|1:0|0:0|1:0,0:0:0:0:
379,76,75242,5,8,0:0:0:0:
376,87,75308,1,8,0:0:0:0:
374,98,75375,1,8,0:0:0:0:
372,109,75442,1,8,0:0:0:0:
369,120,75508,1,8,0:0:0:0:
367,131,75575,1,8,0:0:0:0:
325,149,75642,5,8,0:0:0:0:
322,160,75708,1,8,0:0:0:0:
320,171,75775,1,8,0:0:0:0:
318,182,75842,1,8,0:0:0:0:
315,193,75908,1,8,0:0:0:0:
313,204,75975,1,8,0:0:0:0:
351,239,76042,5,8,0:0:0:0:
348,250,76108,1,8,0:0:0:0:
346,261,76175,1,8,0:0:0:0:
344,272,76242,1,8,0:0:0:0:
341,283,76308,1,8,0:0:0:0:
339,294,76375,1,8,0:0:0:0:
289,320,76442,5,4,0:0:0:0:
267,280,76508,1,4,0:0:0:0:
229,256,76575,1,4,0:0:0:0:
185,252,76642,1,4,0:0:0:0:
144,271,76708,1,4,0:0:0:0:
117,306,76775,1,4,0:0:0:0:
110,351,76842,6,0,L|98:297,7,42.5,4|0|0|0|0|0|0|0,0:0|0:0|0:0|0:0|0:0|0:0|0:0|0:0,0:0:0:0:
27,236,77642,5,8,0:0:0:0:
30,228,77742,1,0,0:0:0:0:
33,220,77842,1,0,0:0:0:0:
36,212,77942,1,0,0:0:0:0:
162,172,78042,5,8,0:0:0:0:
161,163,78142,1,0,0:0:0:0:
16,85,78242,5,8,0:0:0:0:
17,93,78342,1,0,0:0:0:0:
187,63,78442,5,12,0:0:0:0:
195,65,78542,1,0,0:0:0:0:
203,67,78642,1,0,0:0:0:0:
211,69,78742,1,0,0:0:0:0:
219,71,78842,1,0,0:0:0:0:
227,73,78942,1,0,0:0:0:0:
235,75,79042,1,0,0:0:0:0:
243,77,79142,1,0,0:0:0:0:
266,118,79242,5,4,0:0:0:0:
274,117,79342,1,0,0:0:0:0:
282,116,79442,1,0,0:0:0:0:
290,115,79542,1,0,0:0:0:0:
411,62,79642,6,0,L|356:141,1,85,8|8,0:0|0:0,0:0:0:0:
257,227,79818,2,0,L|362:242,1,85,8|8,0:0|0:0,0:0:0:0:
493,312,80042,5,12,0:0:0:0:
484,314,80142,1,0,0:0:0:0:
475,316,80242,1,0,0:0:0:0:
466,318,80342,1,0,0:0:0:0:
457,320,80442,1,0,0:0:0:0:
448,322,80542,1,0,0:0:0:0:
439,324,80642,1,0,0:0:0:0:
430,326,80742,1,0,0:0:0:0:
421,328,80842,1,0,0:0:0:0:
413,330,80942,1,0,0:0:0:0:
405,332,81042,1,0,0:0:0:0:
397,335,81142,1,0,0:0:0:0:
389,337,81242,5,4,0:0:0:0:
344,268,81342,1,4,0:0:0:0:
257,250,81442,1,4,0:0:0:0:
184,296,81542,1,4,0:0:0:0:
173,383,81642,5,4,0:0:0:0:
177,375,81742,1,0,0:0:0:0:
181,367,81842,1,0,0:0:0:0:
185,359,81942,1,0,0:0:0:0:
189,351,82042,1,0,0:0:0:0:
193,343,82142,1,0,0:0:0:0:
197,335,82242,1,0,0:0:0:0:
201,327,82342,1,0,0:0:0:0:
205,319,82442,1,0,0:0:0:0:
209,311,82542,1,0,0:0:0:0:
213,304,82642,1,0,0:0:0:0:
217,297,82742,1,0,0:0:0:0:
178,184,82842,5,8,0:0:0:0:
176,192,82942,1,0,0:0:0:0:
338,261,83042,5,8,0:0:0:0:
340,252,83142,1,0,0:0:0:0:
241,107,83242,5,12,0:0:0:0:
232,108,83342,1,0,0:0:0:0:
223,109,83442,1,0,0:0:0:0:
214,110,83542,1,0,0:0:0:0:
205,111,83642,1,0,0:0:0:0:
196,112,83742,1,0,0:0:0:0:
187,113,83842,1,0,0:0:0:0:
178,114,83942,1,0,0:0:0:0:
169,116,84042,1,0,0:0:0:0:
160,118,84142,1,0,0:0:0:0:
151,120,84242,1,0,0:0:0:0:
142,122,84342,1,0,0:0:0:0:
92,211,84442,5,8,0:0:0:0:
83,210,84542,1,0,0:0:0:0:
27,77,84642,5,8,0:0:0:0:
35,78,84742,1,0,0:0:0:0:
2,228,84842,5,12,0:0:0:0:
5,235,84942,1,0,0:0:0:0:
8,242,85042,1,0,0:0:0:0:
10,249,85142,1,0,0:0:0:0:
13,256,85242,1,0,0:0:0:0:
16,263,85342,1,0,0:0:0:0:
18,270,85442,1,0,0:0:0:0:
21,277,85542,1,0,0:0:0:0:
24,284,85642,1,0,0:0:0:0:
26,291,85742,1,0,0:0:0:0:
29,298,85842,1,0,0:0:0:0:
32,305,85942,1,0,0:0:0:0:
34,312,86042,5,8,0:0:0:0:
91,246,86142,1,8,0:0:0:0:
176,237,86242,1,4,0:0:0:0:
240,295,86342,1,4,0:0:0:0:
236,377,86442,5,4,0:0:0:0:
234,368,86542,1,0,0:0:0:0:
232,359,86642,1,0,0:0:0:0:
230,350,86742,1,0,0:0:0:0:
228,341,86842,1,0,0:0:0:0:
226,332,86942,1,0,0:0:0:0:
224,323,87042,1,0,0:0:0:0:
222,314,87142,1,0,0:0:0:0:
220,305,87242,1,0,0:0:0:0:
218,296,87342,1,0,0:0:0:0:
216,287,87442,1,0,0:0:0:0:
214,278,87542,1,0,0:0:0:0:
212,269,87642,1,0,0:0:0:0:
211,260,87742,1,0,0:0:0:0:
208,251,87842,5,8,0:0:0:0:
276,199,87942,1,8,0:0:0:0:
343,147,88042,5,4,0:0:0:0:
346,154,88142,1,0,0:0:0:0:
349,161,88242,1,0,0:0:0:0:
352,168,88342,1,0,0:0:0:0:
355,175,88442,5,0,0:0:0:0:
441,185,88542,1,8,0:0:0:0:
496,122,88642,1,8,0:0:0:0:
468,40,88742,1,8,0:0:0:0:
380,22,88842,5,4,0:0:0:0:
377,30,88942,1,0,0:0:0:0:
374,38,89042,1,0,0:0:0:0:
371,46,89142,1,0,0:0:0:0:
266,99,89242,5,8,0:0:0:0:
264,90,89342,1,0,0:0:0:0:
393,123,89442,5,8,0:0:0:0:
392,131,89542,1,0,0:0:0:0:
276,200,89642,5,12,0:0:0:0:
267,197,89742,1,0,0:0:0:0:
258,194,89842,1,0,0:0:0:0:
249,191,89942,1,0,0:0:0:0:
240,188,90042,1,0,0:0:0:0:
231,185,90142,1,0,0:0:0:0:
222,182,90242,1,0,0:0:0:0:
213,179,90342,1,0,0:0:0:0:
204,176,90442,1,0,0:0:0:0:
195,173,90542,1,0,0:0:0:0:
186,170,90642,1,0,0:0:0:0:
177,167,90742,1,0,0:0:0:0:
33,213,90842,5,8,0:0:0:0:
119,222,90942,1,8,0:0:0:0:
155,299,91042,1,8,0:0:0:0:
112,375,91142,1,8,0:0:0:0:
26,373,91242,5,4,0:0:0:0:
32,367,91342,1,0,0:0:0:0:
37,360,91442,1,0,0:0:0:0:
42,353,91542,1,0,0:0:0:0:
48,347,91642,1,0,0:0:0:0:
54,341,91742,1,0,0:0:0:0:
60,335,91842,1,0,0:0:0:0:
66,329,91942,1,0,0:0:0:0:
72,323,92042,1,0,0:0:0:0:
78,317,92142,1,0,0:0:0:0:
84,311,92242,1,0,0:0:0:0:
90,305,92342,1,0,0:0:0:0:
231,293,92442,5,8,0:0:0:0:
223,297,92542,1,0,0:0:0:0:
132,200,92642,5,8,0:0:0:0:
140,199,92742,1,0,0:0:0:0:
162,363,92842,5,12,0:0:0:0:
170,364,92942,1,0,0:0:0:0:
178,365,93042,1,0,0:0:0:0:
186,366,93142,1,0,0:0:0:0:
194,367,93242,1,0,0:0:0:0:
202,368,93342,1,0,0:0:0:0:
210,369,93442,1,0,0:0:0:0:
218,370,93542,1,0,0:0:0:0:
226,371,93642,1,0,0:0:0:0:
234,372,93742,1,0,0:0:0:0:
242,373,93842,1,0,0:0:0:0:
250,374,93942,1,0,0:0:0:0:
321,289,94042,5,8,0:0:0:0:
325,281,94142,1,0,0:0:0:0:
419,364,94242,5,8,0:0:0:0:
415,371,94342,1,0,0:0:0:0:
237,289,94442,5,12,0:0:0:0:
238,280,94542,1,0,0:0:0:0:
239,271,94642,1,0,0:0:0:0:
240,262,94742,1,0,0:0:0:0:
241,253,94842,1,0,0:0:0:0:
242,244,94936,1,0,0:0:0:0:
243,235,95031,1,0,0:0:0:0:
244,226,95126,1,0,0:0:0:0:
245,217,95221,1,0,0:0:0:0:
246,208,95319,1,0,0:0:0:0:
247,199,95417,1,0,0:0:0:0:
248,190,95515,1,0,0:0:0:0:
377,94,95613,5,8,0:0:0:0:
375,102,95711,1,4,0:0:0:0:
357,213,95809,5,8,0:0:0:0:
355,205,95907,1,4,0:0:0:0:
259,103,96005,5,12,0:0:0:0:
250,105,96107,1,0,0:0:0:0:
241,107,96209,1,0,0:0:0:0:
232,109,96311,1,0,0:0:0:0:
223,111,96413,1,0,0:0:0:0:
214,113,96515,1,0,0:0:0:0:
205,115,96617,1,0,0:0:0:0:
196,117,96719,1,0,0:0:0:0:
187,119,96821,1,0,0:0:0:0:
178,121,96923,1,0,0:0:0:0:
169,123,97025,1,0,0:0:0:0:
160,125,97127,1,0,0:0:0:0:
71,203,97229,5,8,0:0:0:0:
62,201,97331,1,0,0:0:0:0:
87,74,97433,5,8,0:0:0:0:
95,75,97535,1,0,0:0:0:0:
162,208,97642,5,12,0:0:0:0:
170,209,97742,1,0,0:0:0:0:
178,211,97842,1,0,0:0:0:0:
186,213,97942,1,0,0:0:0:0:
194,215,98042,1,0,0:0:0:0:
202,217,98142,1,0,0:0:0:0:
210,219,98242,1,0,0:0:0:0:
218,221,98342,1,0,0:0:0:0:
226,223,98442,1,0,0:0:0:0:
234,225,98542,1,0,0:0:0:0:
242,227,98642,1,0,0:0:0:0:
250,229,98742,1,0,0:0:0:0:
258,231,98842,5,8,0:0:0:0:
230,150,98942,1,8,0:0:0:0:
268,73,99042,1,4,0:0:0:0:
351,49,99142,1,4,0:0:0:0:
429,94,99242,5,12,0:0:0:0:
408,100,99342,1,0,0:0:0:0:
392,114,99442,1,0,0:0:0:0:
382,132,99542,1,0,0:0:0:0:
379,153,99642,1,0,0:0:0:0:
385,174,99742,1,0,0:0:0:0:
397,191,99842,1,0,0:0:0:0:
404,210,99942,1,0,0:0:0:0:
405,231,100042,1,0,0:0:0:0:
400,252,100142,1,0,0:0:0:0:
389,270,100242,1,0,0:0:0:0:
374,284,100342,1,0,0:0:0:0:
354,293,100442,5,4,0:0:0:0:
320,213,100542,1,4,0:0:0:0:
238,183,100642,1,4,0:0:0:0:
158,221,100742,1,4,0:0:0:0:
145,307,100842,6,0,L|188:289,1,42.5,4|0,0:0|2:0,0:0:0:0:
238,183,101442,1,0,1:0:0:0:
230,299,101542,1,0,1:0:0:0:
145,177,101642,6,0,L|159:115,1,59.5,8|0,0:0|2:0,0:0:0:0:
109,22,102442,5,4,0:0:0:0:
130,74,102507,1,0,1:0:0:0:
179,100,102573,1,0,0:0:0:0:
235,89,102639,1,0,1:0:0:0:
269,44,102705,1,0,0:0:0:0:
324,31,102770,1,0,1:0:0:0:
375,52,102836,1,2,0:0:0:0:
399,103,102902,1,0,1:0:0:0:
381,156,102968,1,2,0:0:0:0:
336,191,103034,1,0,1:0:0:0:
317,244,103099,1,2,0:0:0:0:
335,297,103165,1,0,1:0:0:0:
386,322,103231,1,2,0:0:0:0:
441,311,103297,1,0,1:0:0:0:
472,263,103363,1,2,0:0:0:0:
464,207,103428,1,0,1:0:0:0:
416,175,103494,1,2,0:0:0:0:
359,177,103560,1,0,1:0:0:0:
315,213,103626,1,2,0:0:0:0:
258,212,103692,1,0,1:0:0:0:
217,173,103757,1,2,0:0:0:0:
209,116,103823,1,0,1:0:0:0:
160,87,103889,1,2,0:0:0:0:
105,104,103955,1,0,1:0:0:0:
80,154,104020,1,2,0:0:0:0:
99,207,104086,1,0,1:0:0:0:
151,228,104153,1,2,0:0:0:0:
177,278,104220,1,0,1:0:0:0:
160,331,104286,1,2,0:0:0:0:
108,354,104353,1,0,1:0:0:0:
57,327,104420,5,2,0:0:0:0:
94,314,104486,1,0,1:0:0:0:
133,316,104553,1,2,0:0:0:0:
165,337,104620,1,0,1:0:0:0:
202,351,104686,1,2,0:0:0:0:
241,347,104753,1,0,1:0:0:0:
273,324,104820,5,2,0:0:0:0:
283,343,104886,1,0,1:0:0:0:
299,358,104953,1,2,0:0:0:0:
332,356,105020,5,0,1:0:0:0:
353,363,105086,1,2,0:0:0:0:
372,374,105153,1,0,1:0:0:0:
409,384,105220,5,2,0:0:0:0:
404,373,105286,1,0,1:0:0:0:
402,361,105353,1,2,0:0:0:0:
403,349,105420,1,0,1:0:0:0:
406,338,105486,1,2,0:0:0:0:
412,328,105553,1,0,1:0:0:0:
420,319,105620,5,4,0:0:0:0:
386,323,105686,1,0,1:0:0:0:
354,308,105753,1,2,0:0:0:0:
342,276,105820,1,0,1:0:0:0:
349,242,105886,1,2,0:0:0:0:
377,224,105953,1,0,1:0:0:0:
391,192,106020,1,2,0:0:0:0:
384,158,106086,1,0,1:0:0:0:
356,139,106153,1,2,0:0:0:0:
321,137,106220,1,0,1:0:0:0:
294,158,106286,1,2,0:0:0:0:
260,165,106353,1,0,1:0:0:0:
228,152,106420,1,2,0:0:0:0:
209,123,106486,1,0,1:0:0:0:
209,89,106553,1,2,0:0:0:0:
228,60,106620,1,0,1:0:0:0:
260,49,106686,1,2,0:0:0:0:
292,57,106753,1,0,1:0:0:0:
314,82,106820,6,0,P|325:113|327:147,2,56.6666666666667,2|0|2,0:0|1:0|0:0,0:0:0:0:
425,29,107020,2,0,P|414:60|412:94,2,56.6666666666667,0|2|0,1:0|0:0|1:0,0:0:0:0:
491,170,107220,5,2,0:0:0:0:
452,162,107286,1,0,1:0:0:0:
414,175,107353,1,2,0:0:0:0:
395,210,107420,1,0,1:0:0:0:
400,248,107486,1,2,0:0:0:0:
386,285,107553,1,0,1:0:0:0:
351,304,107620,6,0,P|326:327|316:367,2,56.6666666666667,2|0|2,0:0|1:0|0:0,0:0:0:0:
308,233,107820,2,0,P|297:200|309:160,2,56.6666666666667,0|2|0,1:0|0:0|1:0,0:0:0:0:
247,312,108020,5,2,0:0:0:0:
230,306,108086,1,0,1:0:0:0:
214,305,108153,1,2,0:0:0:0:
197,308,108220,1,0,1:0:0:0:
182,316,108286,1,2,0:0:0:0:
169,327,108353,1,0,1:0:0:0:
160,342,108420,5,2,0:0:0:0:
168,297,108486,1,0,1:0:0:0:
147,257,108553,1,2,0:0:0:0:
102,247,108620,1,0,1:0:0:0:
72,213,108686,1,2,0:0:0:0:
70,167,108753,1,0,1:0:0:0:
100,134,108820,5,8,0:0:0:0:
56,148,108886,1,0,1:0:0:0:
14,130,108953,1,2,0:0:0:0:
4,85,109020,1,0,1:0:0:0:
28,47,109086,1,2,0:0:0:0:
71,36,109153,1,0,1:0:0:0:
105,65,109220,1,2,0:0:0:0:
121,106,109286,1,0,1:0:0:0:
161,126,109353,1,2,0:0:0:0:
204,113,109420,1,0,1:0:0:0:
232,77,109486,1,2,0:0:0:0:
275,65,109553,1,0,1:0:0:0:
316,83,109620,1,2,0:0:0:0:
331,125,109686,1,0,1:0:0:0:
318,168,109753,1,2,0:0:0:0:
280,194,109820,1,0,1:0:0:0:
268,237,109886,1,2,0:0:0:0:
287,278,109953,1,0,1:0:0:0:
279,322,110020,5,2,0:0:0:0:
271,313,110086,1,0,1:0:0:0:
271,290,110153,1,2,0:0:0:0:
295,265,110220,1,0,1:0:0:0:
340,265,110286,1,2,0:0:0:0:
385,297,110353,1,0,1:0:0:0:
453,292,110420,5,2,0:0:0:0:
487,233,110486,1,0,1:0:0:0:
454,172,110553,1,2,0:0:0:0:
386,169,110620,1,0,1:0:0:0:
344,129,110686,1,2,0:0:0:0:
346,100,110753,1,0,1:0:0:0:
359,89,110820,5,2,0:0:0:0:
375,87,110886,1,0,1:0:0:0:
398,101,110953,1,2,0:0:0:0:
400,140,111020,1,0,1:0:0:0:
355,164,111086,1,2,0:0:0:0:
298,136,111153,1,0,1:0:0:0:
278,65,111220,5,2,0:0:0:0:
210,35,111286,1,0,1:0:0:0:
143,65,111353,1,2,0:0:0:0:
123,136,111420,1,0,1:0:0:0:
155,181,111486,1,2,0:0:0:0:
188,178,111553,1,0,1:0:0:0:
199,165,111620,5,2,0:0:0:0:
200,148,111686,1,0,1:0:0:0:
183,118,111753,1,2,0:0:0:0:
138,115,111820,1,0,1:0:0:0:
100,158,111886,1,2,0:0:0:0:
115,223,111953,1,0,1:0:0:0:
192,240,112020,5,4,0:0:0:0:
220,313,112086,1,0,1:0:0:0:
179,380,112153,1,0,0:0:0:0:
99,377,112220,1,0,1:0:0:0:
59,308,112286,1,0,0:0:0:0:
97,237,112353,1,0,1:0:0:0:
175,238,112420,1,2,0:0:0:0:
237,188,112486,1,0,1:0:0:0:
235,109,112553,1,2,0:0:0:0:
286,47,112620,1,0,1:0:0:0:
364,52,112686,1,2,0:0:0:0:
412,115,112753,1,0,1:0:0:0:
395,192,112820,1,2,0:0:0:0:
329,236,112886,1,0,1:0:0:0:
336,315,112953,1,2,0:0:0:0:
400,359,113020,1,0,1:0:0:0:
472,325,113086,1,2,0:0:0:0:
482,246,113153,1,0,1:0:0:0:
424,190,113220,1,2,0:0:0:0:
346,203,113286,1,0,1:0:0:0:
278,160,113353,1,2,0:0:0:0:
267,81,113420,1,0,1:0:0:0:
201,36,113486,1,2,0:0:0:0:
123,54,113553,1,0,1:0:0:0:
86,123,113620,5,4,0:0:0:0:
112,112,113686,1,0,1:0:0:0:
133,93,113753,1,0,0:0:0:0:
140,65,113820,1,0,1:0:0:0:
158,44,113886,1,0,0:0:0:0:
182,29,113953,1,0,1:0:0:0:
210,27,114020,1,2,0:0:0:0:
235,39,114086,1,0,1:0:0:0:
253,60,114153,1,2,0:0:0:0:
260,87,114220,1,0,1:0:0:0:
256,115,114286,1,2,0:0:0:0:
242,139,114353,1,0,1:0:0:0:
217,154,114420,5,2,0:0:0:0:
216,148,114484,1,0,1:0:0:0:
216,142,114549,1,2,0:0:0:0:
217,137,114613,1,0,1:0:0:0:
219,131,114678,1,2,0:0:0:0:
221,126,114742,1,0,1:0:0:0:
224,121,114807,2,0,P|236:83|231:39,5,56.6666666666667,8|0|0|0|0|0,0:0|1:0|0:0|1:0|0:0|1:0,0:0:0:0:
350,33,115199,5,4,0:0:0:0:
317,116,115265,1,0,1:0:0:0:
365,192,115331,1,0,0:0:0:0:
455,199,115397,1,0,1:0:0:0:
491,282,115463,1,0,0:0:0:0:
439,357,115530,1,0,1:0:0:0:
349,344,115596,1,2,0:0:0:0:
315,259,115662,1,0,1:0:0:0:
231,223,115728,1,2,0:0:0:0:
154,268,115795,1,0,1:0:0:0:
66,247,115861,1,2,0:0:0:0:
29,163,115927,1,0,1:0:0:0:
71,82,115993,1,2,0:0:0:0:
159,62,116059,1,0,1:0:0:0:
227,121,116126,1,2,0:0:0:0:
234,211,116192,1,0,1:0:0:0:
305,267,116258,1,2,0:0:0:0:
394,249,116324,1,0,1:0:0:0:
439,170,116391,6,0,P|441:131|430:79,5,56.6666666666667,2|0|2|0|2|0,0:0|1:0|0:0|1:0|0:0|1:0,0:0:0:0:
323,178,116788,5,2,0:0:0:0:
285,189,116854,1,0,1:0:0:0:
246,178,116921,1,2,0:0:0:0:
221,147,116988,1,0,1:0:0:0:
218,107,117054,1,2,0:0:0:0:
192,76,117121,1,0,1:0:0:0:
153,67,117188,1,2,0:0:0:0:
118,86,117254,1,0,1:0:0:0:
101,122,117321,1,2,0:0:0:0:
106,161,117388,1,0,1:0:0:0:
131,191,117454,1,2,0:0:0:0:
139,229,117521,1,0,1:0:0:0:
122,265,117588,5,2,0:0:0:0:
119,254,117654,1,0,1:0:0:0:
118,242,117720,1,2,0:0:0:0:
118,231,117787,1,0,1:0:0:0:
121,220,117854,1,2,0:0:0:0:
125,209,117920,1,0,1:0:0:0:
131,200,117987,1,2,0:0:0:0:
138,191,118054,1,0,1:0:0:0:
147,184,118120,1,2,0:0:0:0:
156,178,118187,1,0,1:0:0:0:
167,174,118254,1,2,0:0:0:0:
178,171,118320,1,0,1:0:0:0:
189,170,118387,5,4,0:0:0:0:
102,142,118454,1,0,1:0:0:0:
94,51,118522,1,0,0:0:0:0:
173,7,118589,1,0,1:0:0:0:
249,55,118656,1,0,0:0:0:0:
257,145,118723,1,0,1:0:0:0:
336,188,118791,1,2,0:0:0:0:
416,149,118858,1,0,1:0:0:0:
425,58,118925,1,2,0:0:0:0:
352,3,118992,1,0,1:0:0:0:
267,37,119060,1,2,0:0:0:0:
253,126,119127,1,0,1:0:0:0:
190,191,119194,1,2,0:0:0:0:
99,192,119262,1,0,1:0:0:0:
41,261,119329,1,2,0:0:0:0:
77,344,119396,1,0,1:0:0:0:
166,350,119463,1,2,0:0:0:0:
211,271,119531,1,0,1:0:0:0:
170,189,119598,6,0,P|168:155|174:124,5,56.6666666666667,2|0|2|0|2|0,0:0|1:0|0:0|1:0|0:0|1:0,0:0:0:0:
82,84,120001,5,2,0:0:0:0:
117,101,120069,1,0,1:0:0:0:
156,104,120136,1,2,0:0:0:0:
191,85,120203,1,0,1:0:0:0:
212,51,120270,1,2,0:0:0:0:
245,30,120338,1,0,1:0:0:0:
284,31,120405,1,2,0:0:0:0:
318,51,120472,1,0,1:0:0:0:
336,85,120539,1,2,0:0:0:0:
333,124,120607,1,0,1:0:0:0:
347,160,120674,1,2,0:0:0:0:
380,181,120741,1,0,1:0:0:0:
419,178,120808,5,2,0:0:0:0:
407,179,120876,1,0,1:0:0:0:
397,183,120943,1,2,0:0:0:0:
387,188,121010,1,0,1:0:0:0:
378,195,121077,1,2,0:0:0:0:
370,204,121145,1,0,1:0:0:0:
364,213,121212,1,2,0:0:0:0:
360,224,121279,1,0,1:0:0:0:
357,235,121346,1,2,0:0:0:0:
356,246,121414,1,0,1:0:0:0:
357,257,121480,5,0,0:0:0:0:
329,221,121548,1,0,1:0:0:0:
284,213,121615,1,4,0:0:0:0:
240,227,121682,1,0,1:0:0:0:
217,265,121749,1,0,0:0:0:0:
221,310,121817,1,0,1:0:0:0:
247,347,121884,5,0,0:0:0:0:
253,290,121951,1,0,1:0:0:0:
220,243,122018,1,2,0:0:0:0:
163,241,122086,1,0,1:0:0:0:
118,205,122153,1,2,0:0:0:0:
114,148,122220,1,0,1:0:0:0:
153,107,122287,5,2,0:0:0:0:
136,108,122355,1,0,1:0:0:0:
119,102,122422,1,2,0:0:0:0:
106,90,122489,1,0,1:0:0:0:
98,74,122556,1,2,0:0:0:0:
95,57,122624,1,0,1:0:0:0:
101,41,122691,5,2,0:0:0:0:
125,65,122758,1,0,1:0:0:0:
126,99,122826,1,2,0:0:0:0:
106,126,122893,1,0,1:0:0:0:
102,159,122960,1,2,0:0:0:0:
117,189,123028,1,0,1:0:0:0:
147,204,123095,5,2,0:0:0:0:
174,167,123162,1,0,1:0:0:0:
218,158,123229,1,2,0:0:0:0:
259,175,123295,1,0,1:0:0:0:
277,216,123362,1,2,0:0:0:0:
265,260,123429,1,0,1:0:0:0:
230,289,123495,5,2,0:0:0:0:
235,233,123562,1,0,1:0:0:0:
279,198,123629,1,2,0:0:0:0:
335,206,123695,1,0,1:0:0:0:
385,180,123762,1,2,0:0:0:0:
400,125,123829,1,0,1:0:0:0:
371,75,123895,5,2,0:0:0:0:
367,91,123962,1,0,1:0:0:0:
365,107,124029,1,2,0:0:0:0:
366,123,124095,1,0,1:0:0:0:
371,138,124162,1,2,0:0:0:0:
379,152,124229,1,0,1:0:0:0:
392,162,124295,5,2,0:0:0:0:
365,140,124362,1,0,1:0:0:0:
331,134,124429,1,2,0:0:0:0:
299,146,124495,1,0,1:0:0:0:
280,174,124562,1,2,0:0:0:0:
250,189,124629,1,0,1:0:0:0:
215,185,124695,1,0,0:0:0:0:
188,163,124762,1,0,0:0:0:0:
174,129,124831,5,4,0:0:0:0:
168,156,124896,1,0,1:0:0:0:
163,183,124962,1,0,0:0:0:0:
158,210,125028,2,0,L|168:280,2,56.6666666666667,0|0|0,1:0|0:0|1:0,0:0:0:0:
54,190,125225,5,2,0:0:0:0:
55,217,125291,1,0,1:0:0:0:
55,245,125357,1,0,0:0:0:0:
55,272,125423,2,0,L|32:339,2,56.6666666666667,0|0|0,1:0|0:0|1:0,0:0:0:0:
218,328,125620,5,2,0:0:0:0:
234,323,125686,1,0,1:0:0:0:
250,318,125752,1,0,0:0:0:0:
266,314,125817,2,0,L|350:334,2,56.6666666666667,0|0|0,1:0|0:0|1:0,0:0:0:0:
252,216,126015,5,2,0:0:0:0:
268,218,126081,1,0,1:0:0:0:
285,220,126146,1,2,0:0:0:0:
301,221,126212,2,0,L|380:186,2,56.6666666666667,0|2|0,1:0|0:0|1:0,0:0:0:0:
466,237,126409,5,4,0:0:0:0:
467,231,126475,1,0,1:0:0:0:
468,225,126542,1,0,0:0:0:0:
469,219,126609,2,0,L|462:153,2,56.6666666666667,0|0|0,1:0|0:0|1:0,0:0:0:0:
368,187,126809,5,2,0:0:0:0:
367,181,126875,1,0,1:0:0:0:
366,175,126942,1,0,0:0:0:0:
365,169,127009,2,0,L|372:103,2,56.6666666666667,0|0|0,1:0|0:0|1:0,0:0:0:0:
237,44,127209,6,0,L|255:94,2,36.8333316472372,8|0|0,0:0|1:0|0:0,0:0:0:0:
263,143,127409,2,0,L|270:101,2,36.8333316472372,0|0|0,1:0|0:0|1:0,0:0:0:0:
141,95,127609,6,0,L|163:143,2,36.8333316472372,2|0|0,0:0|1:0|0:0,0:0:0:0:
175,191,127809,2,0,L|178:148,2,36.8333316472372,0|0|0,1:0|0:0|1:0,0:0:0:0:
83,181,128009,5,4,0:0:0:0:
136,196,128075,1,0,1:0:0:0:
170,241,128142,1,2,0:0:0:0:
170,297,128209,1,0,1:0:0:0:
133,340,128276,1,2,0:0:0:0:
78,351,128342,1,0,1:0:0:0:
32,316,128409,5,2,0:0:0:0:
43,315,128476,1,0,1:0:0:0:
54,316,128543,1,2,0:0:0:0:
64,319,128609,1,0,1:0:0:0:
74,323,128676,1,2,0:0:0:0:
83,329,128743,1,0,1:0:0:0:
90,337,128810,5,2,0:0:0:0:
77,282,128876,1,0,1:0:0:0:
97,229,128943,1,2,0:0:0:0:
146,201,129010,1,0,1:0:0:0:
202,209,129077,1,2,0:0:0:0:
237,252,129143,1,0,1:0:0:0:
241,308,129210,5,2,0:0:0:0:
239,296,129277,1,0,1:0:0:0:
239,284,129344,1,2,0:0:0:0:
243,273,129410,1,0,1:0:0:0:
249,263,129477,1,2,0:0:0:0:
258,257,129544,1,0,1:0:0:0:
268,251,129611,5,2,0:0:0:0:
212,249,129677,1,0,1:0:0:0:
171,209,129744,1,2,0:0:0:0:
183,153,129811,1,0,1:0:0:0:
147,102,129878,1,2,0:0:0:0:
91,99,129944,1,0,1:0:0:0:
52,141,130011,5,2,0:0:0:0:
61,147,130078,1,0,1:0:0:0:
71,151,130145,1,2,0:0:0:0:
82,152,130211,1,0,1:0:0:0:
93,151,130278,1,2,0:0:0:0:
104,148,130345,1,0,1:0:0:0:
114,144,130412,5,2,0:0:0:0:
131,197,130478,1,0,1:0:0:0:
182,221,130545,1,2,0:0:0:0:
236,205,130612,1,0,1:0:0:0:
260,153,130679,1,2,0:0:0:0:
243,99,130745,1,0,1:0:0:0:
194,69,130812,5,2,0:0:0:0:
199,79,130879,1,0,1:0:0:0:
206,87,130946,1,2,0:0:0:0:
214,94,131013,1,0,1:0:0:0:
223,100,131079,1,2,0:0:0:0:
233,104,131146,1,0,1:0:0:0:
243,107,131213,5,4,0:0:0:0:
213,141,131280,1,0,1:0:0:0:
211,185,131346,1,2,0:0:0:0:
236,222,131413,1,0,1:0:0:0:
278,237,131480,1,2,0:0:0:0:
299,276,131547,1,0,1:0:0:0:
289,319,131613,6,0,P|262:346|203:362,1,56.6666666666667,2|0,0:0|1:0,0:0:0:0:
159,350,131747,2,0,P|186:354|214:350,1,56.6666666666667,2|0,3:0|1:0,3:0:0:0:
271,281,131880,2,0,P|254:315|204:350,1,56.6666666666667,2|0,0:0|1:0,0:0:0:0:
148,262,132014,5,2,0:0:0:0:
113,232,132081,1,0,1:0:0:0:
68,233,132147,1,2,0:0:0:0:
31,206,132214,1,0,1:0:0:0:
28,160,132281,1,2,0:0:0:0:
58,126,132348,1,0,1:0:0:0:
102,120,132414,6,0,P|131:140|148:174,1,56.6666666666667,2|0,0:0|1:0,0:0:0:0:
171,231,132548,2,0,P|172:202|164:176,1,56.6666666666667,2|0,0:0|1:0,0:0:0:0:
152,97,132681,2,0,P|172:125|176:163,1,56.6666666666667,2|0,0:0|1:0,0:0:0:0:
263,219,132815,5,2,0:0:0:0:
308,222,132882,1,0,1:0:0:0:
345,197,132948,1,2,0:0:0:0:
354,152,133015,1,0,1:0:0:0:
329,113,133082,1,2,0:0:0:0:
325,67,133149,1,0,1:0:0:0:
358,37,133215,6,0,P|400:39|430:55,1,56.6666666666667,2|0,0:0|1:0,0:0:0:0:
481,114,133349,2,0,P|465:90|443:72,1,56.6666666666667,2|0,0:0|1:0,0:0:0:0:
349,88,133482,2,0,P|389:75|422:80,1,56.6666666666667,2|0,0:0|1:0,0:0:0:0:
458,184,133616,5,2,0:0:0:0:
412,178,133683,1,0,1:0:0:0:
373,201,133749,1,2,0:0:0:0:
360,244,133816,1,0,1:0:0:0:
329,277,133883,1,2,0:0:0:0:
283,278,133950,1,0,1:0:0:0:
249,247,134017,6,0,P|248:209|257:181,1,56.6666666666667,2|0,0:0|1:0,0:0:0:0:
287,105,134150,2,0,P|264:122|248:145,1,56.6666666666667,2|0,0:0|1:0,0:0:0:0:
208,232,134284,2,0,P|213:194|227:168,1,56.6666666666667,2|0,0:0|1:0,0:0:0:0:
159,74,134417,5,4,0:0:0:0:
172,129,134484,1,0,1:0:0:0:
146,179,134551,1,2,0:0:0:0:
91,190,134617,1,0,1:0:0:0:
62,239,134684,1,2,0:0:0:0:
78,293,134751,1,0,1:0:0:0:
128,319,134818,5,2,0:0:0:0:
128,307,134884,1,0,1:0:0:0:
125,296,134951,1,2,0:0:0:0:
119,286,135018,1,0,1:0:0:0:
110,278,135085,1,2,0:0:0:0:
99,273,135151,1,0,1:0:0:0:
87,271,135218,5,2,0:0:0:0:
143,264,135285,1,0,1:0:0:0:
178,219,135352,1,2,0:0:0:0:
176,163,135418,1,0,1:0:0:0:
138,120,135485,1,2,0:0:0:0:
133,63,135552,1,0,1:0:0:0:
174,23,135619,5,2,0:0:0:0:
179,32,135685,1,0,1:0:0:0:
181,43,135752,1,2,0:0:0:0:
181,54,135819,1,0,1:0:0:0:
180,65,135886,1,2,0:0:0:0:
176,75,135952,1,0,1:0:0:0:
172,85,136019,5,2,0:0:0:0:
223,61,136086,1,0,1:0:0:0:
278,74,136153,1,2,0:0:0:0:
305,123,136219,1,0,1:0:0:0:
299,179,136286,1,2,0:0:0:0:
321,231,136353,1,0,1:0:0:0:
375,245,136420,5,2,0:0:0:0:
367,236,136486,1,0,1:0:0:0:
357,230,136553,1,2,0:0:0:0:
345,227,136620,1,0,1:0:0:0:
333,225,136687,1,2,0:0:0:0:
321,226,136753,1,0,1:0:0:0:
310,230,136820,5,2,0:0:0:0:
327,175,136887,1,0,1:0:0:0:
305,123,136954,1,2,0:0:0:0:
250,105,137021,1,0,1:0:0:0:
200,131,137087,1,2,0:0:0:0:
184,185,137154,1,0,1:0:0:0:
205,237,137221,6,0,P|208:265|201:303,5,56.6666666666667,2|0|2|0|2|0,0:0|1:0|0:0|1:0|0:0|1:0,0:0:0:0:
106,349,137621,5,6,0:0:0:0:
153,299,137688,1,0,1:0:0:0:
220,292,137755,1,2,0:0:0:0:
262,345,137822,1,0,1:0:0:0:
328,354,137888,1,2,0:0:0:0:
384,316,137955,1,0,1:0:0:0:
395,248,138022,1,2,0:0:0:0:
356,191,138089,1,0,1:0:0:0:
289,179,138155,1,2,0:0:0:0:
230,214,138222,1,0,1:0:0:0:
204,277,138289,1,2,0:0:0:0:
138,295,138356,1,0,1:0:0:0:
81,258,138422,1,2,0:0:0:0:
68,190,138489,1,0,1:0:0:0:
111,137,138556,1,2,0:0:0:0:
131,72,138623,1,0,1:0:0:0:
85,22,138689,1,2,0:0:0:0:
18,38,138756,1,0,1:0:0:0:
2,104,138823,1,2,0:0:0:0:
45,156,138890,1,0,1:0:0:0:
111,145,138956,1,2,0:0:0:0:
151,90,139023,1,0,1:0:0:0:
219,87,139090,1,2,0:0:0:0:
266,136,139157,1,0,1:0:0:0:
261,203,139223,5,4,0:0:0:0:
249,183,139290,1,0,1:0:0:0:
246,160,139357,1,2,0:0:0:0:
254,138,139424,1,0,1:0:0:0:
271,124,139490,1,2,0:0:0:0:
293,121,139557,1,0,1:0:0:0:
314,127,139624,1,2,0:0:0:0:
336,126,139691,1,0,1:0:0:0:
356,116,139757,1,2,0:0:0:0:
371,99,139824,1,0,1:0:0:0:
375,76,139891,1,2,0:0:0:0:
369,53,139958,1,0,1:0:0:0:
352,37,140025,5,2,0:0:0:0:
333,113,140091,1,0,1:0:0:0:
378,178,140158,1,2,0:0:0:0:
457,182,140225,1,0,1:0:0:0:
498,250,140292,1,2,0:0:0:0:
469,323,140358,1,0,1:0:0:0:
391,340,140425,2,0,P|366:333|339:315,5,56.6666666666667,8|0|0|0|0|0,0:0|1:0|0:0|1:0|0:0|1:0,0:0:0:0:
347,211,140826,5,4,0:0:0:0:
271,173,140891,1,0,1:0:0:0:
191,205,140957,1,2,0:0:0:0:
166,285,141022,1,0,1:0:0:0:
87,318,141088,1,2,0:0:0:0:
15,273,141153,1,0,1:0:0:0:
5,187,141219,1,2,0:0:0:0:
65,126,141285,1,0,1:0:0:0:
148,139,141350,1,2,0:0:0:0:
188,214,141416,1,0,1:0:0:0:
267,240,141481,1,2,0:0:0:0:
339,195,141547,1,0,1:0:0:0:
345,111,141612,1,2,0:0:0:0:
412,58,141678,1,0,1:0:0:0:
491,89,141744,1,2,0:0:0:0:
506,173,141810,1,0,1:0:0:0:
446,233,141875,1,2,0:0:0:0:
364,208,141941,1,0,1:0:0:0:
336,126,142007,1,2,0:0:0:0:
254,103,142072,1,0,1:0:0:0:
179,145,142138,1,2,0:0:0:0:
177,229,142203,1,0,1:0:0:0:
129,300,142269,1,2,0:0:0:0:
44,302,142334,1,0,1:0:0:0:
5,229,142399,6,0,P|50:221|89:227,1,56.6666666666667,2|0,0:0|1:0,0:0:0:0:
253,235,142533,2,0,P|207:238|172:254,1,56.6666666666667,2|0,0:0|1:0,0:0:0:0:
77,372,142667,2,0,P|103:358|125:340,1,56.6666666666667,2|0,0:0|1:0,0:0:0:0:
123,184,142801,5,2,0:0:0:0:
157,114,142868,1,0,1:0:0:0:
223,89,142935,1,2,0:0:0:0:
283,118,143002,1,0,1:0:0:0:
307,174,143069,1,2,0:0:0:0:
358,198,143136,1,0,1:0:0:0:
411,185,143203,1,2,0:0:0:0:
438,138,143271,1,0,1:0:0:0:
433,88,143338,1,2,0:0:0:0:
397,57,143405,1,0,1:0:0:0:
352,57,143472,1,2,0:0:0:0:
323,77,143539,1,0,1:0:0:0:
311,104,143607,1,2,0:0:0:0:
294,126,143675,1,0,1:0:0:0:
270,134,143743,1,2,0:0:0:0:
247,133,143811,1,0,1:0:0:0:
231,120,143879,1,2,0:0:0:0:
224,107,143947,1,0,1:0:0:0:
260,41,144015,5,12,0:0:0:0:
222,66,144082,1,0,1:0:0:0:
177,65,144149,1,2,0:0:0:0:
142,35,144216,1,0,1:0:0:0:
96,35,144283,1,2,0:0:0:0:
60,63,144350,1,0,1:0:0:0:
52,107,144417,1,2,0:0:0:0:
72,147,144484,1,0,1:0:0:0:
112,167,144551,1,2,0:0:0:0:
157,161,144619,1,0,1:0:0:0:
200,172,144686,1,2,0:0:0:0:
223,210,144753,1,0,1:0:0:0:
213,254,144820,1,2,0:0:0:0:
177,282,144887,1,0,1:0:0:0:
132,281,144954,1,2,0:0:0:0:
106,243,145021,1,0,1:0:0:0:
106,197,145088,1,2,0:0:0:0:
136,163,145155,1,0,1:0:0:0:
177,147,145223,1,2,0:0:0:0:
201,108,145290,1,0,1:0:0:0:
201,62,145357,1,2,0:0:0:0:
225,23,145424,1,0,1:0:0:0:
268,13,145491,1,2,0:0:0:0:
310,30,145558,1,0,1:0:0:0:
331,70,145625,1,2,0:0:0:0:
327,115,145692,1,0,1:0:0:0:
345,156,145759,1,2,0:0:0:0:
388,168,145827,1,0,1:0:0:0:
430,150,145894,1,2,0:0:0:0:
450,109,145961,1,0,1:0:0:0:
436,65,146028,1,2,0:0:0:0:
395,45,146095,1,0,1:0:0:0:
349,49,146162,1,2,0:0:0:0:
323,86,146229,1,0,1:0:0:0:
318,131,146296,1,2,0:0:0:0:
288,164,146363,1,0,1:0:0:0:
242,170,146431,1,2,0:0:0:0:
199,155,146498,1,0,1:0:0:0:
154,164,146565,1,2,0:0:0:0:
132,203,146632,1,0,1:0:0:0:
141,247,146699,1,2,0:0:0:0:
181,268,146766,1,0,1:0:0:0:
225,260,146833,5,2,0:0:0:0:
181,215,146900,1,0,1:0:0:0:
118,221,146968,1,2,0:0:0:0:
82,272,147035,1,0,1:0:0:0:
94,333,147102,1,2,0:0:0:0:
145,367,147169,1,0,1:0:0:0:
204,348,147236,5,4,0:0:0:0:
165,323,147302,1,0,1:0:0:0:
119,324,147369,1,2,0:0:0:0:
82,349,147436,1,0,1:0:0:0:
36,347,147502,1,2,0:0:0:0:
5,313,147569,1,0,1:0:0:0:
6,267,147636,1,2,0:0:0:0:
34,232,147702,1,0,1:0:0:0:
79,227,147769,1,2,0:0:0:0:
113,196,147836,1,0,1:0:0:0:
117,150,147902,1,2,0:0:0:0:
91,113,147969,1,0,1:0:0:0:
95,67,148036,1,2,0:0:0:0:
131,40,148102,1,0,1:0:0:0:
175,47,148169,1,2,0:0:0:0:
202,82,148236,1,0,1:0:0:0:
203,127,148302,1,2,0:0:0:0:
226,166,148369,1,0,1:0:0:0:
269,178,148436,1,2,0:0:0:0:
311,164,148502,1,0,1:0:0:0:
356,170,148569,1,2,0:0:0:0:
388,201,148636,1,0,1:0:0:0:
392,246,148702,1,2,0:0:0:0:
372,287,148769,1,0,1:0:0:0:
377,331,148836,1,2,0:0:0:0:
411,360,148902,1,0,1:0:0:0:
456,360,148969,1,2,0:0:0:0:
490,330,149036,1,0,1:0:0:0:
496,285,149102,1,2,0:0:0:0:
472,245,149169,1,0,1:0:0:0:
429,229,149236,1,2,0:0:0:0:
403,191,149302,1,0,1:0:0:0:
407,146,149369,1,2,0:0:0:0:
436,111,149436,1,0,1:0:0:0:
441,65,149502,1,2,0:0:0:0:
412,29,149569,1,0,1:0:0:0:
367,24,149636,1,2,0:0:0:0:
329,49,149702,1,0,1:0:0:0:
316,92,149769,1,2,0:0:0:0:
285,125,149836,1,0,1:0:0:0:
240,131,149902,1,2,0:0:0:0:
199,110,149969,1,0,1:0:0:0:
153,115,150036,1,2,0:0:0:0:
128,153,150102,1,0,1:0:0:0:
131,197,150169,1,2,0:0:0:0:
165,226,150236,1,0,1:0:0:0:
210,227,150302,1,2,0:0:0:0:
246,253,150369,1,0,1:0:0:0:
253,297,150436,5,4,0:0:0:0:
212,256,150502,1,0,1:0:0:0:
225,200,150569,1,2,0:0:0:0:
278,181,150636,1,0,1:0:0:0:
305,132,150702,1,2,0:0:0:0:
285,78,150769,1,0,1:0:0:0:
231,58,150836,1,2,0:0:0:0:
181,85,150902,1,0,1:0:0:0:
168,139,150969,1,2,0:0:0:0:
118,167,151036,1,0,1:0:0:0:
61,159,151102,1,2,0:0:0:0:
14,191,151169,1,0,1:0:0:0:
9,246,151236,1,2,0:0:0:0:
40,293,151302,1,0,1:0:0:0:
96,297,151369,1,2,0:0:0:0:
140,261,151436,1,0,1:0:0:0:
196,262,151502,1,2,0:0:0:0:
242,294,151569,1,0,1:0:0:0:
255,349,151636,1,2,0:0:0:0:
306,372,151702,1,0,1:0:0:0:
360,355,151769,1,2,0:0:0:0:
378,302,151836,1,0,1:0:0:0:
358,248,151902,1,2,0:0:0:0:
303,230,151969,1,0,1:0:0:0:
254,259,152036,5,4,0:0:0:0:
269,228,152102,1,0,1:0:0:0:
264,194,152169,1,2,0:0:0:0:
239,170,152236,1,0,1:0:0:0:
205,165,152302,1,2,0:0:0:0:
179,142,152369,1,0,1:0:0:0:
173,108,152436,1,2,0:0:0:0:
185,76,152500,1,0,1:0:0:0:
213,57,152565,1,2,0:0:0:0:
246,57,152630,1,0,1:0:0:0:
274,74,152695,1,2,0:0:0:0:
286,105,152760,1,0,1:0:0:0:
280,138,152825,5,4,0:0:0:0:
266,148,152890,1,8,0:0:0:0:
252,158,152955,1,8,0:0:0:0:
238,168,153020,1,8,0:0:0:0:
225,179,153085,1,8,0:0:0:0:
212,189,153150,1,8,0:0:0:0:
170,203,153215,5,4,0:0:0:0:
179,209,153287,1,4,0:0:0:0:
188,215,153358,1,4,0:0:0:0:
197,221,153429,1,4,0:0:0:0:
206,227,153500,1,4,0:0:0:0:
215,233,153572,1,4,0:0:0:0:
264,239,153643,5,4,0:0:0:0:
264,238,164843,5,12,0:0:0:0:
188,204,164969,1,8,0:0:0:0:
344,119,165222,5,8,0:0:0:0:
319,132,165286,1,8,0:0:0:0:
291,139,165350,1,8,0:0:0:0:
263,137,165414,1,8,0:0:0:0:
237,127,165478,1,8,0:0:0:0:
215,110,165542,1,8,0:0:0:0:
198,87,165606,5,8,0:0:0:0:
198,92,165670,1,8,0:0:0:0:
197,97,165734,1,8,0:0:0:0:
196,102,165798,1,8,0:0:0:0:
195,107,165863,1,8,0:0:0:0:
194,112,165927,1,8,0:0:0:0:
193,117,165991,5,4,0:0:0:0:
168,103,166061,1,4,0:0:0:0:
140,96,166131,1,4,0:0:0:0:
112,98,166202,1,4,0:0:0:0:
86,108,166272,1,4,0:0:0:0:
64,125,166343,1,4,0:0:0:0:
47,148,166413,6,0,L|39:209,3,42.5,4|0|0|0,0:0|0:0|0:0|0:0,0:0:0:0:
122,233,166813,1,0,0:0:0:0:
124,241,166914,1,0,0:0:0:0:
126,248,167014,1,0,0:0:0:0:
128,255,167114,1,0,0:0:0:0:
217,323,167214,5,8,0:0:0:0:
219,314,167314,1,0,0:0:0:0:
221,305,167415,1,0,0:0:0:0:
223,296,167515,1,0,0:0:0:0:
196,191,167615,5,8,0:0:0:0:
266,242,167715,1,8,0:0:0:0:
349,222,167815,1,4,0:0:0:0:
380,142,167916,1,4,0:0:0:0:
344,63,168016,5,4,0:0:0:0:
342,71,168116,1,0,0:0:0:0:
340,79,168216,1,0,0:0:0:0:
338,87,168316,1,0,0:0:0:0:
336,95,168417,1,0,0:0:0:0:
335,103,168517,1,0,0:0:0:0:
334,111,168617,1,0,0:0:0:0:
333,119,168717,1,0,0:0:0:0:
250,187,168817,5,8,0:0:0:0:
248,178,168918,1,0,0:0:0:0:
246,169,169018,1,0,0:0:0:0:
244,160,169118,1,0,0:0:0:0:
154,102,169218,5,8,0:0:0:0:
155,110,169318,1,0,0:0:0:0:
274,49,169419,5,8,0:0:0:0:
273,40,169519,1,0,0:0:0:0:
111,17,169619,5,12,0:0:0:0:
106,24,169720,1,0,0:0:0:0:
101,31,169822,1,0,0:0:0:0:
96,38,169924,1,0,0:0:0:0:
92,45,170025,1,0,0:0:0:0:
88,52,170127,1,0,0:0:0:0:
84,59,170229,1,0,0:0:0:0:
80,66,170330,1,0,0:0:0:0:
76,73,170432,1,0,0:0:0:0:
72,80,170534,1,0,0:0:0:0:
68,87,170635,1,0,0:0:0:0:
64,94,170737,1,0,0:0:0:0:
60,101,170839,5,8,0:0:0:0:
66,189,170935,1,8,0:0:0:0:
146,220,171031,1,8,0:0:0:0:
212,167,171127,1,8,0:0:0:0:
211,82,171222,5,4,0:0:0:0:
216,88,171323,1,0,0:0:0:0:
221,94,171424,1,0,0:0:0:0:
226,100,171526,1,0,0:0:0:0:
231,106,171627,1,0,0:0:0:0:
236,112,171728,1,0,0:0:0:0:
241,118,171830,1,0,0:0:0:0:
246,124,171931,1,0,0:0:0:0:
250,130,172032,1,0,0:0:0:0:
254,136,172132,1,0,0:0:0:0:
259,142,172232,1,0,0:0:0:0:
263,148,172332,1,0,0:0:0:0:
252,255,172424,5,8,0:0:0:0:
255,262,172524,1,0,0:0:0:0:
365,189,172624,5,8,0:0:0:0:
363,180,172724,1,0,0:0:0:0:
181,192,172825,5,12,0:0:0:0:
179,200,172926,1,0,0:0:0:0:
177,208,173026,1,0,0:0:0:0:
175,216,173126,1,0,0:0:0:0:
173,224,173226,1,0,0:0:0:0:
171,232,173326,1,0,0:0:0:0:
169,240,173427,1,0,0:0:0:0:
167,248,173527,1,0,0:0:0:0:
166,256,173627,1,0,0:0:0:0:
165,264,173727,1,0,0:0:0:0:
164,272,173827,1,0,0:0:0:0:
163,280,173928,1,0,0:0:0:0:
230,360,174028,5,8,0:0:0:0:
232,368,174128,1,0,0:0:0:0:
107,349,174228,5,8,0:0:0:0:
109,340,174328,1,0,0:0:0:0:
248,291,174429,5,12,0:0:0:0:
256,293,174529,1,0,0:0:0:0:
264,295,174629,1,0,0:0:0:0:
272,297,174729,1,0,0:0:0:0:
280,299,174829,1,0,0:0:0:0:
288,301,174930,1,0,0:0:0:0:
296,303,175030,1,0,0:0:0:0:
304,305,175130,1,0,0:0:0:0:
312,307,175230,1,0,0:0:0:0:
320,309,175330,1,0,0:0:0:0:
328,311,175431,1,0,0:0:0:0:
336,313,175531,1,0,0:0:0:0:
344,315,175631,5,8,0:0:0:0:
316,230,175731,1,8,0:0:0:0:
366,158,175831,1,4,0:0:0:0:
452,156,175932,1,4,0:0:0:0:
506,225,176032,5,4,0:0:0:0:
484,212,176133,1,0,0:0:0:0:
457,210,176234,1,0,0:0:0:0:
432,218,176336,1,0,0:0:0:0:
413,235,176437,1,0,0:0:0:0:
403,258,176538,1,0,0:0:0:0:
401,283,176640,1,0,0:0:0:0:
392,306,176741,1,0,0:0:0:0:
372,321,176842,1,0,0:0:0:0:
347,327,176944,1,0,0:0:0:0:
321,323,177045,1,0,0:0:0:0:
301,306,177146,1,0,0:0:0:0:
290,282,177248,5,0,0:0:0:0:
235,348,177349,1,8,0:0:0:0:
149,347,177450,1,4,0:0:0:0:
97,278,177552,1,4,0:0:0:0:
118,192,177653,5,4,0:0:0:0:
110,195,177750,1,0,0:0:0:0:
102,198,177847,1,0,0:0:0:0:
94,201,177945,1,0,0:0:0:0:
86,204,178042,5,4,0:0:0:0:
30,138,178140,1,4,0:0:0:0:
54,55,178237,1,4,0:0:0:0:
134,27,178334,1,4,0:0:0:0:
201,81,178432,6,0,L|205:108,1,25.5,12|0,0:0|2:0,0:0:0:0:
191,168,178821,2,0,L|195:141,1,25.5,12|0,0:0|2:0,0:0:0:0:
289,65,179237,5,4,0:0:0:0:
301,107,179303,1,0,1:0:0:0:
336,135,179370,1,2,0:0:0:0:
381,141,179437,1,0,1:0:0:0:
423,127,179503,1,2,0:0:0:0:
466,141,179570,1,0,1:0:0:0:
494,176,179637,1,2,0:0:0:0:
489,220,179703,1,0,1:0:0:0:
459,254,179770,1,2,0:0:0:0:
414,263,179837,1,0,1:0:0:0:
376,237,179903,1,2,0:0:0:0:
330,232,179970,1,0,1:0:0:0:
292,257,180037,2,0,L|269:326,1,56.6666666666667,8|0,0:0|1:0,0:0:0:0:
204,357,180170,1,2,0:0:0:0:
158,361,180237,1,0,1:0:0:0:
121,334,180303,1,2,0:0:0:0:
111,289,180370,1,0,1:0:0:0:
125,245,180437,1,2,0:0:0:0:
160,217,180503,1,0,1:0:0:0:
170,172,180570,1,2,0:0:0:0:
153,129,180637,1,0,1:0:0:0:
110,114,180703,1,2,0:0:0:0:
67,129,180770,1,0,1:0:0:0:
44,168,180837,5,8,0:0:0:0:
99,162,180903,1,0,1:0:0:0:
139,121,180970,1,2,0:0:0:0:
146,64,181037,1,0,1:0:0:0:
183,22,181103,1,2,0:0:0:0:
239,13,181170,1,0,1:0:0:0:
286,44,181237,1,2,0:0:0:0:
295,99,181303,1,0,1:0:0:0:
270,150,181370,1,2,0:0:0:0:
281,205,181437,1,0,1:0:0:0:
331,230,181503,1,2,0:0:0:0:
387,223,181570,1,0,1:0:0:0:
423,179,181637,6,0,L|440:109,1,56.6666666666667,8|0,0:0|1:0,0:0:0:0:
331,39,181770,2,0,L|348:109,1,56.6666666666667,2|0,0:0|1:0,0:0:0:0:
411,165,181903,2,0,L|428:95,1,56.6666666666667,2|0,0:0|1:0,0:0:0:0:
262,92,182037,5,2,0:0:0:0:
252,147,182103,1,0,1:0:0:0:
243,203,182170,2,0,L|179:151,1,56.6666666666667,8|0,0:0|1:0,0:0:0:0:
102,107,182303,1,2,0:0:0:0:
92,162,182370,1,0,1:0:0:0:
83,218,182437,5,4,0:0:0:0:
115,207,182503,1,0,1:0:0:0:
147,216,182570,1,2,0:0:0:0:
168,242,182637,1,0,1:0:0:0:
168,275,182703,1,2,0:0:0:0:
150,304,182770,1,0,1:0:0:0:
147,338,182837,1,2,0:0:0:0:
168,363,182903,1,0,1:0:0:0:
200,372,182970,1,2,0:0:0:0:
232,361,183037,1,0,1:0:0:0:
248,331,183103,1,2,0:0:0:0:
247,296,183170,1,0,1:0:0:0:
222,272,183237,2,0,L|159:245,1,56.6666666666667,8|0,0:0|1:0,0:0:0:0:
147,154,183370,1,2,0:0:0:0:
150,119,183437,1,0,1:0:0:0:
171,92,183503,1,2,0:0:0:0:
203,82,183570,1,0,1:0:0:0:
235,92,183637,1,2,0:0:0:0:
258,115,183703,1,0,1:0:0:0:
288,129,183770,1,2,0:0:0:0:
321,123,183837,1,0,1:0:0:0:
344,98,183903,1,2,0:0:0:0:
353,65,183970,1,0,1:0:0:0:
342,32,184037,5,2,0:0:0:0:
317,69,184103,1,0,1:0:0:0:
319,114,184170,1,2,0:0:0:0:
342,153,184237,1,0,1:0:0:0:
349,197,184303,1,2,0:0:0:0:
333,239,184370,1,0,1:0:0:0:
295,264,184437,6,0,L|238:256,3,56.6666666666667,2|0|2|0,0:0|1:0|0:0|1:0,0:0:0:0:
156,190,184703,1,2,0:0:0:0:
161,235,184770,1,0,1:0:0:0:
166,280,184837,5,8,0:0:0:0:
147,251,184903,1,0,1:0:0:0:
115,238,184970,1,2,0:0:0:0:
82,248,185037,1,0,1:0:0:0:
62,275,185103,1,2,0:0:0:0:
60,309,185170,1,0,1:0:0:0:
77,338,185237,5,2,0:0:0:0:
79,327,185303,1,0,1:0:0:0:
78,315,185370,1,2,0:0:0:0:
74,304,185437,1,0,1:0:0:0:
67,294,185503,1,2,0:0:0:0:
58,286,185570,1,0,1:0:0:0:
47,281,185637,5,4,0:0:0:0:
91,279,185703,1,0,1:0:0:0:
128,252,185770,1,2,0:0:0:0:
143,209,185837,1,0,1:0:0:0:
127,166,185903,1,2,0:0:0:0:
129,120,185970,1,0,1:0:0:0:
160,86,186037,1,2,0:0:0:0:
204,79,186103,1,0,1:0:0:0:
245,97,186170,1,2,0:0:0:0:
268,135,186237,1,0,1:0:0:0:
310,149,186303,1,2,0:0:0:0:
354,138,186370,1,0,1:0:0:0:
380,100,186437,2,0,L|393:30,1,56.6666666666667,8|0,0:0|1:0,0:0:0:0:
495,8,186570,1,2,0:0:0:0:
503,52,186637,1,0,1:0:0:0:
492,95,186703,1,2,0:0:0:0:
456,123,186770,1,0,1:0:0:0:
443,166,186837,1,2,0:0:0:0:
457,208,186903,1,0,1:0:0:0:
494,233,186970,1,2,0:0:0:0:
505,277,187037,1,0,1:0:0:0:
486,318,187103,1,2,0:0:0:0:
443,333,187170,1,0,1:0:0:0:
401,314,187237,5,2,0:0:0:0:
380,366,187303,1,0,1:0:0:0:
324,379,187370,1,2,0:0:0:0:
278,344,187437,1,0,1:0:0:0:
273,288,187503,1,2,0:0:0:0:
232,247,187570,1,0,1:0:0:0:
175,253,187637,1,2,0:0:0:0:
139,296,187703,1,0,1:0:0:0:
82,304,187770,1,2,0:0:0:0:
34,272,187837,1,0,1:0:0:0:
28,216,187903,1,2,0:0:0:0:
56,166,187970,1,0,1:0:0:0:
112,156,188037,6,0,L|175:164,2,56.6666666666667,8|0|2,0:0|1:0|0:0,0:0:0:0:
175,72,188237,1,0,1:0:0:0:
227,91,188303,1,2,0:0:0:0:
280,110,188370,1,0,1:0:0:0:
333,129,188437,5,2,0:0:0:0:
322,125,188503,1,0,1:0:0:0:
310,123,188570,1,2,0:0:0:0:
298,122,188637,1,0,1:0:0:0:
286,123,188703,1,2,0:0:0:0:
274,125,188770,1,0,1:0:0:0:
263,128,188837,5,4,0:0:0:0:
288,65,188903,1,0,1:0:0:0:
243,13,188970,1,0,0:0:0:0:
176,29,189037,1,0,1:0:0:0:
155,93,189103,1,0,0:0:0:0:
90,116,189170,1,0,1:0:0:0:
29,84,189237,5,8,0:0:0:0:
73,92,189303,1,0,1:0:0:0:
100,127,189370,1,2,0:0:0:0:
100,172,189437,1,0,1:0:0:0:
74,209,189503,1,2,0:0:0:0:
68,254,189570,1,0,1:0:0:0:
94,291,189637,1,2,0:0:0:0:
138,299,189703,1,0,1:0:0:0:
179,280,189770,1,2,0:0:0:0:
196,238,189837,1,0,1:0:0:0:
231,211,189903,1,2,0:0:0:0:
276,214,189970,1,0,1:0:0:0:
307,247,190037,2,0,L|304:313,5,56.6666666666667,2|0|2|0|2|0,0:0|1:0|0:0|1:0|0:0|1:0,0:0:0:0:
244,358,190437,5,4,0:0:0:0:
258,315,190503,1,0,1:0:0:0:
291,283,190570,1,0,0:0:0:0:
336,278,190637,1,0,1:0:0:0:
375,298,190703,1,0,0:0:0:0:
396,337,190770,1,0,1:0:0:0:
394,382,190837,5,8,0:0:0:0:
376,353,190903,1,0,1:0:0:0:
374,318,190970,1,0,0:0:0:0:
386,286,191037,1,0,1:0:0:0:
413,266,191103,1,0,0:0:0:0:
447,262,191170,1,0,1:0:0:0:
478,274,191237,5,4,0:0:0:0:
462,257,191303,1,0,1:0:0:0:
452,236,191370,1,0,0:0:0:0:
451,213,191437,1,0,1:0:0:0:
456,191,191503,1,0,0:0:0:0:
470,173,191570,1,0,1:0:0:0:
490,164,191637,5,8,0:0:0:0:
478,165,191703,1,0,1:0:0:0:
466,164,191770,1,0,0:0:0:0:
455,160,191837,1,0,1:0:0:0:
444,155,191903,1,0,0:0:0:0:
435,147,191970,1,0,1:0:0:0:
429,136,192037,5,4,0:0:0:0:
392,161,192102,1,0,1:0:0:0:
347,152,192168,1,0,0:0:0:0:
320,115,192234,1,0,1:0:0:0:
325,70,192300,1,0,0:0:0:0:
302,30,192365,1,0,1:0:0:0:
258,15,192431,1,2,0:0:0:0:
216,32,192497,1,0,1:0:0:0:
194,72,192563,1,2,0:0:0:0:
150,85,192629,1,0,1:0:0:0:
108,67,192694,1,2,0:0:0:0:
63,75,192760,1,0,1:0:0:0:
34,110,192826,1,2,0:0:0:0:
31,154,192892,1,0,1:0:0:0:
55,192,192958,1,2,0:0:0:0:
98,207,193023,1,0,1:0:0:0:
141,197,193089,1,2,0:0:0:0:
170,162,193155,1,0,1:0:0:0:
212,144,193221,1,2,0:0:0:0:
255,154,193287,1,0,1:0:0:0:
284,188,193351,1,2,0:0:0:0:
289,233,193417,1,0,1:0:0:0:
269,273,193483,1,2,0:0:0:0:
230,296,193549,1,0,1:0:0:0:
184,294,193614,5,2,0:0:0:0:
226,257,193681,1,0,1:0:0:0:
282,257,193747,1,2,0:0:0:0:
326,292,193814,1,0,1:0:0:0:
335,347,193881,1,2,0:0:0:0:
381,379,193947,1,0,1:0:0:0:
437,370,194014,1,2,0:0:0:0:
473,327,194081,1,0,1:0:0:0:
468,270,194147,1,2,0:0:0:0:
428,228,194214,1,0,1:0:0:0:
420,172,194281,1,2,0:0:0:0:
447,122,194347,1,0,1:0:0:0:
500,102,194414,6,0,L|434:86,2,56.6666666666667,2|0|2,0:0|1:0|0:0,0:0:0:0:
375,177,194614,2,0,L|441:161,2,56.6666666666667,0|2|0,1:0|0:0|1:0,0:0:0:0:
340,75,194814,5,2,0:0:0:0:
329,87,194881,1,0,1:0:0:0:
315,97,194947,1,2,0:0:0:0:
299,102,195014,1,0,1:0:0:0:
282,103,195081,1,2,0:0:0:0:
265,99,195147,1,0,1:0:0:0:
250,91,195214,5,4,0:0:0:0:
254,125,195281,1,0,1:0:0:0:
245,158,195347,1,2,0:0:0:0:
218,180,195414,1,0,1:0:0:0:
184,183,195481,1,2,0:0:0:0:
154,200,195547,1,0,1:0:0:0:
136,229,195614,1,2,0:0:0:0:
134,262,195681,1,0,1:0:0:0:
145,294,195747,1,2,0:0:0:0:
168,318,195814,1,0,1:0:0:0:
200,326,195881,1,2,0:0:0:0:
233,318,195947,1,0,1:0:0:0:
259,296,196014,1,2,0:0:0:0:
273,265,196081,1,0,1:0:0:0:
302,247,196147,1,2,0:0:0:0:
336,245,196214,1,0,1:0:0:0:
365,260,196281,1,2,0:0:0:0:
379,290,196347,1,0,1:0:0:0:
404,312,196414,1,2,0:0:0:0:
437,315,196481,1,0,1:0:0:0:
468,301,196547,1,2,0:0:0:0:
485,271,196614,1,0,1:0:0:0:
484,237,196681,1,2,0:0:0:0:
466,207,196747,1,0,1:0:0:0:
435,192,196814,5,2,0:0:0:0:
470,164,196881,1,0,1:0:0:0:
480,119,196947,1,2,0:0:0:0:
462,76,197014,1,0,1:0:0:0:
420,59,197081,1,2,0:0:0:0:
375,70,197147,1,0,1:0:0:0:
347,106,197215,6,0,L|326:171,3,56.6666666666667,2|0|2|0,0:0|1:0|0:0|1:0,0:0:0:0:
391,224,197481,1,2,0:0:0:0:
405,267,197547,1,0,1:0:0:0:
419,310,197614,5,2,0:0:0:0:
393,287,197681,1,0,1:0:0:0:
359,283,197747,1,2,0:0:0:0:
329,299,197814,1,0,1:0:0:0:
295,301,197881,1,2,0:0:0:0:
263,288,197947,1,0,1:0:0:0:
244,258,198014,5,2,0:0:0:0:
240,268,198081,1,0,1:0:0:0:
233,277,198147,1,2,0:0:0:0:
224,284,198214,1,0,1:0:0:0:
214,290,198281,1,2,0:0:0:0:
203,294,198347,1,0,1:0:0:0:
191,296,198415,5,4,0:0:0:0:
196,251,198484,1,0,1:0:0:0:
165,216,198552,1,0,0:0:0:0:
119,216,198621,1,0,1:0:0:0:
84,245,198690,1,0,0:0:0:0:
38,243,198759,1,0,1:0:0:0:
6,209,198828,1,2,0:0:0:0:
5,164,198894,1,0,1:0:0:0:
35,130,198961,1,2,0:0:0:0:
80,128,199028,1,0,1:0:0:0:
112,159,199094,1,2,0:0:0:0:
156,168,199161,1,0,1:0:0:0:
195,144,199228,1,2,0:0:0:0:
209,101,199294,1,0,1:0:0:0:
244,72,199361,1,2,0:0:0:0:
289,73,199428,1,0,1:0:0:0:
323,101,199494,1,2,0:0:0:0:
331,145,199561,1,0,1:0:0:0:
312,186,199628,1,2,0:0:0:0:
315,230,199694,1,0,1:0:0:0:
347,261,199761,1,2,0:0:0:0:
391,269,199828,1,0,1:0:0:0:
432,253,199894,1,2,0:0:0:0:
456,214,199961,1,0,1:0:0:0:
453,168,200028,5,2,0:0:0:0:
424,216,200094,1,0,1:0:0:0:
369,232,200161,1,2,0:0:0:0:
320,202,200228,1,0,1:0:0:0:
306,147,200294,1,2,0:0:0:0:
261,112,200361,1,0,1:0:0:0:
204,119,200428,1,2,0:0:0:0:
171,164,200494,1,0,1:0:0:0:
173,220,200561,1,2,0:0:0:0:
209,264,200628,1,0,1:0:0:0:
209,320,200694,1,2,0:0:0:0:
167,359,200761,1,0,1:0:0:0:
110,356,200828,6,0,L|53:334,2,56.6666666666667,2|0|2,0:0|1:0|0:0,0:0:0:0:
36,239,201028,1,0,1:0:0:0:
91,228,201094,1,2,0:0:0:0:
146,217,201161,1,0,1:0:0:0:
201,206,201228,5,2,0:0:0:0:
192,199,201294,1,0,1:0:0:0:
185,189,201361,1,2,0:0:0:0:
181,178,201428,1,0,1:0:0:0:
182,166,201494,1,2,0:0:0:0:
187,155,201561,1,0,1:0:0:0:
194,146,201628,5,4,0:0:0:0:
135,178,201694,1,0,1:0:0:0:
68,162,201761,1,2,0:0:0:0:
40,99,201828,1,0,1:0:0:0:
70,38,201894,1,2,0:0:0:0:
136,23,201961,1,0,1:0:0:0:
194,58,202028,5,2,0:0:0:0:
211,16,202094,1,0,1:0:0:0:
255,5,202161,1,2,0:0:0:0:
295,26,202228,1,0,1:0:0:0:
301,70,202294,1,2,0:0:0:0:
336,98,202361,1,0,1:0:0:0:
381,99,202428,1,2,0:0:0:0:
410,64,202494,1,0,1:0:0:0:
455,63,202561,1,2,0:0:0:0:
486,95,202628,1,0,1:0:0:0:
483,139,202694,1,2,0:0:0:0:
446,166,202761,1,0,1:0:0:0:
400,166,202828,2,0,L|352:137,5,56.6666666666667,2|0|2|0|2|0,0:0|1:0|0:0|1:0|0:0|1:0,0:0:0:0:
193,142,203228,5,4,0:0:0:0:
193,142,203633,5,0,1:0:0:0:
276,125,203734,1,0,1:0:0:0:
292,209,203836,1,0,1:0:0:0:
209,225,203937,1,0,1:0:0:0:
176,120,204038,5,0,1:0:0:0:
289,106,204140,1,0,1:0:0:0:
301,221,204241,1,0,1:0:0:0:
187,232,204342,1,0,1:0:0:0:
161,98,204444,5,0,1:0:0:0:
161,98,204818,5,2,1:3:0:0:
161,126,204884,1,0,1:0:0:0:
151,152,204950,1,0,1:0:0:0:
127,168,205016,1,0,1:0:0:0:
99,174,205083,1,0,1:0:0:0:
77,192,205149,1,0,1:0:0:0:
68,219,205215,1,0,1:0:0:0:
70,246,205281,1,0,1:0:0:0:
85,269,205347,1,0,1:0:0:0:
110,280,205414,1,0,1:0:0:0:
138,279,205480,1,0,1:0:0:0:
164,269,205546,1,0,1:0:0:0:
192,268,205612,1,0,1:0:0:0:
217,278,205679,1,0,1:0:0:0:
235,299,205745,1,0,1:0:0:0:
243,326,205811,1,0,1:0:0:0:
259,348,205877,1,0,1:0:0:0:
284,359,205943,1,0,1:0:0:0:
312,360,206010,1,0,1:0:0:0:
338,350,206076,1,0,1:0:0:0:
356,328,206142,1,0,1:0:0:0:
362,300,206208,1,0,1:0:0:0:
357,272,206275,1,0,1:0:0:0:
339,249,206341,1,0,1:0:0:0:
312,237,206407,5,2,1:3:0:0:
344,227,206474,1,0,1:0:0:0:
367,202,206540,1,0,1:0:0:0:
375,168,206607,1,0,1:0:0:0:
362,136,206674,1,0,1:0:0:0:
333,117,206740,1,0,1:0:0:0:
312,89,206807,1,0,1:0:0:0:
312,55,206874,1,0,1:0:0:0:
333,28,206940,1,0,1:0:0:0:
367,25,207007,1,0,1:0:0:0:
395,42,207074,1,0,1:0:0:0:
405,74,207140,1,0,1:0:0:0:
392,105,207207,1,0,1:0:0:0:
362,121,207274,1,0,1:0:0:0:
327,120,207340,1,0,1:0:0:0:
298,101,207407,1,0,1:0:0:0:
264,96,207474,1,0,1:0:0:0:
231,106,207540,1,0,1:0:0:0:
206,129,207607,1,0,1:0:0:0:
195,161,207674,1,0,1:0:0:0:
168,183,207740,1,0,1:0:0:0:
134,189,207807,1,0,1:0:0:0:
101,179,207874,1,0,1:0:0:0:
77,154,207940,1,0,1:0:0:0:
72,120,208007,5,2,1:3:0:0:
104,141,208074,1,0,1:0:0:0:
118,178,208140,1,0,1:0:0:0:
111,217,208207,1,0,1:0:0:0:
82,243,208274,1,0,1:0:0:0:
73,281,208340,1,0,1:0:0:0:
93,315,208407,1,0,1:0:0:0:
130,326,208474,1,0,1:0:0:0:
166,308,208540,1,0,1:0:0:0:
182,271,208607,1,0,1:0:0:0:
171,233,208674,1,0,1:0:0:0:
177,193,208740,1,0,1:0:0:0:
206,165,208807,1,0,1:0:0:0:
245,163,208874,1,0,1:0:0:0:
280,180,208940,1,0,1:0:0:0:
318,170,209007,1,0,1:0:0:0:
336,135,209074,1,0,1:0:0:0:
330,95,209140,1,0,1:0:0:0:
297,71,209207,1,0,1:0:0:0:
257,71,209274,1,0,1:0:0:0:
223,92,209340,1,0,1:0:0:0:
183,98,209407,1,0,1:0:0:0:
147,80,209474,1,0,1:0:0:0:
130,43,209540,1,0,1:0:0:0:
141,4,209607,5,2,1:3:0:0:
154,46,209674,1,0,1:0:0:0:
153,91,209740,1,0,1:0:0:0:
130,130,209807,1,0,1:0:0:0:
88,147,209874,1,0,1:0:0:0:
66,187,209940,1,0,1:0:0:0:
66,232,210007,1,0,1:0:0:0:
89,270,210074,1,0,1:0:0:0:
129,289,210140,1,0,1:0:0:0:
174,285,210207,1,0,1:0:0:0:
208,256,210274,1,0,1:0:0:0:
253,250,210340,1,0,1:0:0:0:
292,272,210407,1,0,1:0:0:0:
308,313,210474,1,0,1:0:0:0:
339,345,210540,1,0,1:0:0:0:
382,356,210607,1,0,1:0:0:0:
424,342,210674,1,0,1:0:0:0:
455,308,210740,1,0,1:0:0:0:
459,262,210807,1,0,1:0:0:0:
445,219,210874,1,0,1:0:0:0:
407,193,210940,1,0,1:0:0:0:
386,152,211007,1,0,1:0:0:0:
393,107,211074,1,0,1:0:0:0:
430,81,211140,1,0,1:0:0:0:
475,82,211207,5,2,1:3:0:0:
438,116,211274,1,0,1:0:0:0:
387,121,211341,1,0,1:0:0:0:
342,95,211408,1,0,1:0:0:0:
324,47,211476,1,0,1:0:0:0:
279,22,211543,1,0,1:0:0:0:
229,35,211610,1,0,1:0:0:0:
205,79,211677,1,0,1:0:0:0:
214,129,211744,1,0,1:0:0:0:
254,160,211811,1,0,1:0:0:0:
270,207,211878,1,0,1:0:0:0:
252,255,211945,1,0,1:0:0:0:
205,275,212012,1,0,1:0:0:0:
155,264,212080,1,0,1:0:0:0:
125,222,212147,1,0,1:0:0:0:
74,213,212214,1,0,1:0:0:0:
32,241,212281,1,0,1:0:0:0:
29,292,212348,1,0,1:0:0:0:
58,333,212415,1,0,1:0:0:0:
107,340,212482,1,0,1:0:0:0:
146,307,212549,1,0,1:0:0:0:
153,256,212616,1,0,1:0:0:0:
183,215,212684,1,0,1:0:0:0:
232,202,212751,1,0,1:0:0:0:
279,221,212818,5,2,1:3:0:0:
249,173,212886,1,0,1:0:0:0:
262,117,212954,1,0,1:0:0:0:
313,92,213021,1,0,1:0:0:0:
366,109,213089,1,0,1:0:0:0:
392,159,213156,1,0,1:0:0:0:
446,174,213224,1,0,1:0:0:0:
495,147,213291,1,0,1:0:0:0:
501,90,213359,1,0,1:0:0:0:
470,42,213427,1,0,1:0:0:0:
414,37,213494,1,0,1:0:0:0:
373,76,213562,1,0,1:0:0:0:
364,132,213629,1,0,1:0:0:0:
321,169,213697,1,0,1:0:0:0:
264,164,213764,1,0,1:0:0:0:
225,121,213832,1,0,1:0:0:0:
222,64,213900,1,0,1:0:0:0:
178,27,213967,1,0,1:0:0:0:
121,33,214035,1,0,1:0:0:0:
87,77,214102,1,0,1:0:0:0:
87,133,214170,1,0,1:0:0:0:
122,177,214237,1,0,1:0:0:0:
134,231,214305,1,0,1:0:0:0:
112,283,214373,1,0,1:0:0:0:
59,305,214437,5,2,1:3:0:0:
100,259,214503,1,0,1:0:0:0:
162,253,214570,1,0,1:0:0:0:
218,281,214637,1,0,1:0:0:0:
242,337,214703,1,0,1:0:0:0:
298,363,214770,1,0,1:0:0:0:
358,346,214837,1,0,1:0:0:0:
390,293,214903,1,0,1:0:0:0:
382,230,214970,1,0,1:0:0:0:
336,187,215037,1,0,1:0:0:0:
274,186,215103,1,0,1:0:0:0:
225,225,215170,1,0,1:0:0:0:
162,228,215237,1,0,1:0:0:0:
114,188,215303,1,0,1:0:0:0:
106,125,215370,1,0,1:0:0:0:
138,71,215437,1,0,1:0:0:0:
198,57,215503,1,0,1:0:0:0:
252,87,215570,1,0,1:0:0:0:
278,143,215637,1,0,1:0:0:0:
334,168,215703,1,0,1:0:0:0:
394,151,215770,1,0,1:0:0:0:
452,174,215837,1,0,1:0:0:0:
481,228,215903,1,0,1:0:0:0:
465,288,215970,1,0,1:0:0:0:
414,324,216037,5,2,1:3:0:0:
395,259,216103,1,0,1:0:0:0:
413,193,216170,1,0,1:0:0:0:
473,161,216237,1,0,1:0:0:0:
501,100,216303,1,0,1:0:0:0:
475,36,216370,1,0,1:0:0:0:
410,13,216437,1,0,1:0:0:0:
349,41,216503,1,0,1:0:0:0:
329,106,216570,1,0,1:0:0:0:
265,132,216637,1,0,1:0:0:0:
208,95,216703,1,0,1:0:0:0:
139,96,216770,1,0,1:0:0:0:
94,147,216837,1,0,1:0:0:0:
93,214,216903,1,0,1:0:0:0:
138,264,216970,1,0,1:0:0:0:
206,264,217037,1,0,1:0:0:0:
259,223,217103,1,0,1:0:0:0:
260,154,217170,1,0,1:0:0:0:
312,110,217237,1,0,1:0:0:0:
378,117,217303,1,0,1:0:0:0:
416,173,217370,1,0,1:0:0:0:
406,240,217437,1,0,1:0:0:0:
354,282,217503,1,0,1:0:0:0:
286,268,217570,1,0,1:0:0:0:
248,210,217637,5,2,1:0:0:0:
248,210,218437,5,4,0:0:0:0:
251,254,218503,1,0,1:0:0:0:
230,294,218569,1,2,0:0:0:0:
186,307,218635,1,0,1:0:0:0:
142,294,218701,1,2,0:0:0:0:
120,253,218768,1,0,1:0:0:0:
137,203,218834,5,2,0:0:0:0:
130,146,218900,1,0,1:0:0:0:
124,89,218966,1,2,0:0:0:0:
118,32,219033,2,0,L|61:7,2,56.6666666666667,0|2|0,1:0|0:0|1:0,0:0:0:0:
36,140,219231,5,2,0:0:0:0:
97,148,219297,1,0,1:0:0:0:
159,157,219364,1,2,0:0:0:0:
220,165,219430,1,0,1:0:0:0:
282,174,219496,1,2,0:0:0:0:
343,183,219562,1,0,1:0:0:0:
405,192,219629,5,2,0:0:0:0:
383,196,219695,1,0,1:0:0:0:
362,206,219761,1,2,0:0:0:0:
346,222,219827,1,0,1:0:0:0:
335,242,219893,1,2,0:0:0:0:
330,264,219960,1,0,1:0:0:0:
334,286,220026,5,2,0:0:0:0:
354,245,220092,1,0,1:0:0:0:
347,200,220159,1,2,0:0:0:0:
312,169,220226,1,0,1:0:0:0:
306,124,220292,1,2,0:0:0:0:
328,84,220359,1,0,1:0:0:0:
382,69,220426,5,2,0:0:0:0:
399,122,220492,1,0,1:0:0:0:
416,176,220559,1,2,0:0:0:0:
433,229,220626,2,0,L|508:249,2,56.6666666666667,0|2|0,1:0|0:0|1:0,0:0:0:0:
385,315,220826,5,2,0:0:0:0:
373,317,220892,1,0,1:0:0:0:
362,320,220959,1,2,0:0:0:0:
351,322,221026,1,0,1:0:0:0:
340,325,221092,1,2,0:0:0:0:
329,327,221159,1,0,1:0:0:0:
318,330,221226,1,2,0:0:0:0:
307,332,221292,1,0,1:0:0:0:
296,335,221359,1,2,0:0:0:0:
285,337,221426,1,0,1:0:0:0:
274,340,221492,1,2,0:0:0:0:
263,343,221559,1,0,1:0:0:0:
252,345,221626,5,4,0:0:0:0:
266,302,221692,1,0,1:0:0:0:
250,258,221759,1,2,0:0:0:0:
208,240,221826,1,0,1:0:0:0:
162,247,221892,1,2,0:0:0:0:
133,281,221959,1,0,1:0:0:0:
145,332,222026,5,2,0:0:0:0:
162,278,222092,1,0,1:0:0:0:
179,224,222159,1,2,0:0:0:0:
197,169,222226,2,0,L|138:127,2,56.6666666666667,0|2|0,1:0|0:0|1:0,0:0:0:0:
284,33,222426,5,2,0:0:0:0:
310,89,222492,1,0,1:0:0:0:
336,145,222559,1,2,0:0:0:0:
362,201,222626,1,0,1:0:0:0:
388,257,222692,1,2,0:0:0:0:
414,313,222759,1,0,1:0:0:0:
440,369,222826,5,2,0:0:0:0:
419,360,222892,1,0,1:0:0:0:
400,346,222959,1,2,0:0:0:0:
387,327,223026,1,0,1:0:0:0:
380,304,223092,1,2,0:0:0:0:
381,281,223159,1,0,1:0:0:0:
392,261,223226,5,2,0:0:0:0:
393,249,223292,1,0,1:0:0:0:
391,237,223359,1,2,0:0:0:0:
386,226,223426,1,0,1:0:0:0:
378,217,223492,1,2,0:0:0:0:
369,209,223559,1,0,1:0:0:0:
358,204,223626,5,2,0:0:0:0:
418,161,223692,1,0,1:0:0:0:
430,88,223759,1,2,0:0:0:0:
383,29,223826,1,0,1:0:0:0:
310,23,223892,1,2,0:0:0:0:
252,68,223959,1,0,1:0:0:0:
245,141,224026,5,2,0:0:0:0:
224,88,224092,1,0,1:0:0:0:
168,75,224159,1,2,0:0:0:0:
120,104,224226,1,0,1:0:0:0:
62,100,224292,1,2,0:0:0:0:
23,59,224359,1,0,1:0:0:0:
34,3,224426,5,2,0:0:0:0:
39,12,224492,1,0,1:0:0:0:
42,22,224559,1,2,0:0:0:0:
44,33,224626,1,0,1:0:0:0:
45,44,224692,1,2,0:0:0:0:
44,55,224759,1,0,1:0:0:0:
41,66,224826,5,4,0:0:0:0:
84,52,224893,1,0,1:0:0:0:
127,61,224959,1,2,0:0:0:0:
158,93,225025,1,0,1:0:0:0:
165,137,225091,1,2,0:0:0:0:
148,179,225158,1,0,1:0:0:0:
96,193,225224,5,2,0:0:0:0:
149,174,225290,1,0,1:0:0:0:
202,155,225356,1,0,0:0:0:0:
255,136,225423,2,0,L|298:192,2,56.6666666666667,0|2|0,1:0|0:0|1:0,0:0:0:0:
406,286,225621,5,2,0:0:0:0:
344,295,225687,1,0,1:0:0:0:
282,304,225754,1,2,0:0:0:0:
219,313,225820,1,0,1:0:0:0:
157,322,225886,1,2,0:0:0:0:
94,331,225952,1,0,1:0:0:0:
32,341,226019,5,2,0:0:0:0:
48,325,226085,1,0,1:0:0:0:
68,316,226151,1,2,0:0:0:0:
90,313,226217,1,0,1:0:0:0:
111,319,226283,1,2,0:0:0:0:
128,333,226350,1,0,1:0:0:0:
135,354,226416,5,2,0:0:0:0:
144,309,226482,1,0,1:0:0:0:
175,276,226548,1,2,0:0:0:0:
219,268,226615,1,0,1:0:0:0:
261,284,226681,1,2,0:0:0:0:
305,276,226747,1,0,1:0:0:0:
324,225,226813,5,2,0:0:0:0:
331,169,226879,1,0,1:0:0:0:
338,113,226946,1,2,0:0:0:0:
345,56,227012,2,0,L|424:14,2,56.6666666666667,0|2|0,1:0|0:0|1:0,0:0:0:0:
256,99,227211,5,2,0:0:0:0:
244,96,227277,1,0,1:0:0:0:
233,93,227343,1,2,0:0:0:0:
221,90,227409,1,0,1:0:0:0:
210,87,227476,1,2,0:0:0:0:
199,84,227542,1,0,1:0:0:0:
187,81,227608,1,2,0:0:0:0:
176,78,227674,1,0,1:0:0:0:
164,75,227740,1,2,0:0:0:0:
152,72,227807,1,0,1:0:0:0:
140,69,227873,1,2,0:0:0:0:
128,66,227939,1,0,1:0:0:0:
116,63,228005,5,4,0:0:0:0:
133,104,228072,1,0,1:0:0:0:
130,149,228139,1,2,0:0:0:0:
98,181,228206,1,0,1:0:0:0:
53,190,228273,1,2,0:0:0:0:
24,224,228340,1,0,1:0:0:0:
33,279,228407,5,2,0:0:0:0:
80,247,228474,1,0,1:0:0:0:
127,216,228541,1,2,0:0:0:0:
175,184,228609,2,0,L|256:216,2,56.6666666666667,0|2|0,1:0|0:0|1:0,0:0:0:0:
56,102,228810,5,2,0:0:0:0:
117,93,228877,1,0,1:0:0:0:
178,84,228944,1,2,0:0:0:0:
239,76,229011,1,0,1:0:0:0:
300,68,229078,1,2,0:0:0:0:
361,60,229145,1,0,1:0:0:0:
423,52,229213,5,0,0:0:0:0:
402,62,229280,1,0,1:0:0:0:
386,78,229347,1,2,0:0:0:0:
378,99,229414,1,0,1:0:0:0:
377,121,229481,1,2,0:0:0:0:
381,143,229548,1,0,1:0:0:0:
392,162,229615,5,8,0:0:0:0:
394,172,229682,1,0,1:0:0:0:
394,183,229749,1,0,0:0:0:0:
392,194,229817,1,0,1:0:0:0:
388,204,229884,1,0,0:0:0:0:
383,214,229951,1,0,1:0:0:0:
376,223,230018,5,2,0:0:0:0:
322,172,230085,1,0,1:0:0:0:
248,170,230152,1,2,0:0:0:0:
194,220,230219,1,0,1:0:0:0:
188,293,230286,1,2,0:0:0:0:
235,348,230353,1,0,1:0:0:0:
308,362,230421,5,8,0:0:0:0:
270,319,230488,1,0,1:0:0:0:
214,307,230555,1,0,0:0:0:0:
162,331,230622,1,0,1:0:0:0:
105,326,230689,1,0,0:0:0:0:
59,291,230756,1,0,1:0:0:0:
53,234,230823,6,0,L|71:178,5,56.6666666666667,8|0|0|0|0|0,0:0|1:0|0:0|1:0|0:0|1:0,0:0:0:0:
201,181,231226,5,4,0:0:0:0:
232,220,231291,1,0,1:0:0:0:
280,235,231357,1,0,0:0:0:0:
330,224,231423,1,0,1:0:0:0:
362,185,231489,2,0,L|387:117,1,56.6666666666667,0|0,0:0|1:0,0:0:0:0:
249,24,231620,5,4,0:0:0:0:
259,86,231686,1,0,1:0:0:0:
268,147,231752,1,0,0:0:0:0:
274,209,231818,2,0,L|210:265,2,56.6666666666667,0|0|0,1:0|0:0|1:0,0:0:0:0:
330,353,232015,5,4,0:0:0:0:
353,289,232081,1,0,1:0:0:0:
376,224,232147,1,0,0:0:0:0:
399,160,232212,1,0,1:0:0:0:
423,95,232278,2,0,L|448:168,1,56.6666666666667,0|0,0:0|1:0,0:0:0:0:
423,314,232410,5,4,0:0:0:0:
398,300,232476,1,0,1:0:0:0:
370,292,232541,1,0,0:0:0:0:
341,291,232607,1,0,1:0:0:0:
314,298,232673,2,0,L|262:341,1,56.6666666666667,0|0,0:0|1:0,0:0:0:0:
170,251,232804,5,4,0:0:0:0:
219,236,232870,1,0,1:0:0:0:
245,192,232936,1,0,0:0:0:0:
241,140,233002,1,0,1:0:0:0:
205,103,233068,2,0,L|136:67,1,56.6666666666667,0|0,0:0|1:0,0:0:0:0:
67,240,233201,5,4,0:0:0:0:
127,228,233267,1,0,1:0:0:0:
188,216,233333,1,0,0:0:0:0:
248,205,233400,2,0,L|300:279,2,56.6666666666667,0|0|0,1:0|0:0|1:0,0:0:0:0:
376,344,233598,5,4,0:0:0:0:
378,332,233665,1,0,1:0:0:0:
380,320,233731,1,0,0:0:0:0:
382,308,233797,1,0,1:0:0:0:
384,296,233863,1,0,0:0:0:0:
386,284,233929,1,0,1:0:0:0:
429,261,233996,5,4,0:0:0:0:
427,249,234062,1,0,1:0:0:0:
425,237,234128,1,0,0:0:0:0:
423,225,234194,1,0,1:0:0:0:
421,213,234261,1,0,0:0:0:0:
419,201,234327,1,0,1:0:0:0:
379,158,234393,5,4,0:0:0:0:
342,192,234460,1,0,1:0:0:0:
290,194,234527,1,0,0:0:0:0:
246,167,234594,1,0,1:0:0:0:
232,117,234661,2,0,L|238:55,1,56.6666666666667,0|0,0:0|1:0,0:0:0:0:
86,30,234794,5,4,0:0:0:0:
99,90,234861,1,0,1:0:0:0:
112,150,234928,1,0,0:0:0:0:
125,211,234995,2,0,L|82:257,2,56.6666666666667,0|0|0,1:0|0:0|1:0,0:0:0:0:
196,56,235195,5,4,0:0:0:0:
248,100,235262,1,0,1:0:0:0:
299,143,235330,1,0,0:0:0:0:
351,187,235398,1,0,1:0:0:0:
402,230,235466,2,0,L|397:169,1,56.6666666666667,0|0,0:0|1:0,0:0:0:0:
316,66,235602,5,4,0:0:0:0:
307,92,235670,1,0,1:0:0:0:
292,116,235738,1,0,0:0:0:0:
270,134,235806,1,0,1:0:0:0:
243,144,235874,2,0,L|178:145,1,56.6666666666667,0|0,0:0|1:0,0:0:0:0:
94,234,236010,5,4,0:0:0:0:
104,229,236076,1,0,1:0:0:0:
115,227,236142,1,0,0:0:0:0:
126,228,236209,1,0,1:0:0:0:
136,231,236275,2,0,L|187:268,1,56.6666666666667,0|0,0:0|1:0,0:0:0:0:
157,383,236408,5,4,0:0:0:0:
169,303,236475,1,0,1:0:0:0:
228,250,236541,1,0,0:0:0:0:
307,262,236608,1,0,1:0:0:0:
354,324,236674,2,0,L|364:381,1,56.6666666666667,0|0,0:0|1:0,0:0:0:0:
246,302,236807,5,4,0:0:0:0:
274,253,236873,1,0,1:0:0:0:
269,196,236940,1,0,0:0:0:0:
227,158,237006,1,0,1:0:0:0:
170,165,237073,2,0,L|114:194,1,56.6666666666667,0|0,0:0|1:0,0:0:0:0:
55,61,237206,5,4,0:0:0:0:
65,66,237272,1,0,1:0:0:0:
75,69,237338,1,0,0:0:0:0:
86,70,237405,1,0,1:0:0:0:
97,68,237471,1,0,0:0:0:0:
108,65,237538,1,0,1:0:0:0:
135,20,237604,5,4,0:0:0:0:
146,69,237672,1,0,1:0:0:0:
185,101,237740,1,0,0:0:0:0:
235,102,237808,1,0,1:0:0:0:
273,68,237876,2,0,L|295:8,1,56.6666666666667,0|0,0:0|1:0,0:0:0:0:
455,100,238012,5,4,0:0:0:0:
396,122,238080,1,0,1:0:0:0:
337,144,238148,1,0,0:0:0:0:
278,166,238216,2,0,L|221:127,2,56.6666666666667,0|0|0,1:0|0:0|1:0,0:0:0:0:
362,291,238420,5,4,0:0:0:0:
296,273,238488,1,0,1:0:0:0:
230,256,238556,1,0,0:0:0:0:
164,239,238624,1,0,1:0:0:0:
98,222,238692,2,0,L|142:276,1,56.6666666666667,0|0,0:0|1:0,0:0:0:0:
149,374,238828,5,4,0:0:0:0:
160,354,238896,1,0,1:0:0:0:
177,339,238964,1,0,0:0:0:0:
198,331,239032,1,0,1:0:0:0:
220,329,239100,2,0,L|280:354,1,56.6666666666667,0|0,0:0|1:0,0:0:0:0:
411,308,239236,5,4,0:0:0:0:
441,267,239301,1,0,1:0:0:0:
441,215,239367,1,0,0:0:0:0:
405,178,239433,1,0,1:0:0:0:
353,174,239499,2,0,L|286:203,1,56.6666666666667,0|0,0:0|1:0,0:0:0:0:
207,302,239630,5,4,0:0:0:0:
197,234,239696,1,0,1:0:0:0:
187,166,239762,1,0,0:0:0:0:
177,98,239828,2,0,L|232:46,2,56.6666666666667,0|0|0,1:0|0:0|1:0,0:0:0:0:
34,142,240025,5,4,0:0:0:0:
44,145,240091,1,0,1:0:0:0:
54,148,240157,1,0,0:0:0:0:
64,151,240222,1,0,1:0:0:0:
74,154,240288,1,0,0:0:0:0:
84,157,240354,1,0,1:0:0:0:
106,204,240420,5,4,0:0:0:0:
116,201,240486,1,0,1:0:0:0:
126,198,240551,1,0,0:0:0:0:
136,195,240617,1,0,1:0:0:0:
146,192,240683,1,0,0:0:0:0:
156,189,240749,1,0,1:0:0:0:
181,140,240814,5,4,0:0:0:0:
224,165,240880,1,0,1:0:0:0:
273,155,240946,1,0,0:0:0:0:
304,115,241012,1,0,1:0:0:0:
301,64,241078,2,0,L|276:6,1,56.6666666666667,0|0,0:0|1:0,0:0:0:0:
120,60,241211,5,4,0:0:0:0:
132,120,241277,1,0,1:0:0:0:
145,180,241343,1,0,0:0:0:0:
158,241,241410,2,0,L|111:286,2,56.6666666666667,0|0|0,1:0|0:0|1:0,0:0:0:0:
155,378,241608,5,4,0:0:0:0:
219,356,241674,1,0,1:0:0:0:
284,333,241741,1,0,0:0:0:0:
348,311,241807,1,0,1:0:0:0:
412,289,241873,2,0,L|355:272,1,56.6666666666667,0|0,0:0|1:0,0:0:0:0:
236,218,242006,5,4,0:0:0:0:
264,219,242072,1,0,1:0:0:0:
291,211,242138,1,0,0:0:0:0:
313,193,242204,1,0,1:0:0:0:
327,169,242270,2,0,L|330:98,1,56.6666666666667,0|0,0:0|1:0,0:0:0:0:
437,34,242403,5,4,0:0:0:0:
432,44,242469,1,0,1:0:0:0:
430,55,242535,1,0,0:0:0:0:
431,66,242602,1,0,1:0:0:0:
434,76,242668,2,0,L|482:125,1,56.6666666666667,0|0,0:0|1:0,0:0:0:0:
493,217,242800,5,4,0:0:0:0:
449,150,242866,1,0,1:0:0:0:
370,137,242933,1,0,0:0:0:0:
301,178,242999,1,0,1:0:0:0:
286,255,243065,2,0,L|313:344,1,56.6666666666667,0|0,0:0|1:0,0:0:0:0:
386,175,243198,5,4,0:0:0:0:
329,172,243264,1,0,1:0:0:0:
280,143,243330,1,0,0:0:0:0:
261,89,243396,1,0,1:0:0:0:
282,37,243463,2,0,L|328:2,1,56.6666666666667,0|0,0:0|1:0,0:0:0:0:
149,0,243595,5,4,0:0:0:0:
153,10,243665,1,0,1:0:0:0:
155,20,243736,1,0,0:0:0:0:
156,31,243807,1,0,1:0:0:0:
155,42,243878,1,0,0:0:0:0:
153,53,243949,1,0,1:0:0:0:
116,80,244019,6,0,B|137:97|137:97|145:121,1,50.9999984436036,8|8,0:0|0:0,0:0:0:0:
146,171,244515,1,8,0:0:0:0:
176,242,244615,1,4,0:0:0:0:
272,250,244714,1,4,0:0:0:0:
342,161,244813,6,0,B|344:179|344:179|350:191,1,31.1666666666667,8|0,0:0|2:0,0:0:0:0:
447,225,245608,5,12,0:0:0:0:
397,198,245674,1,0,1:0:0:0:
340,201,245740,1,2,0:0:0:0:
296,237,245807,1,0,1:0:0:0:
285,292,245873,1,2,0:0:0:0:
244,331,245939,1,0,1:0:0:0:
187,337,246005,1,2,0:0:0:0:
139,306,246071,1,0,1:0:0:0:
121,251,246138,1,2,0:0:0:0:
135,196,246204,1,0,1:0:0:0:
175,156,246270,1,2,0:0:0:0:
185,100,246336,1,0,1:0:0:0:
164,46,246403,1,2,0:0:0:0:
113,20,246469,1,0,1:0:0:0:
58,34,246535,1,2,0:0:0:0:
21,77,246601,1,0,1:0:0:0:
20,134,246668,1,2,0:0:0:0:
57,175,246734,1,0,1:0:0:0:
112,186,246800,1,2,0:0:0:0:
164,164,246866,1,0,1:0:0:0:
196,117,246932,1,2,0:0:0:0:
251,102,246999,1,0,1:0:0:0:
305,115,247065,1,2,0:0:0:0:
332,164,247131,1,0,1:0:0:0:
326,219,247197,1,2,0:0:0:0:
288,261,247264,1,0,1:0:0:0:
231,268,247331,1,2,0:0:0:0:
182,238,247398,1,0,1:0:0:0:
125,230,247465,1,2,0:0:0:0:
78,261,247532,1,0,1:0:0:0:
70,317,247599,1,2,0:0:0:0:
104,361,247666,1,0,1:0:0:0:
160,365,247733,1,2,0:0:0:0:
206,330,247801,1,0,1:0:0:0:
210,273,247868,1,2,0:0:0:0:
242,226,247935,1,0,1:0:0:0:
297,214,248002,1,2,0:0:0:0:
344,245,248069,1,0,1:0:0:0:
400,242,248136,1,2,0:0:0:0:
437,199,248203,1,0,1:0:0:0:
443,142,248270,1,2,0:0:0:0:
413,93,248337,1,0,1:0:0:0:
356,84,248405,2,0,P|319:94|287:133,5,56.6666666666667,2|0|2|0|2|0,0:0|1:0|0:0|1:0|0:0|1:0,0:0:0:0:
387,232,248807,6,0,P|403:196|400:159,2,56.6666666666667,4|0|2,0:0|1:0|0:0,0:0:0:0:
265,263,249009,1,0,1:0:0:0:
264,206,249076,1,2,0:0:0:0:
222,167,249143,1,0,1:0:0:0:
165,169,249210,1,2,0:0:0:0:
123,207,249277,1,0,1:0:0:0:
66,213,249344,1,2,0:0:0:0:
23,175,249411,1,0,1:0:0:0:
16,118,249478,1,2,0:0:0:0:
47,71,249545,1,0,1:0:0:0:
103,63,249613,1,2,0:0:0:0:
148,96,249680,1,0,1:0:0:0:
155,152,249747,1,2,0:0:0:0:
126,200,249814,1,0,1:0:0:0:
134,255,249881,1,2,0:0:0:0:
175,293,249948,1,0,1:0:0:0:
231,296,250015,1,2,0:0:0:0:
276,262,250082,1,0,1:0:0:0:
299,209,250150,1,2,0:0:0:0:
352,191,250217,1,0,1:0:0:0:
405,210,250284,1,2,0:0:0:0:
430,260,250351,1,0,1:0:0:0:
415,314,250418,1,2,0:0:0:0:
365,339,250484,1,0,1:0:0:0:
309,326,250551,1,2,0:0:0:0:
277,278,250618,1,0,1:0:0:0:
287,222,250685,1,2,0:0:0:0:
332,189,250751,1,0,1:0:0:0:
388,180,250818,1,2,0:0:0:0:
429,140,250885,1,0,1:0:0:0:
431,83,250952,1,2,0:0:0:0:
398,37,251018,1,0,1:0:0:0:
342,24,251085,1,2,0:0:0:0:
289,46,251152,1,0,1:0:0:0:
268,99,251219,1,2,0:0:0:0:
222,131,251285,1,0,1:0:0:0:
165,130,251352,1,2,0:0:0:0:
123,91,251419,1,0,1:0:0:0:
66,93,251486,1,2,0:0:0:0:
25,131,251552,1,0,1:0:0:0:
25,187,251619,5,2,0:0:0:0:
63,243,251686,1,0,1:0:0:0:
131,242,251753,1,2,0:0:0:0:
177,193,251819,1,0,1:0:0:0:
245,187,251886,1,2,0:0:0:0:
291,237,251953,1,0,1:0:0:0:
287,305,252020,5,4,0:0:0:0:
263,254,252086,1,0,1:0:0:0:
283,201,252153,1,2,0:0:0:0:
337,185,252220,1,0,1:0:0:0:
387,211,252287,1,2,0:0:0:0:
442,202,252353,1,0,1:0:0:0:
469,152,252420,1,2,0:0:0:0:
456,96,252487,1,0,1:0:0:0:
408,64,252554,1,2,0:0:0:0:
352,73,252620,1,0,1:0:0:0:
324,122,252687,1,2,0:0:0:0:
277,154,252754,1,0,1:0:0:0:
220,152,252821,1,2,0:0:0:0:
178,114,252887,1,0,1:0:0:0:
121,110,252954,1,2,0:0:0:0:
75,144,253021,1,0,1:0:0:0:
63,199,253088,1,2,0:0:0:0:
87,249,253154,1,0,1:0:0:0:
139,270,253221,1,2,0:0:0:0:
195,262,253288,1,0,1:0:0:0:
247,283,253355,1,2,0:0:0:0:
272,333,253422,1,0,1:0:0:0:
320,360,253488,1,2,0:0:0:0:
376,354,253555,1,0,1:0:0:0:
414,312,253622,1,2,0:0:0:0:
417,255,253689,1,0,1:0:0:0:
379,213,253755,1,2,0:0:0:0:
323,201,253822,1,0,1:0:0:0:
292,152,253889,1,2,0:0:0:0:
306,96,253956,1,0,1:0:0:0:
355,69,254022,1,2,0:0:0:0:
410,83,254089,1,0,1:0:0:0:
440,130,254156,1,2,0:0:0:0:
429,185,254223,1,0,1:0:0:0:
383,217,254289,1,2,0:0:0:0:
326,209,254356,1,0,1:0:0:0:
285,168,254423,6,0,P|246:149|214:147,1,56.6666666666667,2|0,0:0|1:0,0:0:0:0:
151,279,254556,2,0,P|192:290|224:287,1,56.6666666666667,2|0,0:0|1:0,0:0:0:0:
264,172,254690,2,0,P|222:160|190:163,1,56.6666666666667,2|0,0:0|1:0,0:0:0:0:
159,274,254823,2,0,P|201:282|233:275,1,56.6666666666667,2|0,0:0|1:0,0:0:0:0:
245,180,254957,2,0,P|201:175|171:184,1,56.6666666666667,2|0,0:0|1:0,0:0:0:0:
166,268,255090,2,0,P|209:272|239:263,1,56.6666666666667,2|0,0:0|1:0,0:0:0:0:
216,124,255224,5,4,0:0:0:0:
178,67,255291,1,0,1:0:0:0:
111,60,255357,1,2,0:0:0:0:
60,105,255424,1,0,1:0:0:0:
68,172,255491,1,2,0:0:0:0:
119,216,255558,1,0,1:0:0:0:
185,207,255624,1,2,0:0:0:0:
249,229,255691,1,0,1:0:0:0:
267,294,255758,1,2,0:0:0:0:
239,356,255825,1,0,1:0:0:0:
175,379,255891,1,2,0:0:0:0:
117,342,255958,1,0,1:0:0:0:
107,274,256025,1,2,0:0:0:0:
146,218,256092,1,0,1:0:0:0:
211,204,256158,1,2,0:0:0:0:
255,152,256225,1,0,1:0:0:0:
249,83,256292,1,2,0:0:0:0:
292,30,256359,1,0,1:0:0:0:
359,23,256426,1,2,0:0:0:0:
407,69,256492,1,0,1:0:0:0:
411,137,256559,1,2,0:0:0:0:
360,182,256626,1,0,1:0:0:0:
291,180,256693,1,2,0:0:0:0:
237,221,256759,1,0,1:0:0:0:
241,289,256826,5,8,0:0:0:0:
266,251,256893,1,0,1:0:0:0:
257,206,256960,1,2,0:0:0:0:
223,176,257026,1,0,1:0:0:0:
177,174,257093,1,2,0:0:0:0:
143,143,257160,1,0,1:0:0:0:
135,98,257227,1,2,0:0:0:0:
161,61,257293,1,0,1:0:0:0:
205,53,257360,1,2,0:0:0:0:
241,80,257427,1,0,1:0:0:0:
246,125,257494,1,2,0:0:0:0:
221,162,257560,1,0,1:0:0:0:
176,170,257627,5,2,0:0:0:0:
165,174,257694,1,0,1:0:0:0:
156,181,257761,1,2,0:0:0:0:
150,190,257827,1,0,1:0:0:0:
144,200,257894,1,2,0:0:0:0:
140,210,257961,1,0,1:0:0:0:
139,221,258028,2,0,P|130:247|102:281,5,56.6666666666667,8|0|0|0|0|0,0:0|1:0|0:0|1:0|0:0|1:0,0:0:0:0:
181,353,258428,5,4,0:0:0:0:
165,299,258494,1,0,1:0:0:0:
119,265,258561,1,2,0:0:0:0:
62,273,258628,1,0,1:0:0:0:
16,239,258694,1,2,0:0:0:0:
16,182,258761,1,0,1:0:0:0:
58,143,258828,1,2,0:0:0:0:
113,152,258894,1,0,1:0:0:0:
165,129,258961,1,2,0:0:0:0:
183,75,259028,1,0,1:0:0:0:
230,45,259094,1,2,0:0:0:0:
286,53,259161,1,0,1:0:0:0:
324,95,259228,1,2,0:0:0:0:
323,151,259294,1,0,1:0:0:0:
285,193,259361,1,2,0:0:0:0:
280,249,259428,1,0,1:0:0:0:
315,292,259494,1,2,0:0:0:0:
370,305,259561,1,0,1:0:0:0:
422,283,259628,1,2,0:0:0:0:
451,235,259694,1,0,1:0:0:0:
446,178,259761,1,2,0:0:0:0:
399,144,259828,1,0,1:0:0:0:
343,139,259894,1,2,0:0:0:0:
295,169,259961,1,0,1:0:0:0:
239,157,260028,1,2,0:0:0:0:
213,107,260094,1,0,1:0:0:0:
229,52,260161,1,2,0:0:0:0:
282,31,260228,1,0,1:0:0:0:
334,50,260294,1,2,0:0:0:0:
350,104,260361,1,0,1:0:0:0:
325,155,260428,1,2,0:0:0:0:
339,209,260494,1,0,1:0:0:0:
389,235,260561,1,2,0:0:0:0:
403,290,260628,1,0,1:0:0:0:
380,341,260694,1,2,0:0:0:0:
326,359,260761,1,0,1:0:0:0:
276,331,260828,1,2,0:0:0:0:
259,277,260894,1,0,1:0:0:0:
209,249,260961,1,2,0:0:0:0:
153,262,261028,1,0,1:0:0:0:
126,311,261094,1,2,0:0:0:0:
71,327,261161,1,0,1:0:0:0:
17,306,261228,2,0,P|1:274|18:223,5,56.6666666666667,2|0|2|0|2|0,0:0|1:0|0:0|1:0|0:0|1:0,0:0:0:0:
136,243,261628,6,0,P|144:210|132:159,2,56.6666666666667,4|0|2,0:0|1:0|0:0,0:0:0:0:
37,127,261828,1,0,1:0:0:0:
79,163,261894,1,2,0:0:0:0:
135,157,261961,1,0,1:0:0:0:
170,112,262028,1,2,0:0:0:0:
156,57,262094,1,0,1:0:0:0:
188,10,262161,1,2,0:0:0:0:
244,10,262228,1,0,1:0:0:0:
284,48,262294,1,2,0:0:0:0:
279,104,262361,1,0,1:0:0:0:
313,149,262428,1,2,0:0:0:0:
368,159,262494,1,0,1:0:0:0:
416,129,262561,1,2,0:0:0:0:
470,143,262628,1,0,1:0:0:0:
494,193,262694,1,2,0:0:0:0:
472,245,262761,1,0,1:0:0:0:
418,263,262828,1,2,0:0:0:0:
372,230,262894,1,0,1:0:0:0:
358,174,262961,1,2,0:0:0:0:
307,147,263028,1,0,1:0:0:0:
251,156,263094,1,2,0:0:0:0:
221,204,263161,1,0,1:0:0:0:
230,260,263228,1,2,0:0:0:0:
199,306,263294,1,0,1:0:0:0:
142,312,263361,1,2,0:0:0:0:
99,273,263428,1,0,1:0:0:0:
96,216,263494,1,2,0:0:0:0:
138,178,263561,1,0,1:0:0:0:
143,121,263628,1,2,0:0:0:0:
111,74,263694,1,0,1:0:0:0:
126,19,263761,1,2,0:0:0:0:
181,5,263828,1,0,1:0:0:0:
221,44,263894,1,2,0:0:0:0:
217,100,263961,1,0,1:0:0:0:
169,131,264028,1,2,0:0:0:0:
113,121,264094,1,0,1:0:0:0:
64,151,264161,1,2,0:0:0:0:
54,207,264228,1,0,1:0:0:0:
81,255,264294,1,2,0:0:0:0:
137,261,264361,1,0,1:0:0:0:
187,235,264428,5,2,0:0:0:0:
200,169,264494,1,0,1:0:0:0:
261,138,264561,1,2,0:0:0:0:
326,156,264628,1,0,1:0:0:0:
350,218,264694,1,2,0:0:0:0:
416,234,264761,1,0,1:0:0:0:
472,195,264828,5,4,0:0:0:0:
416,199,264894,1,0,1:0:0:0:
376,239,264961,1,2,0:0:0:0:
380,295,265028,1,0,1:0:0:0:
345,339,265094,1,2,0:0:0:0:
288,342,265161,1,0,1:0:0:0:
250,299,265228,1,2,0:0:0:0:
254,243,265294,1,0,1:0:0:0:
231,190,265361,1,2,0:0:0:0:
175,175,265428,1,0,1:0:0:0:
123,196,265494,1,2,0:0:0:0:
68,179,265561,1,0,1:0:0:0:
49,125,265628,1,2,0:0:0:0:
75,75,265694,1,0,1:0:0:0:
130,61,265761,1,2,0:0:0:0:
177,92,265828,1,0,1:0:0:0:
182,147,265894,1,2,0:0:0:0:
150,194,265961,1,0,1:0:0:0:
160,249,266028,1,2,0:0:0:0:
202,285,266094,1,0,1:0:0:0:
258,282,266161,1,2,0:0:0:0:
295,239,266228,1,0,1:0:0:0:
348,223,266294,1,2,0:0:0:0:
401,242,266361,1,0,1:0:0:0:
423,294,266428,1,2,0:0:0:0:
410,348,266494,1,0,1:0:0:0:
358,373,266561,1,2,0:0:0:0:
303,355,266628,1,0,1:0:0:0:
280,303,266694,1,2,0:0:0:0:
301,250,266761,1,0,1:0:0:0:
355,232,266828,1,2,0:0:0:0:
380,181,266894,1,0,1:0:0:0:
362,126,266961,1,2,0:0:0:0:
311,100,267028,1,0,1:0:0:0:
256,114,267094,1,2,0:0:0:0:
232,165,267161,1,0,1:0:0:0:
177,183,267228,1,2,0:0:0:0:
126,158,267294,1,0,1:0:0:0:
69,166,267361,1,2,0:0:0:0:
40,215,267428,1,0,1:0:0:0:
50,270,267494,1,2,0:0:0:0:
94,295,267561,1,0,1:0:0:0:
138,284,267628,1,2,0:0:0:0:
159,251,267694,1,0,1:0:0:0:
156,216,267761,1,2,0:0:0:0:
136,195,267828,1,0,1:0:0:0:
113,194,267894,1,2,0:0:0:0:
97,201,267961,1,0,1:0:0:0:
89,209,268028,5,4,0:0:0:0:
152,187,268094,1,0,1:0:0:0:
181,125,268161,1,2,0:0:0:0:
167,58,268228,1,0,1:0:0:0:
209,5,268294,1,2,0:0:0:0:
277,7,268361,1,0,1:0:0:0:
314,64,268428,1,2,0:0:0:0:
299,129,268494,1,0,1:0:0:0:
235,153,268561,1,2,0:0:0:0:
206,215,268628,1,0,1:0:0:0:
232,277,268694,1,2,0:0:0:0:
295,301,268761,1,0,1:0:0:0:
358,276,268828,1,2,0:0:0:0:
377,211,268894,1,0,1:0:0:0:
343,151,268961,1,2,0:0:0:0:
352,83,269028,1,0,1:0:0:0:
412,53,269094,1,2,0:0:0:0:
478,66,269161,1,0,1:0:0:0:
508,127,269228,1,2,0:0:0:0:
488,191,269294,1,0,1:0:0:0:
426,219,269361,1,2,0:0:0:0:
361,195,269428,1,0,1:0:0:0:
333,133,269494,1,2,0:0:0:0:
270,106,269561,1,0,1:0:0:0:
206,132,269628,5,8,0:0:0:0:
223,90,269694,1,0,1:0:0:0:
210,46,269761,1,0,0:0:0:0:
168,26,269828,1,0,1:0:0:0:
124,37,269894,1,0,0:0:0:0:
103,77,269961,1,0,1:0:0:0:
108,122,270028,1,2,0:0:0:0:
88,162,270094,1,0,1:0:0:0:
49,186,270161,1,2,0:0:0:0:
39,230,270228,1,0,1:0:0:0:
56,271,270294,1,2,0:0:0:0:
96,291,270361,1,0,1:0:0:0:
140,279,270428,5,8,0:0:0:0:
151,278,270494,1,0,1:0:0:0:
162,280,270561,1,0,0:0:0:0:
172,285,270628,1,0,1:0:0:0:
181,291,270694,1,0,0:0:0:0:
189,298,270761,1,0,1:0:0:0:
196,306,270828,2,0,P|204:335|195:372,5,56.6666666666667,8|0|0|0|0|0,0:0|1:0|0:0|1:0|0:0|1:0,0:0:0:0:
343,369,271228,5,4,0:0:0:0:
309,331,271294,1,0,1:0:0:0:
302,280,271361,1,2,0:0:0:0:
326,235,271428,1,0,1:0:0:0:
375,223,271494,1,2,0:0:0:0:
411,187,271561,1,0,1:0:0:0:
415,135,271628,2,0,L|396:69,1,56.6666666666667,8|0,0:0|1:0,0:0:0:0:
291,39,271761,1,2,0:0:0:0:
243,58,271828,1,0,1:0:0:0:
221,103,271894,1,2,0:0:0:0:
236,151,271961,1,0,1:0:0:0:
280,176,272028,1,2,0:0:0:0:
297,223,272094,1,0,1:0:0:0:
281,271,272161,1,2,0:0:0:0:
239,300,272228,1,0,1:0:0:0:
189,289,272294,1,2,0:0:0:0:
159,247,272361,1,0,1:0:0:0:
108,238,272428,1,2,0:0:0:0:
65,266,272494,1,0,1:0:0:0:
56,316,272561,1,2,0:0:0:0:
82,359,272628,1,0,1:0:0:0:
130,374,272694,1,2,0:0:0:0:
173,346,272761,1,0,1:0:0:0:
189,297,272828,5,2,0:0:0:0:
217,351,272894,1,0,1:0:0:0:
277,365,272961,1,2,0:0:0:0:
329,330,273028,1,0,1:0:0:0:
337,268,273094,1,2,0:0:0:0:
297,219,273161,1,0,1:0:0:0:
296,156,273228,1,2,0:0:0:0:
345,119,273294,1,0,1:0:0:0:
407,122,273361,1,2,0:0:0:0:
448,169,273428,1,0,1:0:0:0:
445,230,273494,1,2,0:0:0:0:
397,271,273561,1,0,1:0:0:0:
334,276,273628,6,0,L|255:250,1,56.6666666666667,2|0,0:0|1:0,0:0:0:0:
282,127,273761,2,0,L|323:166,1,56.6666666666667,2|0,0:0|1:0,0:0:0:0:
322,286,273894,2,0,L|243:260,1,56.6666666666667,2|0,0:0|1:0,0:0:0:0:
202,109,274028,5,2,0:0:0:0:
193,102,274094,1,0,1:0:0:0:
182,97,274161,1,2,0:0:0:0:
170,96,274228,1,0,1:0:0:0:
158,96,274294,1,2,0:0:0:0:
147,99,274361,1,0,1:0:0:0:
136,104,274428,5,4,0:0:0:0:
170,123,274494,1,0,1:0:0:0:
209,116,274561,1,2,0:0:0:0:
235,86,274628,1,0,1:0:0:0:
238,46,274694,1,2,0:0:0:0:
266,17,274761,1,0,1:0:0:0:
305,13,274828,1,2,0:0:0:0:
336,36,274894,1,0,1:0:0:0:
343,75,274961,1,2,0:0:0:0:
327,111,275028,1,0,1:0:0:0:
336,149,275094,1,2,0:0:0:0:
368,172,275161,1,0,1:0:0:0:
407,170,275228,2,0,L|466:143,1,56.6666666666667,8|0,0:0|1:0,0:0:0:0:
508,269,275361,1,2,0:0:0:0:
486,302,275428,1,0,1:0:0:0:
450,318,275494,1,2,0:0:0:0:
410,311,275561,1,0,1:0:0:0:
384,280,275628,1,2,0:0:0:0:
380,240,275694,1,0,1:0:0:0:
358,206,275761,1,2,0:0:0:0:
319,194,275828,1,0,1:0:0:0:
281,204,275894,1,2,0:0:0:0:
256,235,275961,1,0,1:0:0:0:
250,274,276028,5,2,0:0:0:0:
279,232,276094,1,0,1:0:0:0:
273,181,276161,1,2,0:0:0:0:
233,148,276228,1,0,1:0:0:0:
182,152,276294,1,2,0:0:0:0:
138,125,276361,1,0,1:0:0:0:
128,74,276428,6,0,L|141:7,3,56.6666666666667,2|0|2|0,0:0|1:0|0:0|1:0,0:0:0:0:
270,69,276694,1,2,0:0:0:0:
275,119,276761,1,0,1:0:0:0:
281,169,276828,5,2,0:0:0:0:
245,152,276894,1,0,1:0:0:0:
205,154,276961,1,2,0:0:0:0:
172,177,277028,1,0,1:0:0:0:
156,212,277094,1,2,0:0:0:0:
127,239,277161,1,0,1:0:0:0:
87,241,277228,5,2,0:0:0:0:
97,238,277294,1,0,1:0:0:0:
108,238,277361,1,2,0:0:0:0:
118,241,277428,1,0,1:0:0:0:
127,246,277494,1,2,0:0:0:0:
135,253,277561,1,0,1:0:0:0:
142,261,277628,5,4,0:0:0:0:
159,213,277694,1,0,1:0:0:0:
206,192,277761,1,2,0:0:0:0:
253,211,277828,1,0,1:0:0:0:
268,258,277894,1,2,0:0:0:0:
305,292,277961,1,0,1:0:0:0:
356,294,278028,1,2,0:0:0:0:
393,260,278094,1,0,1:0:0:0:
402,209,278161,1,2,0:0:0:0:
379,162,278228,1,0,1:0:0:0:
330,149,278294,1,2,0:0:0:0:
299,108,278361,1,0,1:0:0:0:
304,57,278428,2,0,L|336:1,1,56.6666666666667,8|0,0:0|1:0,0:0:0:0:
491,42,278561,1,2,0:0:0:0:
502,91,278628,1,0,1:0:0:0:
480,136,278694,1,2,0:0:0:0:
431,153,278761,1,0,1:0:0:0:
386,127,278828,1,2,0:0:0:0:
335,124,278894,1,0,1:0:0:0:
292,152,278961,1,2,0:0:0:0:
274,200,279028,1,0,1:0:0:0:
288,248,279094,1,2,0:0:0:0:
325,282,279161,1,0,1:0:0:0:
375,289,279228,5,2,0:0:0:0:
333,243,279294,1,0,1:0:0:0:
270,242,279361,1,2,0:0:0:0:
224,284,279428,1,0,1:0:0:0:
213,344,279494,1,2,0:0:0:0:
160,378,279561,1,0,1:0:0:0:
99,361,279628,1,2,0:0:0:0:
72,305,279694,1,0,1:0:0:0:
93,246,279761,1,2,0:0:0:0:
151,222,279828,1,0,1:0:0:0:
172,164,279894,1,2,0:0:0:0:
150,105,279961,1,0,1:0:0:0:
91,81,280028,6,0,L|28:70,1,56.6666666666667,2|0,0:0|1:0,0:0:0:0:
12,220,280161,2,0,L|70:211,1,56.6666666666667,2|0,0:0|1:0,0:0:0:0:
84,69,280294,2,0,L|21:58,1,56.6666666666667,2|0,0:0|1:0,0:0:0:0:
72,242,280428,5,2,0:0:0:0:
82,238,280494,1,0,1:0:0:0:
93,237,280561,1,2,0:0:0:0:
104,238,280628,1,0,1:0:0:0:
114,241,280694,1,2,0:0:0:0:
123,247,280761,1,0,1:0:0:0:
131,254,280828,5,4,0:0:0:0:
132,181,280894,1,0,1:0:0:0:
190,135,280961,1,0,0:0:0:0:
263,146,281028,1,0,1:0:0:0:
300,208,281094,1,0,0:0:0:0:
373,219,281161,1,0,1:0:0:0:
427,168,281228,6,0,L|443:89,1,56.6666666666667,8|0,0:0|1:0,0:0:0:0:
295,59,281361,1,2,0:0:0:0:
316,105,281428,1,0,1:0:0:0:
309,155,281494,1,2,0:0:0:0:
270,188,281561,1,0,1:0:0:0:
218,191,281628,1,2,0:0:0:0:
175,218,281694,1,0,1:0:0:0:
165,268,281761,1,2,0:0:0:0:
189,312,281828,1,0,1:0:0:0:
236,329,281894,1,2,0:0:0:0:
284,311,281961,1,0,1:0:0:0:
303,263,282028,2,0,L|306:192,5,56.6666666666667,2|0|2|0|2|0,0:0|1:0|0:0|1:0|0:0|1:0,0:0:0:0:
434,143,282428,5,4,0:0:0:0:
403,203,282494,1,0,1:0:0:0:
336,220,282561,1,0,0:0:0:0:
280,179,282628,1,0,1:0:0:0:
213,169,282694,1,0,0:0:0:0:
154,203,282761,1,0,1:0:0:0:
137,269,282828,5,8,0:0:0:0:
172,241,282894,1,0,1:0:0:0:
176,195,282961,1,0,0:0:0:0:
156,153,283028,1,0,1:0:0:0:
112,141,283094,1,0,0:0:0:0:
84,104,283161,1,0,1:0:0:0:
93,59,283228,5,4,0:0:0:0:
113,68,283294,1,0,1:0:0:0:
135,69,283361,1,0,0:0:0:0:
156,61,283428,1,0,1:0:0:0:
172,46,283494,1,0,0:0:0:0:
181,25,283561,1,0,1:0:0:0:
179,2,283628,5,8,0:0:0:0:
186,10,283694,1,0,1:0:0:0:
195,15,283761,1,0,0:0:0:0:
205,19,283828,1,0,1:0:0:0:
215,22,283894,1,0,0:0:0:0:
226,22,283961,1,0,1:0:0:0:
237,20,284028,5,4,0:0:0:0:
259,65,284094,1,0,1:0:0:0:
306,84,284161,1,0,0:0:0:0:
354,68,284228,1,0,1:0:0:0:
403,79,284294,1,0,0:0:0:0:
434,119,284361,1,0,1:0:0:0:
429,170,284428,1,2,0:0:0:0:
394,206,284494,1,0,1:0:0:0:
343,213,284561,1,2,0:0:0:0:
301,183,284628,1,0,1:0:0:0:
250,181,284694,1,2,0:0:0:0:
208,210,284761,1,0,1:0:0:0:
195,259,284828,1,2,0:0:0:0:
216,304,284894,1,0,1:0:0:0:
259,331,284961,1,2,0:0:0:0:
310,328,285028,1,0,1:0:0:0:
345,291,285094,1,2,0:0:0:0:
351,240,285161,1,0,1:0:0:0:
326,195,285228,1,2,0:0:0:0:
276,184,285294,1,0,1:0:0:0:
235,152,285361,1,2,0:0:0:0:
226,101,285428,1,0,1:0:0:0:
250,56,285494,1,2,0:0:0:0:
300,49,285561,1,0,1:0:0:0:
346,71,285628,5,2,0:0:0:0:
290,97,285694,1,0,1:0:0:0:
229,80,285761,1,2,0:0:0:0:
202,23,285828,1,0,1:0:0:0:
144,0,285894,1,2,0:0:0:0:
87,26,285961,1,0,1:0:0:0:
67,85,286028,1,2,0:0:0:0:
94,140,286094,1,0,1:0:0:0:
152,162,286161,1,2,0:0:0:0:
182,216,286228,1,0,1:0:0:0:
170,276,286294,1,2,0:0:0:0:
119,313,286361,1,0,1:0:0:0:
56,305,286428,6,0,L|-2:273,1,56.6666666666667,2|0,0:0|1:0,0:0:0:0:
37,140,286561,2,0,L|80:177,1,56.6666666666667,2|0,0:0|1:0,0:0:0:0:
51,314,286694,2,0,L|-7:282,1,56.6666666666667,2|0,0:0|1:0,0:0:0:0:
156,176,286828,5,2,0:0:0:0:
164,183,286894,1,0,1:0:0:0:
173,188,286961,1,2,0:0:0:0:
183,191,287028,1,0,1:0:0:0:
194,191,287094,1,2,0:0:0:0:
205,190,287161,1,0,1:0:0:0:
215,186,287228,5,4,0:0:0:0:
201,223,287294,1,0,1:0:0:0:
210,261,287361,1,2,0:0:0:0:
242,283,287428,1,0,1:0:0:0:
281,283,287494,1,2,0:0:0:0:
309,254,287561,1,0,1:0:0:0:
344,236,287628,1,2,0:0:0:0:
382,241,287694,1,0,1:0:0:0:
410,269,287761,1,2,0:0:0:0:
412,308,287828,1,0,1:0:0:0:
387,338,287894,1,2,0:0:0:0:
347,339,287961,1,0,1:0:0:0:
318,310,288028,1,2,0:0:0:0:
320,270,288094,1,0,1:0:0:0:
350,243,288161,1,2,0:0:0:0:
389,239,288228,1,0,1:0:0:0:
418,213,288294,1,2,0:0:0:0:
425,173,288361,1,0,1:0:0:0:
401,140,288428,1,2,0:0:0:0:
363,127,288494,1,0,1:0:0:0:
328,147,288561,1,2,0:0:0:0:
311,183,288628,1,0,1:0:0:0:
276,202,288694,1,2,0:0:0:0:
236,195,288761,1,0,1:0:0:0:
213,162,288828,5,2,0:0:0:0:
224,211,288894,1,0,1:0:0:0:
205,258,288961,1,2,0:0:0:0:
159,280,289028,1,0,1:0:0:0:
111,264,289094,1,2,0:0:0:0:
84,219,289161,1,0,1:0:0:0:
87,167,289228,6,0,L|107:108,3,56.6666666666667,2|0|2|0,0:0|1:0|0:0|1:0,0:0:0:0:
249,137,289494,1,2,0:0:0:0:
233,88,289561,1,0,1:0:0:0:
216,39,289628,5,2,0:0:0:0:
249,60,289694,1,0,1:0:0:0:
288,63,289761,1,2,0:0:0:0:
321,41,289828,1,0,1:0:0:0:
360,38,289894,1,2,0:0:0:0:
395,56,289961,1,0,1:0:0:0:
409,93,290028,5,2,0:0:0:0:
397,91,290094,1,0,1:0:0:0:
386,87,290161,1,2,0:0:0:0:
376,81,290228,1,0,1:0:0:0:
367,73,290294,1,2,0:0:0:0:
361,63,290361,1,0,1:0:0:0:
357,52,290428,5,4,0:0:0:0:
349,101,290494,1,0,1:0:0:0:
312,136,290561,1,2,0:0:0:0:
261,142,290628,1,0,1:0:0:0:
233,184,290694,1,2,0:0:0:0:
244,233,290761,1,0,1:0:0:0:
286,261,290828,2,0,L|358:248,1,56.6666666666667,8|0,0:0|1:0,0:0:0:0:
442,161,290961,1,2,0:0:0:0:
489,179,291028,1,0,1:0:0:0:
509,225,291094,1,2,0:0:0:0:
499,275,291161,1,0,1:0:0:0:
454,300,291228,1,2,0:0:0:0:
405,286,291294,1,0,1:0:0:0:
382,240,291361,1,2,0:0:0:0:
336,216,291428,1,0,1:0:0:0:
286,227,291494,1,2,0:0:0:0:
257,269,291561,1,0,1:0:0:0:
261,320,291628,1,2,0:0:0:0:
231,361,291694,1,0,1:0:0:0:
180,367,291761,1,2,0:0:0:0:
144,330,291828,1,0,1:0:0:0:
144,279,291894,1,2,0:0:0:0:
114,237,291961,1,0,1:0:0:0:
63,230,292028,5,2,0:0:0:0:
116,198,292094,1,0,1:0:0:0:
132,137,292161,1,2,0:0:0:0:
101,82,292228,1,0,1:0:0:0:
116,22,292294,1,2,0:0:0:0:
177,7,292361,1,0,1:0:0:0:
229,41,292428,1,2,0:0:0:0:
234,102,292494,1,0,1:0:0:0:
282,142,292561,1,2,0:0:0:0:
342,126,292628,1,0,1:0:0:0:
368,70,292694,1,2,0:0:0:0:
426,47,292761,1,0,1:0:0:0:
486,62,292828,6,0,L|511:121,2,56.6666666666667,2|0|2,0:0|1:0|0:0,0:0:0:0:
339,101,293028,2,0,L|351:19,2,56.6666666666667,0|2|0,1:0|0:0|1:0,0:0:0:0:
470,191,293228,5,2,0:0:0:0:
459,188,293294,1,0,1:0:0:0:
447,189,293361,1,2,0:0:0:0:
436,193,293428,1,0,1:0:0:0:
426,199,293494,1,2,0:0:0:0:
419,208,293561,1,0,1:0:0:0:
416,219,293628,5,4,0:0:0:0:
399,142,293694,1,0,1:0:0:0:
326,108,293761,1,2,0:0:0:0:
251,135,293828,1,0,1:0:0:0:
231,211,293894,1,2,0:0:0:0:
162,251,293961,1,0,1:0:0:0:
85,228,294028,6,0,L|45:164,1,56.6666666666667,8|0,0:0|1:0,0:0:0:0:
182,75,294161,1,2,0:0:0:0:
173,125,294228,1,0,1:0:0:0:
199,168,294294,1,2,0:0:0:0:
250,170,294361,1,0,1:0:0:0:
290,137,294428,1,2,0:0:0:0:
340,141,294494,1,0,1:0:0:0:
377,175,294561,1,2,0:0:0:0:
379,226,294628,1,0,1:0:0:0:
354,270,294694,1,2,0:0:0:0:
358,321,294761,1,0,1:0:0:0:
400,350,294828,2,0,L|463:354,5,56.6666666666667,2|0|2|0|2|0,0:0|1:0|0:0|1:0|0:0|1:0,0:0:0:0:
413,233,295228,5,4,0:0:0:0:
362,258,295295,1,0,1:0:0:0:
306,243,295363,1,0,0:0:0:0:
272,197,295430,1,0,1:0:0:0:
279,140,295498,1,0,0:0:0:0:
251,91,295565,1,0,1:0:0:0:
195,76,295633,6,0,L|131:95,1,56.6666666666667,8|0,0:0|1:0,0:0:0:0:
166,206,295768,2,0,L|231:176,1,56.6666666666667,8|0,0:0|1:0,0:0:0:0:
182,65,295903,2,0,L|118:84,1,56.6666666666667,8|0,0:0|1:0,0:0:0:0:
45,146,296038,5,4,0:0:0:0:
38,167,296102,1,0,1:0:0:0:
38,189,296167,1,0,0:0:0:0:
44,210,296232,1,0,1:0:0:0:
57,228,296297,1,0,0:0:0:0:
76,239,296362,1,0,1:0:0:0:
97,245,296427,5,12,0:0:0:0:
97,245,296829,5,4,0:0:0:0:
141,241,296895,1,0,1:0:0:0:
173,208,296961,1,0,1:0:0:0:
173,162,297027,1,0,1:0:0:0:
144,127,297094,1,0,1:0:0:0:
144,81,297160,1,0,1:0:0:0:
177,50,297226,1,0,1:0:0:0:
221,53,297292,1,0,1:0:0:0:
255,82,297358,1,0,1:0:0:0:
300,87,297425,1,0,1:0:0:0:
342,71,297491,1,0,1:0:0:0:
362,30,297557,1,0,1:0:0:0:
406,21,297623,1,0,1:0:0:0:
445,42,297690,1,0,1:0:0:0:
452,86,297756,1,0,1:0:0:0:
424,122,297822,1,0,1:0:0:0:
379,129,297888,1,0,1:0:0:0:
343,99,297954,1,0,1:0:0:0:
297,99,298021,1,0,1:0:0:0:
261,125,298087,1,0,1:0:0:0:
253,169,298153,1,0,1:0:0:0:
275,208,298219,1,0,1:0:0:0:
314,229,298286,1,0,1:0:0:0:
359,222,298352,1,0,1:0:0:0:
402,236,298418,5,4,1:3:0:0:
362,256,298485,1,0,1:0:0:0:
318,244,298551,1,0,1:0:0:0:
293,205,298618,1,0,1:0:0:0:
307,162,298685,1,0,1:0:0:0:
297,117,298751,1,0,1:0:0:0:
257,94,298818,1,0,1:0:0:0:
212,99,298885,1,0,1:0:0:0:
185,135,298951,1,0,1:0:0:0:
181,180,299018,1,0,1:0:0:0:
150,213,299085,1,0,1:0:0:0:
104,219,299151,1,0,1:0:0:0:
68,190,299218,1,0,1:0:0:0:
57,146,299285,1,0,1:0:0:0:
79,106,299351,1,0,1:0:0:0:
123,94,299418,1,0,1:0:0:0:
165,109,299485,1,0,1:0:0:0:
184,150,299551,1,0,1:0:0:0:
175,194,299618,1,0,1:0:0:0:
187,236,299685,1,0,1:0:0:0:
221,265,299751,1,0,1:0:0:0:
266,268,299818,1,0,1:0:0:0:
306,249,299885,1,0,1:0:0:0:
328,209,299951,1,0,1:0:0:0:
327,163,300018,6,0,B|314:136|314:136|285:101,1,56.6666666666667,4|0,0:0|1:0,0:0:0:0:
181,291,300152,2,0,B|202:311|202:311|241:334,1,56.6666666666667,2|0,3:0|1:0,0:0:0:0:
398,240,300287,2,0,B|368:232|368:232|323:232,1,56.6666666666667,2|0,0:0|1:0,0:0:0:0:
144,247,300420,2,0,B|173:254|173:254|218:254,1,56.6666666666667,2|0,0:0|1:0,0:0:0:0:
355,158,300555,2,0,B|352:128|352:128|336:85,1,56.6666666666667,2|0,0:0|1:0,0:0:0:0:
175,52,300689,2,0,B|170:81|170:81|173:126,1,56.6666666666667,2|0,0:0|1:0,0:0:0:0:
311,231,300823,2,0,B|291:260|291:260|262:276,1,56.6666666666667,2|0,0:0|1:0,0:0:0:0:
71,223,300958,2,0,B|91:194|91:194|120:178,1,56.6666666666667,2|0,0:0|1:0,0:0:0:0:
278,154,301092,2,0,B|281:189|281:189|269:219,1,56.6666666666667,2|0,0:0|1:0,0:0:0:0:
105,319,301226,2,0,B|89:287|89:287|90:254,1,56.6666666666667,2|0,0:0|1:0,0:0:0:0:
147,120,301360,2,0,B|182:116|182:116|212:128,1,56.6666666666667,2|0,0:0|1:0,0:0:0:0:
340,240,301495,2,0,B|372:225|372:225|392:199,1,56.6666666666667,2|0,0:0|1:0,0:0:0:0:
339,27,301629,5,2,0:0:0:0:
342,82,301696,1,0,1:0:0:0:
312,130,301763,1,2,0:0:0:0:
255,138,301830,1,0,1:0:0:0:
214,176,301897,1,2,0:0:0:0:
214,232,301964,1,0,1:0:0:0:
250,275,302031,6,0,B|283:274|283:274|319:259,1,56.6666666666667,2|0,0:0|1:0,0:0:0:0:
326,141,302165,2,0,B|293:142|293:142|257:157,1,56.6666666666667,2|0,0:0|1:0,0:0:0:0:
263,286,302299,2,0,B|295:282|295:282|330:264,1,56.6666666666667,2|0,0:0|1:0,0:0:0:0:
225,137,302434,5,2,0:0:0:0:
203,162,302501,1,0,1:0:0:0:
171,174,302568,1,2,0:0:0:0:
136,172,302635,1,0,1:0:0:0:
107,154,302702,1,2,0:0:0:0:
90,124,302769,1,0,1:0:0:0:
91,89,302836,5,2,0:0:0:0:
98,97,302903,1,0,1:0:0:0:
103,106,302971,1,2,0:0:0:0:
106,116,303038,1,0,1:0:0:0:
105,127,303105,1,2,0:0:0:0:
102,138,303172,1,0,1:0:0:0:
96,147,303239,5,4,0:0:0:0:
140,123,303305,1,0,1:0:0:0:
191,123,303372,1,0,1:0:0:0:
235,148,303438,1,0,1:0:0:0:
254,194,303505,1,0,1:0:0:0:
244,244,303571,1,0,1:0:0:0:
260,292,303638,1,0,1:0:0:0:
300,321,303704,1,0,1:0:0:0:
350,326,303771,1,0,1:0:0:0:
395,302,303837,1,0,1:0:0:0:
419,257,303904,1,0,1:0:0:0:
418,205,303970,1,0,1:0:0:0:
394,159,304037,1,0,1:0:0:0:
347,139,304103,1,0,1:0:0:0:
321,94,304170,1,0,1:0:0:0:
328,43,304237,1,0,1:0:0:0:
368,12,304303,1,0,1:0:0:0:
419,16,304370,1,0,1:0:0:0:
450,55,304436,1,0,1:0:0:0:
453,106,304503,1,0,1:0:0:0:
418,143,304569,1,0,1:0:0:0:
367,149,304636,1,0,1:0:0:0:
329,183,304702,1,0,1:0:0:0:
321,233,304769,1,0,1:0:0:0:
345,278,304835,5,2,1:3:0:0:
357,229,304902,1,0,1:0:0:0:
324,189,304968,1,0,1:0:0:0:
272,187,305035,1,0,1:0:0:0:
244,229,305101,1,0,1:0:0:0:
194,243,305168,1,0,1:0:0:0:
148,219,305235,1,0,1:0:0:0:
134,170,305301,1,0,1:0:0:0:
156,123,305368,1,0,1:0:0:0:
144,73,305434,1,0,1:0:0:0:
99,50,305501,1,0,1:0:0:0:
50,67,305567,1,0,1:0:0:0:
26,112,305634,1,0,1:0:0:0:
40,160,305700,1,0,1:0:0:0:
86,180,305767,1,0,1:0:0:0:
111,224,305833,1,0,1:0:0:0:
97,272,305900,1,0,1:0:0:0:
113,320,305966,1,0,1:0:0:0:
157,344,306033,1,0,1:0:0:0:
207,337,306099,1,0,1:0:0:0:
239,297,306166,1,0,1:0:0:0:
242,245,306233,1,0,1:0:0:0:
273,205,306299,1,0,1:0:0:0:
324,200,306366,1,0,1:0:0:0:
368,224,306432,6,0,B|381:254|381:254|386:288,1,56.6666666666667,4|0,0:0|1:0,0:0:0:0:
158,379,306565,2,0,B|156:346|156:346|162:312,1,56.6666666666667,2|0,0:0|1:0,0:0:0:0:
362,244,306698,2,0,B|372:275|372:275|374:309,1,56.6666666666667,2|0,0:0|1:0,0:0:0:0:
283,155,306832,2,0,B|315:161|315:161|345:176,1,56.6666666666667,2|0,0:0|1:0,0:0:0:0:
396,368,306965,2,0,B|363:372|363:372|329:368,1,56.6666666666667,2|0,0:0|1:0,0:0:0:0:
248,177,307098,2,0,B|280:175|280:175|314:181,1,56.6666666666667,2|0,0:0|1:0,0:0:0:0:
476,260,307231,2,0,B|486:238|486:238|493:206,1,56.6666666666667,2|0,0:0|1:0,0:0:0:0:
383,49,307364,2,0,B|368:68|368:68|356:98,1,56.6666666666667,2|0,0:0|1:0,0:0:0:0:
444,269,307497,2,0,B|458:249|458:249|470:219,1,56.6666666666667,2|0,0:0|1:0,0:0:0:0:
326,89,307630,2,0,B|302:90|302:90|271:100,1,56.6666666666667,2|0,0:0|1:0,0:0:0:0:
291,275,307763,2,0,B|313:265|313:265|338:245,1,56.6666666666667,2|0,0:0|1:0,0:0:0:0:
290,78,307896,2,0,B|267:85|267:85|239:103,1,56.6666666666667,2|0,0:0|1:0,0:0:0:0:
191,298,308029,5,2,0:0:0:0:
135,292,308096,1,0,1:0:0:0:
99,247,308162,1,2,0:0:0:0:
99,190,308229,1,0,1:0:0:0:
140,152,308295,1,2,0:0:0:0:
151,96,308362,1,0,1:0:0:0:
125,44,308428,6,0,B|95:35|95:35|65:34,1,56.6666666666667,2|0,0:0|1:0,0:0:0:0:
18,197,308561,2,0,B|49:195|49:195|77:185,1,56.6666666666667,2|0,0:0|1:0,0:0:0:0:
154,38,308695,2,0,B|127:21|127:21|98:12,1,56.6666666666667,2|0,0:0|1:0,0:0:0:0:
150,197,308828,5,2,0:0:0:0:
166,226,308894,1,0,1:0:0:0:
195,243,308961,1,2,0:0:0:0:
228,247,309027,1,0,1:0:0:0:
260,238,309094,1,2,0:0:0:0:
285,215,309160,1,0,1:0:0:0:
297,183,309227,5,2,0:0:0:0:
303,192,309293,1,0,1:0:0:0:
310,200,309360,1,2,0:0:0:0:
319,206,309426,1,0,1:0:0:0:
329,210,309493,1,2,0:0:0:0:
340,212,309559,1,0,1:0:0:0:
351,211,309625,5,4,0:0:0:0:
316,255,309691,1,0,1:0:0:0:
323,311,309757,1,0,1:0:0:0:
370,342,309823,1,0,1:0:0:0:
425,330,309889,1,0,1:0:0:0:
455,282,309954,1,0,1:0:0:0:
439,227,310020,1,0,1:0:0:0:
388,202,310086,1,0,1:0:0:0:
367,148,310152,1,0,1:0:0:0:
386,94,310218,1,0,1:0:0:0:
365,41,310283,1,0,1:0:0:0:
311,22,310349,1,0,1:0:0:0:
261,49,310415,1,0,1:0:0:0:
247,103,310481,1,0,1:0:0:0:
272,153,310546,1,0,1:0:0:0:
257,207,310612,1,0,1:0:0:0:
207,234,310678,1,0,1:0:0:0:
153,215,310744,1,0,1:0:0:0:
97,227,310810,1,0,1:0:0:0:
67,274,310875,1,0,1:0:0:0:
77,329,310941,1,0,1:0:0:0:
122,363,311007,1,0,1:0:0:0:
177,356,311073,1,0,1:0:0:0:
210,310,311139,1,0,1:0:0:0:
205,253,311204,5,2,1:3:0:0:
239,297,311270,1,0,1:0:0:0:
295,299,311336,1,0,1:0:0:0:
336,259,311402,1,0,1:0:0:0:
335,202,311468,1,0,1:0:0:0:
290,166,311533,1,0,1:0:0:0:
233,167,311599,1,0,1:0:0:0:
189,130,311665,1,0,1:0:0:0:
186,73,311731,1,0,1:0:0:0:
146,30,311796,1,0,1:0:0:0:
90,34,311862,1,0,1:0:0:0:
51,76,311928,1,0,1:0:0:0:
54,132,311994,1,0,1:0:0:0:
94,170,312060,1,0,1:0:0:0:
150,162,312125,1,0,1:0:0:0:
187,118,312191,1,0,1:0:0:0:
240,102,312257,1,0,1:0:0:0:
295,114,312323,1,0,1:0:0:0:
331,158,312389,1,0,1:0:0:0:
338,213,312458,1,0,1:0:0:0:
387,242,312528,1,0,1:0:0:0:
442,227,312598,1,0,1:0:0:0:
468,177,312668,1,0,1:0:0:0:
454,121,312738,1,0,1:0:0:0:
401,99,312808,6,0,B|369:107|369:107|335:125,1,56.6666666666667,4|0,0:0|1:0,0:0:0:0:
384,263,312942,2,0,B|416:266|416:266|454:261,1,56.6666666666667,2|0,0:0|1:0,0:0:0:0:
497,117,313077,2,0,B|480:88|480:88|454:59,1,56.6666666666667,2|0,0:0|1:0,0:0:0:0:
314,132,313212,2,0,B|313:164|313:164|322:202,1,56.6666666666667,2|0,0:0|1:0,0:0:0:0:
452,303,313346,2,0,B|431:328|431:328|400:351,1,56.6666666666667,2|0,0:0|1:0,0:0:0:0:
257,209,313481,2,0,B|289:202|289:202|327:204,1,56.6666666666667,2|0,0:0|1:0,0:0:0:0:
336,363,313616,2,0,B|312:364|312:364|279:357,1,56.6666666666667,2|0,0:0|1:0,0:0:0:0:
390,224,313751,2,0,B|406:252|406:252|413:274,1,56.6666666666667,2|0,0:0|1:0,0:0:0:0:
231,295,313885,2,0,B|224:262|224:262|225:238,1,56.6666666666667,2|0,0:0|1:0,0:0:0:0:
289,95,314020,2,0,B|274:76|274:76|249:55,1,56.6666666666667,2|0,0:0|1:0,0:0:0:0:
136,161,314155,2,0,B|156:172|156:172|188:180,1,56.6666666666667,2|0,0:0|1:0,0:0:0:0:
322,118,314290,2,0,B|333:148|333:148|336:172,1,56.6666666666667,2|0,0:0|1:0,0:0:0:0:
138,250,314424,5,2,0:0:0:0:
142,194,314492,1,0,1:0:0:0:
109,147,314559,1,2,0:0:0:0:
52,139,314627,1,0,1:0:0:0:
23,90,314694,1,2,0:0:0:0:
40,35,314761,1,0,1:0:0:0:
95,21,314829,6,0,B|126:37|126:37|143:57,1,56.6666666666667,2|0,0:0|1:0,0:0:0:0:
109,198,314964,2,0,B|92:167|92:167|90:140,1,56.6666666666667,2|0,0:0|1:0,0:0:0:0:
133,8,315099,2,0,B|156:33|156:33|165:58,1,56.6666666666667,2|0,0:0|1:0,0:0:0:0:
241,190,315233,5,2,0:0:0:0:
274,195,315301,1,0,1:0:0:0:
306,183,315368,1,2,0:0:0:0:
327,156,315436,1,0,1:0:0:0:
327,122,315503,1,2,0:0:0:0:
340,90,315570,1,0,1:0:0:0:
370,74,315638,5,2,0:0:0:0:
363,83,315702,1,0,1:0:0:0:
353,89,315766,1,2,0:0:0:0:
342,94,315830,1,0,1:0:0:0:
331,97,315894,1,2,0:0:0:0:
319,98,315958,1,0,1:0:0:0:
307,96,316022,5,4,0:0:0:0:
361,124,316089,1,0,1:0:0:0:
383,182,316155,1,0,1:0:0:0:
366,242,316222,1,0,1:0:0:0:
310,269,316289,1,0,1:0:0:0:
248,256,316355,1,0,1:0:0:0:
215,202,316422,1,0,1:0:0:0:
157,178,316489,1,0,1:0:0:0:
98,199,316555,1,0,1:0:0:0:
69,254,316622,1,0,1:0:0:0:
80,314,316689,1,0,1:0:0:0:
129,352,316755,1,0,1:0:0:0:
191,344,316822,1,0,1:0:0:0:
232,298,316889,1,0,1:0:0:0:
291,279,316955,1,0,1:0:0:0:
350,299,317022,1,0,1:0:0:0:
376,354,317089,1,0,1:0:0:0:
436,369,317155,1,0,1:0:0:0:
491,340,317222,1,0,1:0:0:0:
504,279,317289,1,0,1:0:0:0:
470,226,317355,1,0,1:0:0:0:
407,220,317422,1,0,1:0:0:0:
364,175,317489,1,0,1:0:0:0:
370,112,317555,1,0,1:0:0:0:
421,76,317622,5,2,1:3:0:0:
395,132,317689,1,0,1:0:0:0:
339,160,317755,1,0,1:0:0:0:
280,137,317822,1,0,1:0:0:0:
259,78,317889,1,0,1:0:0:0:
204,47,317955,1,0,1:0:0:0:
143,63,318022,1,0,1:0:0:0:
118,119,318089,1,0,1:0:0:0:
134,179,318155,1,0,1:0:0:0:
185,214,318222,1,0,1:0:0:0:
193,275,318289,1,0,1:0:0:0:
152,323,318355,1,0,1:0:0:0:
89,320,318422,1,0,1:0:0:0:
51,270,318489,1,0,1:0:0:0:
63,208,318555,1,0,1:0:0:0:
119,180,318622,1,0,1:0:0:0:
177,199,318689,1,0,1:0:0:0:
234,175,318755,1,0,1:0:0:0:
255,116,318822,1,0,1:0:0:0:
311,92,318889,1,0,1:0:0:0:
371,108,318955,1,0,1:0:0:0:
398,164,319022,1,0,1:0:0:0:
382,223,319089,1,0,1:0:0:0:
327,253,319155,1,0,1:0:0:0:
265,238,319222,6,0,B|245:214|245:214|234:179,1,56.6666666666667,4|0,0:0|1:0,0:0:0:0:
446,71,319355,2,0,B|456:100|456:100|454:137,1,56.6666666666667,2|0,0:0|1:0,0:0:0:0:
245,235,319488,2,0,B|231:206|231:206|230:169,1,56.6666666666667,2|0,0:0|1:0,0:0:0:0:
319,13,319622,2,0,B|349:18|349:18|380:38,1,56.6666666666667,2|0,0:0|1:0,0:0:0:0:
414,202,319755,2,0,B|383:209|383:209|347:205,1,56.6666666666667,2|0,0:0|1:0,0:0:0:0:
301,28,319888,2,0,B|332:28|332:28|366:42,1,56.6666666666667,2|0,0:0|1:0,0:0:0:0:
279,247,320022,2,0,B|265:275|265:275|238:300,1,56.6666666666667,2|0,0:0|1:0,0:0:0:0:
145,114,320155,2,0,B|165:90|165:90|197:73,1,56.6666666666667,2|0,0:0|1:0,0:0:0:0:
291,242,320288,2,0,B|282:272|282:272|260:301,1,56.6666666666667,2|0,0:0|1:0,0:0:0:0:
106,192,320422,2,0,B|80:190|80:190|51:201,1,56.6666666666667,2|0,0:0|1:0,0:0:0:0:
108,379,320555,2,0,B|133:375|133:375|160:360,1,56.6666666666667,2|0,0:0|1:0,0:0:0:0:
122,182,320688,2,0,B|97:174|97:174|66:176,1,56.6666666666667,2|0,0:0|1:0,0:0:0:0:
198,351,320822,2,0,B|220:362|220:362|251:365,1,56.6666666666667,2|0,0:0|1:0,0:0:0:0:
250,183,320958,2,0,B|224:179|224:179|194:187,1,56.6666666666667,2|0,0:0|1:0,0:0:0:0:
223,343,321095,2,0,B|247:348|247:348|278:343,1,56.6666666666667,2|0,0:0|1:0,0:0:0:0:
422,172,321232,2,0,B|443:185|443:185|461:211,1,56.6666666666667,2|0,0:0|1:0,0:0:0:0:
372,371,321369,2,0,B|356:350|356:350|348:320,1,56.6666666666667,2|0,0:0|1:0,0:0:0:0:
448,165,321506,2,0,B|465:183|465:183|475:213,1,56.6666666666667,2|0,0:0|1:0,0:0:0:0:
312,282,321649,5,2,0:0:0:0:
253,248,321714,1,0,1:0:0:0:
238,181,321780,1,0,1:0:0:0:
276,124,321846,1,0,1:0:0:0:
269,56,321912,1,0,1:0:0:0:
210,20,321977,1,0,1:0:0:0:
146,46,322043,1,0,1:0:0:0:
122,109,322107,1,0,1:0:0:0:
153,169,322172,1,0,1:0:0:0:
122,230,322236,1,0,1:0:0:0:
55,238,322301,1,0,1:0:0:0:
24,299,322365,1,0,1:0:0:0:
54,359,322430,6,0,B|70:362|70:362|83:349|83:349|98:353|98:353|112:348,1,65.1666666666667,2|0,0:0|2:0,0:0:0:0:
199,373,324040,5,4,0:0:0:0:
161,338,324106,1,0,1:0:0:0:
150,288,324172,1,2,0:0:0:0:
169,240,324239,1,0,1:0:0:0:
217,225,324305,1,2,0:0:0:0:
265,241,324372,1,0,1:0:0:0:
283,296,324438,5,2,0:0:0:0:
277,233,324505,1,0,1:0:0:0:
271,171,324571,1,2,0:0:0:0:
266,108,324638,2,0,L|329:61,2,56.6666666666667,0|2|0,1:0|0:0|1:0,0:0:0:0:
441,90,324837,5,2,0:0:0:0:
374,77,324904,1,0,1:0:0:0:
306,64,324970,1,2,0:0:0:0:
239,51,325037,1,0,1:0:0:0:
171,38,325103,1,2,0:0:0:0:
104,26,325170,1,0,1:0:0:0:
36,14,325236,5,2,0:0:0:0:
59,30,325303,1,0,1:0:0:0:
75,52,325369,1,2,0:0:0:0:
82,79,325436,1,0,1:0:0:0:
75,106,325502,1,2,0:0:0:0:
58,129,325569,1,0,1:0:0:0:
32,141,325635,5,2,0:0:0:0:
66,102,325702,1,0,1:0:0:0:
116,99,325768,1,2,0:0:0:0:
158,128,325835,1,0,1:0:0:0:
164,178,325901,1,2,0:0:0:0:
143,224,325968,1,0,1:0:0:0:
93,238,326034,5,2,0:0:0:0:
153,249,326101,1,0,1:0:0:0:
214,260,326167,1,2,0:0:0:0:
274,271,326234,2,0,L|295:338,2,56.6666666666667,0|2|0,1:0|0:0|1:0,0:0:0:0:
195,369,326433,5,2,0:0:0:0:
197,357,326500,1,0,1:0:0:0:
199,345,326566,1,2,0:0:0:0:
201,333,326633,1,0,1:0:0:0:
203,322,326699,1,2,0:0:0:0:
205,310,326766,1,0,1:0:0:0:
207,299,326832,1,2,0:0:0:0:
209,287,326899,1,0,1:0:0:0:
211,276,326965,1,2,0:0:0:0:
213,264,327032,1,0,1:0:0:0:
215,253,327098,1,2,0:0:0:0:
217,242,327165,1,0,1:0:0:0:
219,230,327231,5,4,0:0:0:0:
173,251,327297,1,0,1:0:0:0:
124,234,327364,1,2,0:0:0:0:
109,185,327430,1,0,1:0:0:0:
138,142,327497,1,2,0:0:0:0:
140,91,327563,1,0,1:0:0:0:
94,50,327630,5,2,0:0:0:0:
155,45,327696,1,0,1:0:0:0:
216,40,327763,1,2,0:0:0:0:
278,35,327829,2,0,L|332:93,2,56.6666666666667,0|2|0,1:0|0:0|1:0,0:0:0:0:
423,0,328029,5,2,0:0:0:0:
395,62,328095,1,0,1:0:0:0:
368,123,328162,1,2,0:0:0:0:
340,185,328228,1,0,1:0:0:0:
313,247,328295,1,2,0:0:0:0:
286,309,328361,1,0,1:0:0:0:
260,372,328428,5,2,0:0:0:0:
250,351,328494,1,0,1:0:0:0:
247,328,328561,1,2,0:0:0:0:
256,307,328627,1,0,1:0:0:0:
273,292,328694,1,2,0:0:0:0:
295,288,328760,1,0,1:0:0:0:
317,294,328827,5,2,0:0:0:0:
328,294,328893,1,0,1:0:0:0:
338,290,328960,1,2,0:0:0:0:
348,284,329026,1,0,1:0:0:0:
356,276,329093,1,2,0:0:0:0:
361,265,329159,1,0,1:0:0:0:
362,253,329226,5,2,0:0:0:0:
432,289,329292,1,0,1:0:0:0:
501,252,329359,1,2,0:0:0:0:
503,172,329425,1,0,1:0:0:0:
435,131,329492,1,2,0:0:0:0:
424,52,329558,1,0,1:0:0:0:
487,3,329625,5,2,0:0:0:0:
469,56,329691,1,0,1:0:0:0:
419,84,329758,1,2,0:0:0:0:
365,66,329824,1,0,1:0:0:0:
310,83,329891,1,2,0:0:0:0:
284,133,329957,1,0,1:0:0:0:
301,187,330024,5,2,0:0:0:0:
308,178,330090,1,0,1:0:0:0:
317,172,330157,1,2,0:0:0:0:
328,169,330223,1,0,1:0:0:0:
339,169,330290,1,2,0:0:0:0:
349,172,330356,1,0,1:0:0:0:
359,176,330422,5,4,0:0:0:0:
315,202,330489,1,0,1:0:0:0:
264,198,330555,1,2,0:0:0:0:
230,158,330622,1,0,1:0:0:0:
230,107,330688,1,2,0:0:0:0:
191,73,330755,1,0,1:0:0:0:
139,84,330821,5,2,0:0:0:0:
116,141,330888,1,0,1:0:0:0:
93,199,330954,1,2,0:0:0:0:
76,258,331021,2,0,L|19:273,2,56.6666666666667,0|2|0,1:0|0:0|1:0,0:0:0:0:
0,376,331220,5,2,0:0:0:0:
66,367,331287,1,0,1:0:0:0:
132,358,331353,1,2,0:0:0:0:
199,349,331420,1,0,1:0:0:0:
265,340,331486,1,2,0:0:0:0:
333,331,331553,1,0,1:0:0:0:
400,322,331619,5,2,0:0:0:0:
376,338,331686,1,0,1:0:0:0:
348,343,331752,1,2,0:0:0:0:
322,330,331819,1,0,1:0:0:0:
307,305,331885,1,2,0:0:0:0:
307,276,331952,1,0,1:0:0:0:
324,253,332018,5,2,0:0:0:0:
274,242,332085,1,0,1:0:0:0:
246,198,332151,1,2,0:0:0:0:
263,150,332218,1,0,1:0:0:0:
239,104,332284,1,2,0:0:0:0:
189,92,332351,1,0,1:0:0:0:
147,131,332417,5,2,0:0:0:0:
208,126,332484,1,0,1:0:0:0:
269,121,332550,1,2,0:0:0:0:
331,116,332617,2,0,L|364:40,2,56.6666666666667,0|2|0,1:0|0:0|1:0,0:0:0:0:
445,162,332816,5,2,0:0:0:0:
447,173,332883,1,0,1:0:0:0:
449,183,332949,1,2,0:0:0:0:
451,194,333016,1,0,1:0:0:0:
453,204,333082,1,2,0:0:0:0:
455,214,333149,1,0,1:0:0:0:
457,225,333215,1,2,0:0:0:0:
459,235,333282,1,0,1:0:0:0:
461,246,333348,1,2,0:0:0:0:
463,256,333415,1,0,1:0:0:0:
466,267,333481,1,2,0:0:0:0:
469,277,333547,1,0,1:0:0:0:
472,288,333614,5,4,0:0:0:0:
431,257,333680,1,0,1:0:0:0:
380,255,333747,1,2,0:0:0:0:
341,289,333813,1,0,1:0:0:0:
329,338,333880,1,2,0:0:0:0:
282,359,333946,1,0,1:0:0:0:
233,336,334013,5,2,0:0:0:0:
211,276,334079,1,0,1:0:0:0:
190,217,334146,1,2,0:0:0:0:
169,157,334212,2,0,L|73:128,2,56.6666666666667,0|2|0,1:0|0:0|1:0,0:0:0:0:
54,25,334412,5,2,0:0:0:0:
121,32,334478,1,0,1:0:0:0:
189,39,334545,1,2,0:0:0:0:
256,46,334611,1,0,1:0:0:0:
324,54,334678,1,2,0:0:0:0:
391,62,334744,1,0,1:0:0:0:
459,70,334811,5,2,0:0:0:0:
437,75,334877,1,0,1:0:0:0:
416,85,334944,1,2,0:0:0:0:
401,102,335010,1,0,1:0:0:0:
393,123,335077,1,2,0:0:0:0:
391,145,335143,1,0,1:0:0:0:
395,166,335210,5,4,0:0:0:0:
395,177,335278,1,0,1:0:0:0:
393,188,335345,1,2,0:0:0:0:
388,198,335412,1,0,1:0:0:0:
381,207,335479,1,2,0:0:0:0:
372,214,335546,1,0,1:0:0:0:
361,218,335613,5,2,0:0:0:0:
422,268,335680,1,0,1:0:0:0:
411,346,335747,1,2,0:0:0:0:
337,377,335815,1,0,1:0:0:0:
279,322,335882,1,2,0:0:0:0:
199,324,335949,1,0,1:0:0:0:
148,384,336016,5,8,0:0:0:0:
192,349,336083,1,0,1:0:0:0:
197,292,336150,1,0,0:0:0:0:
159,249,336217,1,0,1:0:0:0:
164,192,336284,1,0,0:0:0:0:
212,162,336351,1,0,1:0:0:0:
266,179,336419,6,0,L|305:241,5,56.6666666666667,8|0|0|0|0|0,0:0|1:0|0:0|1:0|0:0|1:0,0:0:0:0:
421,178,336821,5,4,0:0:0:0:
370,177,336887,1,0,1:0:0:0:
336,138,336953,1,0,0:0:0:0:
336,86,337019,1,0,1:0:0:0:
374,53,337085,2,0,L|430:38,1,56.6666666666667,0|0,0:0|1:0,0:0:0:0:
363,193,337218,5,4,0:0:0:0:
301,184,337284,1,0,1:0:0:0:
239,174,337350,1,0,0:0:0:0:
176,165,337417,2,0,L|148:82,2,56.6666666666667,0|0|0,1:0|0:0|1:0,0:0:0:0:
65,296,337615,5,4,0:0:0:0:
129,277,337681,1,0,1:0:0:0:
194,257,337748,1,0,0:0:0:0:
259,238,337814,1,0,1:0:0:0:
323,219,337880,2,0,L|286:271,1,56.6666666666667,0|0,0:0|1:0,0:0:0:0:
256,380,338013,5,4,0:0:0:0:
243,354,338079,1,0,1:0:0:0:
218,339,338145,1,0,0:0:0:0:
189,336,338211,1,0,1:0:0:0:
162,345,338277,2,0,L|112:390,1,56.6666666666667,0|0,0:0|1:0,0:0:0:0:
56,233,338410,5,4,0:0:0:0:
104,245,338476,1,0,1:0:0:0:
153,230,338542,1,0,0:0:0:0:
183,188,338609,1,0,1:0:0:0:
186,137,338675,2,0,L|139:60,1,56.6666666666667,0|0,0:0|1:0,0:0:0:0:
297,17,338807,5,4,0:0:0:0:
292,78,338873,1,0,1:0:0:0:
287,140,338940,1,0,0:0:0:0:
283,202,339006,2,0,L|214:223,2,56.6666666666667,0|0|0,1:0|0:0|1:0,0:0:0:0:
413,134,339205,5,4,0:0:0:0:
415,144,339271,1,0,1:0:0:0:
418,154,339337,1,0,0:0:0:0:
421,164,339402,1,0,1:0:0:0:
423,174,339469,1,0,0:0:0:0:
426,184,339535,1,0,1:0:0:0:
403,225,339601,5,4,0:0:0:0:
401,235,339667,1,0,1:0:0:0:
398,245,339734,1,0,0:0:0:0:
395,255,339800,1,0,1:0:0:0:
393,265,339866,1,0,0:0:0:0:
390,275,339932,1,0,1:0:0:0:
428,315,339998,5,4,0:0:0:0:
406,269,340065,1,0,1:0:0:0:
358,249,340131,1,0,0:0:0:0:
308,263,340197,1,0,1:0:0:0:
274,300,340263,2,0,L|268:364,1,56.6666666666667,0|0,0:0|1:0,0:0:0:0:
112,274,340396,5,4,0:0:0:0:
104,212,340462,1,0,1:0:0:0:
97,149,340528,1,0,0:0:0:0:
90,86,340595,2,0,L|25:54,2,56.6666666666667,0|0|0,1:0|0:0|1:0,0:0:0:0:
188,11,340794,5,4,0:0:0:0:
251,33,340860,1,0,1:0:0:0:
315,56,340926,1,0,0:0:0:0:
379,79,340993,1,0,1:0:0:0:
442,101,341058,2,0,L|406:53,1,56.6666666666667,0|0,0:0|1:0,0:0:0:0:
278,135,341190,5,4,0:0:0:0:
275,162,341257,1,0,1:0:0:0:
284,188,341323,1,0,0:0:0:0:
303,208,341389,1,0,1:0:0:0:
330,215,341455,2,0,L|405:185,1,56.6666666666667,0|0,0:0|1:0,0:0:0:0:
471,289,341589,5,4,0:0:0:0:
468,300,341657,1,0,1:0:0:0:
461,309,341725,1,0,0:0:0:0:
451,315,341793,1,0,1:0:0:0:
439,317,341861,2,0,L|365:300,1,56.6666666666667,0|0,0:0|1:0,0:0:0:0:
271,193,341997,5,4,0:0:0:0:
192,201,342065,1,0,1:0:0:0:
168,277,342133,1,0,0:0:0:0:
214,341,342201,1,0,1:0:0:0:
290,322,342269,2,0,L|361:277,1,56.6666666666667,0|0,0:0|1:0,0:0:0:0:
323,124,342405,5,4,0:0:0:0:
339,70,342473,1,0,1:0:0:0:
392,51,342541,1,0,0:0:0:0:
445,71,342609,1,0,1:0:0:0:
460,124,342677,2,0,L|446:187,1,56.6666666666667,0|0,0:0|1:0,0:0:0:0:
310,218,342813,5,4,0:0:0:0:
299,213,342881,1,0,1:0:0:0:
287,210,342949,1,0,0:0:0:0:
275,210,343017,1,0,1:0:0:0:
264,212,343085,1,0,0:0:0:0:
253,217,343153,1,0,1:0:0:0:
231,271,343221,5,4,0:0:0:0:
227,220,343287,1,0,1:0:0:0:
191,182,343354,1,0,0:0:0:0:
139,183,343421,1,0,1:0:0:0:
99,214,343487,2,0,L|87:277,1,56.6666666666667,0|0,0:0|1:0,0:0:0:0:
15,113,343621,5,4,0:0:0:0:
75,122,343687,1,0,1:0:0:0:
136,131,343754,1,0,0:0:0:0:
197,140,343821,2,0,L|237:78,2,56.6666666666667,0|0|0,1:0|0:0|1:0,0:0:0:0:
306,10,344021,5,4,0:0:0:0:
319,76,344087,1,0,1:0:0:0:
332,143,344154,1,0,0:0:0:0:
345,209,344221,1,0,1:0:0:0:
358,274,344287,2,0,L|298:231,1,56.6666666666667,0|0,0:0|1:0,0:0:0:0:
420,138,344421,5,4,0:0:0:0:
444,151,344487,1,0,1:0:0:0:
462,172,344554,1,0,0:0:0:0:
469,199,344621,1,0,1:0:0:0:
465,226,344687,2,0,L|437:283,1,56.6666666666667,0|0,0:0|1:0,0:0:0:0:
291,156,344821,5,4,0:0:0:0:
240,160,344887,1,0,1:0:0:0:
201,193,344954,1,0,0:0:0:0:
195,243,345021,1,0,1:0:0:0:
217,287,345087,2,0,L|275:319,1,56.6666666666667,0|0,0:0|1:0,0:0:0:0:
221,128,345221,5,4,0:0:0:0:
163,151,345287,1,0,1:0:0:0:
105,174,345354,1,0,0:0:0:0:
47,198,345421,2,0,L|31:266,2,56.6666666666667,0|0|0,1:0|0:0|1:0,0:0:0:0:
0,56,345621,5,4,0:0:0:0:
10,58,345687,1,0,1:0:0:0:
20,61,345754,1,0,0:0:0:0:
30,64,345821,1,0,1:0:0:0:
40,66,345887,1,0,0:0:0:0:
50,69,345954,1,0,1:0:0:0:
80,98,346021,5,4,0:0:0:0:
90,96,346087,1,0,1:0:0:0:
100,93,346154,1,0,0:0:0:0:
110,90,346221,1,0,1:0:0:0:
120,88,346287,1,0,0:0:0:0:
130,85,346354,1,0,1:0:0:0:
158,39,346421,5,4,0:0:0:0:
163,89,346487,1,0,1:0:0:0:
200,124,346554,1,0,0:0:0:0:
249,135,346621,1,0,1:0:0:0:
293,110,346687,2,0,L|328:51,1,56.6666666666667,0|0,0:0|1:0,0:0:0:0:
480,107,346821,5,4,0:0:0:0:
425,135,346887,1,0,1:0:0:0:
369,163,346954,1,0,0:0:0:0:
313,192,347021,2,0,L|254:153,2,56.6666666666667,0|0|0,1:0|0:0|1:0,0:0:0:0:
430,317,347221,5,4,0:0:0:0:
408,253,347287,1,0,1:0:0:0:
386,188,347354,1,0,0:0:0:0:
364,123,347421,1,0,1:0:0:0:
342,59,347487,2,0,L|393:102,1,56.6666666666667,0|0,0:0|1:0,0:0:0:0:
247,121,347621,5,4,0:0:0:0:
223,135,347687,1,0,1:0:0:0:
209,160,347754,1,0,0:0:0:0:
208,188,347821,1,0,1:0:0:0:
214,215,347887,2,0,L|250:271,1,56.6666666666667,0|0,0:0|1:0,0:0:0:0:
191,363,348021,5,4,0:0:0:0:
187,352,348087,1,0,1:0:0:0:
180,342,348154,1,0,0:0:0:0:
171,334,348221,1,0,1:0:0:0:
160,329,348287,2,0,L|74:315,1,56.6666666666667,0|0,0:0|1:0,0:0:0:0:
27,193,348421,5,0,0:0:0:0:
100,220,348487,1,0,1:0:0:0:
170,182,348554,1,0,1:0:0:0:
183,103,348621,1,0,1:0:0:0:
247,57,348687,1,0,1:0:0:0:
323,77,348754,1,0,1:0:0:0:
355,149,348821,1,0,1:0:0:0:
326,222,348887,1,0,1:0:0:0:
250,247,348954,1,0,1:0:0:0:
242,326,349021,1,0,1:0:0:0:
302,375,349087,1,0,1:0:0:0:
374,342,349154,1,0,1:0:0:0:
383,262,349221,1,0,1:0:0:0:
318,217,349287,1,0,1:0:0:0:
307,137,349354,1,0,1:0:0:0:
362,80,349421,1,0,1:0:0:0:
439,90,349487,1,0,1:0:0:0:
481,157,349554,1,0,1:0:0:0:
459,233,349621,5,2,1:0:0:0:
256,192,349687,12,2,350954,0:0:0:0:
