osu file format v14

[General]
AudioFilename: hazakura.mp3.mp3
AudioLeadIn: 0
PreviewTime: 162319
Countdown: 0
SampleSet: Soft
StackLeniency: 0.7
Mode: 0
LetterboxInBreaks: 0
EpilepsyWarning: 1
WidescreenStoryboard: 1

[Editor]
Bookmarks: 11911,52295,138448,163064,187679,224602
DistanceSpacing: 1.6
BeatDivisor: 4
GridSize: 8
TimelineZoom: 4.179998

[Metadata]
Title:Yume to Hazakura
TitleUnicode:夢と葉桜
Artist:Aoki Gekkoh
ArtistUnicode:青木月光
Creator:Seto Kousuke
Version:Sakura no Yume
Source:
Tags:Hatsune Miku Vocaloid 初音ミク Dream and Cherry Tree Leaf 花楽里漫葉集 Karakuri Manyoushuu
BeatmapID:1057387
BeatmapSetID:496768

[Difficulty]
HPDrainRate:5
CircleSize:6
OverallDifficulty:6
ApproachRate:7
SliderMultiplier:0.7
SliderTickRate:1

[Events]
//Background and Video events
0,0,"mikuhazakura2.jpg",0,0
//Break Periods
2,27903,39111
//Storyboard Layer 0 (Background)
Sprite,Background,Centre,"sb\white.jpg",320,240 F,0,15372,16371,1,0 S,0,15372,16371,2
Sprite,Background,Centre,"sb\miku.jpg",320,240 M,0,163064,187678,220,240,320,240 S,0,163064,187678,1.2,0.765
Sprite,Background,Centre,"sb\black.jpg",320,240 F,0,0,15372,1
Sprite,Background,Centre,"sb\black.jpg",320,240 F,0,20756,23525,0.7,0
Sprite,Background,Centre,"sb\black.jpg",320,240 F,0,51525,53525,0.7,0
Sprite,Background,Centre,"sb\black.jpg",320,240 F,0,82295,85295,0.7,0
Sprite,Background,Centre,"sb\black.jpg",320,240 F,0,94602,97602,0.7,0
Sprite,Background,Centre,"sb\black.jpg",320,240 F,0,106910,109910,0.7,0
Sprite,Background,Centre,"sb\black.jpg",320,240 F,0,168448,171448,0.7,0
Sprite,Background,Centre,"sb\black.jpg",320,240 F,0,180756,183756,0.7,0
Sprite,Background,Centre,"sb\black.jpg",320,240 F,0,193064,196064,0.7,0
Sprite,Background,Centre,"sb\black.jpg",320,240 F,0,205372,208372,0.7,0
Sprite,Background,Centre,"sb\black.jpg",320,240 F,0,217679,220679,0.7,0
Sprite,Background,Centre,"sb\black.jpg",320,240 F,0,224602,253320,1
Sprite,Background,Centre,"sb\black.jpg",320,240 F,0,159987,161525,0,1
Sprite,Background,Centre,"sb\black.jpg",320,240 F,0,161525,162968,1
Sprite,Background,Centre,"sb\miku.jpg",320,240 M,0,76910,78410,320,240 F,0,76910,78410,0.6,0 S,0,76910,78410,0.765,0.8
Sprite,Background,Centre,"sb\miku.jpg",320,240 M,0,101525,103025,320,240 F,0,101525,103025,0.6,0 S,0,101525,103025,0.765,0.8
Sprite,Background,Centre,"sb\miku.jpg",320,240 M,0,113833,115333,320,240 F,0,113833,115333,0.6,0 S,0,113833,115333,0.765,0.8
Sprite,Background,Centre,"sb\miku.jpg",320,240 M,0,187679,189179,320,240 F,0,187679,189179,0.6,0 S,0,187679,189179,0.765,0.8
Sprite,Background,Centre,"sb\miku.jpg",320,240 M,0,212295,213795,320,240 F,0,212295,213795,0.6,0 S,0,212295,213795,0.765,0.8
//Storyboard Layer 1 (Fail)
//Storyboard Layer 2 (Pass)
//Storyboard Layer 3 (Foreground)
Sprite,Foreground,Centre,"sb\white.jpg",320,240 F,0,13834,14372,0,0.2 S,0,13834,14372,2
Sprite,Foreground,Centre,"sb\white.jpg",320,240 F,0,14372,15372,0.2,0.6 S,0,14372,15372,2
Sprite,Foreground,Centre,"sb\Ring.png",320,240 M,0,233866,235130,190,140 S,1,233866,235130,0.4,0.8 F,0,233866,236130,0.3,0 S,1,233966,235030,0.4,0.8 F,0,233966,236030,0.3,0
Sprite,Foreground,Centre,"sb\lotus.png",320,240 M,0,187867,196867,665,196,137,344 S,0,187867,196867,0.3 R,0,187867,196867,0.2,1.2 F,0,193867,196867,1,0 F,0,212295,212296,0
Sprite,Foreground,Centre,"sb\lotus.png",320,240 M,0,188154,197154,665,76,284,336 S,0,188154,197154,0.3 R,0,188154,197154,0.2,1.2 F,0,194154,197154,1,0 F,0,212295,212296,0
Sprite,Foreground,Centre,"sb\lotus.png",320,240 M,0,188327,197327,665,280,-33,357 S,0,188327,197327,0.3 R,0,188327,197327,0.2,1.2 F,0,194327,197327,1,0 F,0,212295,212296,0
Sprite,Foreground,Centre,"sb\lotus.png",320,240 M,0,188531,197531,665,144,70,459 S,0,188531,197531,0.3 R,0,188531,197531,0.2,1.2 F,0,194531,197531,1,0 F,0,212295,212296,0
Sprite,Foreground,Centre,"sb\lotus.png",320,240 M,0,188763,197763,665,144,168,377 S,0,188763,197763,0.3 R,0,188763,197763,0.2,1.2 F,0,194763,197763,1,0 F,0,212295,212296,0
Sprite,Foreground,Centre,"sb\lotus.png",320,240 M,0,189045,198045,665,334,263,445 S,0,189045,198045,0.3 R,0,189045,198045,0.2,1.2 F,0,195045,198045,1,0 F,0,212295,212296,0
Sprite,Foreground,Centre,"sb\lotus.png",320,240 M,0,189283,198283,665,228,196,434 S,0,189283,198283,0.3 R,0,189283,198283,0.2,1.2 F,0,195283,198283,1,0 F,0,212295,212296,0
Sprite,Foreground,Centre,"sb\lotus.png",320,240 M,0,189541,198541,665,143,120,452 S,0,189541,198541,0.3 R,0,189541,198541,0.2,1.2 F,0,195541,198541,1,0 F,0,212295,212296,0
Sprite,Foreground,Centre,"sb\lotus.png",320,240 M,0,189722,198722,665,85,-47,335 S,0,189722,198722,0.3 R,0,189722,198722,0.2,1.2 F,0,195722,198722,1,0 F,0,212295,212296,0
Sprite,Foreground,Centre,"sb\lotus.png",320,240 M,0,189845,198845,665,4,300,436 S,0,189845,198845,0.3 R,0,189845,198845,0.2,1.2 F,0,195845,198845,1,0 F,0,212295,212296,0
Sprite,Foreground,Centre,"sb\lotus.png",320,240 M,0,190163,199163,665,168,-57,401 S,0,190163,199163,0.3 R,0,190163,199163,0.2,1.2 F,0,196163,199163,1,0 F,0,212295,212296,0
Sprite,Foreground,Centre,"sb\lotus.png",320,240 M,0,190288,199288,665,246,237,471 S,0,190288,199288,0.3 R,0,190288,199288,0.2,1.2 F,0,196288,199288,1,0 F,0,212295,212296,0
Sprite,Foreground,Centre,"sb\lotus.png",320,240 M,0,190508,199508,665,232,215,337 S,0,190508,199508,0.3 R,0,190508,199508,0.2,1.2 F,0,196508,199508,1,0 F,0,212295,212296,0
Sprite,Foreground,Centre,"sb\lotus.png",320,240 M,0,190816,199816,665,194,171,438 S,0,190816,199816,0.3 R,0,190816,199816,0.2,1.2 F,0,196816,199816,1,0 F,0,212295,212296,0
Sprite,Foreground,Centre,"sb\lotus.png",320,240 M,0,191009,200009,665,259,126,414 S,0,191009,200009,0.3 R,0,191009,200009,0.2,1.2 F,0,197009,200009,1,0 F,0,212295,212296,0
Sprite,Foreground,Centre,"sb\lotus.png",320,240 M,0,191241,200241,665,97,-70,379 S,0,191241,200241,0.3 R,0,191241,200241,0.2,1.2 F,0,197241,200241,1,0 F,0,212295,212296,0
Sprite,Foreground,Centre,"sb\lotus.png",320,240 M,0,191541,200541,665,154,77,381 S,0,191541,200541,0.3 R,0,191541,200541,0.2,1.2 F,0,197541,200541,1,0 F,0,212295,212296,0
Sprite,Foreground,Centre,"sb\lotus.png",320,240 M,0,191833,200833,665,11,71,406 S,0,191833,200833,0.3 R,0,191833,200833,0.2,1.2 F,0,197833,200833,1,0 F,0,212295,212296,0
Sprite,Foreground,Centre,"sb\lotus.png",320,240 M,0,192115,201115,665,191,240,457 S,0,192115,201115,0.3 R,0,192115,201115,0.2,1.2 F,0,198115,201115,1,0 F,0,212295,212296,0
Sprite,Foreground,Centre,"sb\lotus.png",320,240 M,0,192239,201239,665,307,21,459 S,0,192239,201239,0.3 R,0,192239,201239,0.2,1.2 F,0,198239,201239,1,0 F,0,212295,212296,0
Sprite,Foreground,Centre,"sb\lotus.png",320,240 M,0,192355,201355,665,211,145,433 S,0,192355,201355,0.3 R,0,192355,201355,0.2,1.2 F,0,198355,201355,1,0 F,0,212295,212296,0
Sprite,Foreground,Centre,"sb\lotus.png",320,240 M,0,192521,201521,665,-12,171,426 S,0,192521,201521,0.3 R,0,192521,201521,0.2,1.2 F,0,198521,201521,1,0 F,0,212295,212296,0
Sprite,Foreground,Centre,"sb\lotus.png",320,240 M,0,192682,201682,665,58,133,409 S,0,192682,201682,0.3 R,0,192682,201682,0.2,1.2 F,0,198682,201682,1,0 F,0,212295,212296,0
Sprite,Foreground,Centre,"sb\lotus.png",320,240 M,0,192881,201881,665,185,93,398 S,0,192881,201881,0.3 R,0,192881,201881,0.2,1.2 F,0,198881,201881,1,0 F,0,212295,212296,0
Sprite,Foreground,Centre,"sb\lotus.png",320,240 M,0,193208,202208,665,178,160,380 S,0,193208,202208,0.3 R,0,193208,202208,0.2,1.2 F,0,199208,202208,1,0 F,0,212295,212296,0
Sprite,Foreground,Centre,"sb\lotus.png",320,240 M,0,193514,202514,665,315,197,376 S,0,193514,202514,0.3 R,0,193514,202514,0.2,1.2 F,0,199514,202514,1,0 F,0,212295,212296,0
Sprite,Foreground,Centre,"sb\lotus.png",320,240 M,0,193719,202719,665,309,308,445 S,0,193719,202719,0.3 R,0,193719,202719,0.2,1.2 F,0,199719,202719,1,0 F,0,212295,212296,0
Sprite,Foreground,Centre,"sb\lotus.png",320,240 M,0,194012,203012,665,288,-99,403 S,0,194012,203012,0.3 R,0,194012,203012,0.2,1.2 F,0,200012,203012,1,0 F,0,212295,212296,0
Sprite,Foreground,Centre,"sb\lotus.png",320,240 M,0,194325,203325,665,153,94,439 S,0,194325,203325,0.3 R,0,194325,203325,0.2,1.2 F,0,200325,203325,1,0 F,0,212295,212296,0
Sprite,Foreground,Centre,"sb\lotus.png",320,240 M,0,194501,203501,665,1,247,452 S,0,194501,203501,0.3 R,0,194501,203501,0.2,1.2 F,0,200501,203501,1,0 F,0,212295,212296,0
Sprite,Foreground,Centre,"sb\lotus.png",320,240 M,0,194639,203639,665,41,-20,410 S,0,194639,203639,0.3 R,0,194639,203639,0.2,1.2 F,0,200639,203639,1,0 F,0,212295,212296,0
Sprite,Foreground,Centre,"sb\lotus.png",320,240 M,0,194955,203955,665,45,15,354 S,0,194955,203955,0.3 R,0,194955,203955,0.2,1.2 F,0,200955,203955,1,0 F,0,212295,212296,0
Sprite,Foreground,Centre,"sb\lotus.png",320,240 M,0,195140,204140,665,125,31,376 S,0,195140,204140,0.3 R,0,195140,204140,0.2,1.2 F,0,201140,204140,1,0 F,0,212295,212296,0
Sprite,Foreground,Centre,"sb\lotus.png",320,240 M,0,195461,204461,665,86,200,466 S,0,195461,204461,0.3 R,0,195461,204461,0.2,1.2 F,0,201461,204461,1,0 F,0,212295,212296,0
Sprite,Foreground,Centre,"sb\lotus.png",320,240 M,0,195746,204746,665,227,194,343 S,0,195746,204746,0.3 R,0,195746,204746,0.2,1.2 F,0,201746,204746,1,0 F,0,212295,212296,0
Sprite,Foreground,Centre,"sb\lotus.png",320,240 M,0,196031,205031,665,57,83,366 S,0,196031,205031,0.3 R,0,196031,205031,0.2,1.2 F,0,202031,205031,1,0 F,0,212295,212296,0
Sprite,Foreground,Centre,"sb\lotus.png",320,240 M,0,196156,205156,665,237,201,351 S,0,196156,205156,0.3 R,0,196156,205156,0.2,1.2 F,0,202156,205156,1,0 F,0,212295,212296,0
Sprite,Foreground,Centre,"sb\lotus.png",320,240 M,0,196354,205354,665,170,167,436 S,0,196354,205354,0.3 R,0,196354,205354,0.2,1.2 F,0,202354,205354,1,0 F,0,212295,212296,0
Sprite,Foreground,Centre,"sb\lotus.png",320,240 M,0,196500,205500,665,95,-46,438 S,0,196500,205500,0.3 R,0,196500,205500,0.2,1.2 F,0,202500,205500,1,0 F,0,212295,212296,0
Sprite,Foreground,Centre,"sb\lotus.png",320,240 M,0,196638,205638,665,191,41,424 S,0,196638,205638,0.3 R,0,196638,205638,0.2,1.2 F,0,202638,205638,1,0 F,0,212295,212296,0
Sprite,Foreground,Centre,"sb\lotus.png",320,240 M,0,196835,205835,665,-12,15,411 S,0,196835,205835,0.3 R,0,196835,205835,0.2,1.2 F,0,202835,205835,1,0 F,0,212295,212296,0
Sprite,Foreground,Centre,"sb\lotus.png",320,240 M,0,196990,205990,665,220,120,442 S,0,196990,205990,0.3 R,0,196990,205990,0.2,1.2 F,0,202990,205990,1,0 F,0,212295,212296,0
Sprite,Foreground,Centre,"sb\lotus.png",320,240 M,0,197116,206116,665,158,307,386 S,0,197116,206116,0.3 R,0,197116,206116,0.2,1.2 F,0,203116,206116,1,0 F,0,212295,212296,0
Sprite,Foreground,Centre,"sb\lotus.png",320,240 M,0,197365,206365,665,-11,-9,438 S,0,197365,206365,0.3 R,0,197365,206365,0.2,1.2 F,0,203365,206365,1,0 F,0,212295,212296,0
Sprite,Foreground,Centre,"sb\lotus.png",320,240 M,0,197656,206656,665,121,270,401 S,0,197656,206656,0.3 R,0,197656,206656,0.2,1.2 F,0,203656,206656,1,0 F,0,212295,212296,0
Sprite,Foreground,Centre,"sb\lotus.png",320,240 M,0,197899,206899,665,58,241,442 S,0,197899,206899,0.3 R,0,197899,206899,0.2,1.2 F,0,203899,206899,1,0 F,0,212295,212296,0
Sprite,Foreground,Centre,"sb\lotus.png",320,240 M,0,198223,207223,665,309,146,359 S,0,198223,207223,0.3 R,0,198223,207223,0.2,1.2 F,0,204223,207223,1,0 F,0,212295,212296,0
Sprite,Foreground,Centre,"sb\lotus.png",320,240 M,0,198413,207413,665,180,-15,384 S,0,198413,207413,0.3 R,0,198413,207413,0.2,1.2 F,0,204413,207413,1,0 F,0,212295,212296,0
Sprite,Foreground,Centre,"sb\lotus.png",320,240 M,0,198533,207533,665,188,-45,466 S,0,198533,207533,0.3 R,0,198533,207533,0.2,1.2 F,0,204533,207533,1,0 F,0,212295,212296,0
Sprite,Foreground,Centre,"sb\lotus.png",320,240 M,0,198765,207765,665,-5,-4,362 S,0,198765,207765,0.3 R,0,198765,207765,0.2,1.2 F,0,204765,207765,1,0 F,0,212295,212296,0
Sprite,Foreground,Centre,"sb\lotus.png",320,240 M,0,199012,208012,665,165,10,414 S,0,199012,208012,0.3 R,0,199012,208012,0.2,1.2 F,0,205012,208012,1,0 F,0,212295,212296,0
Sprite,Foreground,Centre,"sb\lotus.png",320,240 M,0,199277,208277,665,184,-96,350 S,0,199277,208277,0.3 R,0,199277,208277,0.2,1.2 F,0,205277,208277,1,0 F,0,212295,212296,0
Sprite,Foreground,Centre,"sb\lotus.png",320,240 M,0,199466,208466,665,159,65,434 S,0,199466,208466,0.3 R,0,199466,208466,0.2,1.2 F,0,205466,208466,1,0 F,0,212295,212296,0
Sprite,Foreground,Centre,"sb\lotus.png",320,240 M,0,199671,208671,665,163,164,366 S,0,199671,208671,0.3 R,0,199671,208671,0.2,1.2 F,0,205671,208671,1,0 F,0,212295,212296,0
Sprite,Foreground,Centre,"sb\lotus.png",320,240 M,0,199921,208921,665,220,152,348 S,0,199921,208921,0.3 R,0,199921,208921,0.2,1.2 F,0,205921,208921,1,0 F,0,212295,212296,0
Sprite,Foreground,Centre,"sb\lotus.png",320,240 M,0,200081,209081,665,175,-97,376 S,0,200081,209081,0.3 R,0,200081,209081,0.2,1.2 F,0,206081,209081,1,0 F,0,212295,212296,0
Sprite,Foreground,Centre,"sb\lotus.png",320,240 M,0,200364,209364,665,197,191,459 S,0,200364,209364,0.3 R,0,200364,209364,0.2,1.2 F,0,206364,209364,1,0 F,0,212295,212296,0
Sprite,Foreground,Centre,"sb\lotus.png",320,240 M,0,200628,209628,665,44,180,358 S,0,200628,209628,0.3 R,0,200628,209628,0.2,1.2 F,0,206628,209628,1,0 F,0,212295,212296,0
Sprite,Foreground,Centre,"sb\lotus.png",320,240 M,0,200948,209948,665,96,157,468 S,0,200948,209948,0.3 R,0,200948,209948,0.2,1.2 F,0,206948,209948,1,0 F,0,212295,212296,0
Sprite,Foreground,Centre,"sb\lotus.png",320,240 M,0,201105,210105,665,47,-94,461 S,0,201105,210105,0.3 R,0,201105,210105,0.2,1.2 F,0,207105,210105,1,0 F,0,212295,212296,0
Sprite,Foreground,Centre,"sb\lotus.png",320,240 M,0,201362,210362,665,295,259,359 S,0,201362,210362,0.3 R,0,201362,210362,0.2,1.2 F,0,207362,210362,1,0 F,0,212295,212296,0
Sprite,Foreground,Centre,"sb\lotus.png",320,240 M,0,201658,210658,665,285,164,467 S,0,201658,210658,0.3 R,0,201658,210658,0.2,1.2 F,0,207658,210658,1,0 F,0,212295,212296,0
Sprite,Foreground,Centre,"sb\lotus.png",320,240 M,0,201831,210831,665,233,236,397 S,0,201831,210831,0.3 R,0,201831,210831,0.2,1.2 F,0,207831,210831,1,0 F,0,212295,212296,0
Sprite,Foreground,Centre,"sb\lotus.png",320,240 M,0,202085,211085,665,192,87,406 S,0,202085,211085,0.3 R,0,202085,211085,0.2,1.2 F,0,208085,211085,1,0 F,0,212295,212296,0
Sprite,Foreground,Centre,"sb\lotus.png",320,240 M,0,202406,211406,665,-5,28,457 S,0,202406,211406,0.3 R,0,202406,211406,0.2,1.2 F,0,208406,211406,1,0 F,0,212295,212296,0
Sprite,Foreground,Centre,"sb\lotus.png",320,240 M,0,202719,211719,665,59,234,451 S,0,202719,211719,0.3 R,0,202719,211719,0.2,1.2 F,0,208719,211719,1,0 F,0,212295,212296,0
Sprite,Foreground,Centre,"sb\lotus.png",320,240 M,0,202916,211916,665,228,-31,460 S,0,202916,211916,0.3 R,0,202916,211916,0.2,1.2 F,0,208916,211916,1,0 F,0,212295,212296,0
Sprite,Foreground,Centre,"sb\lotus.png",320,240 M,0,203036,212036,665,219,89,426 S,0,203036,212036,0.3 R,0,203036,212036,0.2,1.2 F,0,209036,212036,1,0 F,0,212295,212296,0
Sprite,Foreground,Centre,"sb\lotus.png",320,240 M,0,203195,212195,665,119,200,431 S,0,203195,212195,0.3 R,0,203195,212195,0.2,1.2 F,0,209195,212195,1,0 F,0,212295,212296,0
Sprite,Foreground,Centre,"sb\lotus.png",320,240 M,0,203404,212404,665,101,-88,471 S,0,203404,212404,0.3 R,0,203404,212404,0.2,1.2 F,0,209404,212404,1,0 F,0,212295,212296,0
Sprite,Foreground,Centre,"sb\lotus.png",320,240 M,0,203559,212559,665,282,243,389 S,0,203559,212559,0.3 R,0,203559,212559,0.2,1.2 F,0,209559,212559,1,0 F,0,212295,212296,0
Sprite,Foreground,Centre,"sb\lotus.png",320,240 M,0,203796,212796,665,118,-2,457 S,0,203796,212796,0.3 R,0,203796,212796,0.2,1.2 F,0,209796,212796,1,0 F,0,212295,212296,0
Sprite,Foreground,Centre,"sb\lotus.png",320,240 M,0,204107,213107,665,323,82,458 S,0,204107,213107,0.3 R,0,204107,213107,0.2,1.2 F,0,210107,213107,1,0 F,0,212295,212296,0
Sprite,Foreground,Centre,"sb\lotus.png",320,240 M,0,204368,213368,665,-3,28,348 S,0,204368,213368,0.3 R,0,204368,213368,0.2,1.2 F,0,210368,213368,1,0 F,0,212295,212296,0
Sprite,Foreground,Centre,"sb\lotus.png",320,240 M,0,204585,213585,665,311,243,430 S,0,204585,213585,0.3 R,0,204585,213585,0.2,1.2 F,0,210585,213585,1,0 F,0,212295,212296,0
Sprite,Foreground,Centre,"sb\lotus.png",320,240 M,0,204761,213761,665,64,291,371 S,0,204761,213761,0.3 R,0,204761,213761,0.2,1.2 F,0,210761,213761,1,0 F,0,212295,212296,0
Sprite,Foreground,Centre,"sb\lotus.png",320,240 M,0,204887,213887,665,254,154,457 S,0,204887,213887,0.3 R,0,204887,213887,0.2,1.2 F,0,210887,213887,1,0 F,0,212295,212296,0
Sprite,Foreground,Centre,"sb\lotus.png",320,240 M,0,3065,13834,318,-70,318,313 S,0,3065,13834,0.3 R,0,3065,13834,0,0.9 F,0,13834,14734,1,0 S,0,13834,14734,0.3,0.4
Sprite,Foreground,Centre,"sb\lotus.png",320,240 M,0,5065,13834,118,-70,318,188 S,0,5065,13834,0.3 R,0,5065,13834,0,0.9 F,0,13834,14734,1,0 S,0,13834,14734,0.3,0.4
Sprite,Foreground,Centre,"sb\lotus.png",320,240 M,0,7065,13834,472,-70,218,188 S,0,7065,13834,0.3 R,0,7065,13834,0,0.9 F,0,13834,14734,1,0 S,0,13834,14734,0.3,0.4
Sprite,Foreground,Centre,"sb\lotus.png",320,240 M,0,6065,13834,701,168,302,416 S,0,6065,13834,0.3 R,0,6065,13834,0,0.9 F,0,13834,14734,1,0 S,0,13834,14734,0.3,0.4
Sprite,Foreground,Centre,"sb\lotus.png",320,240 M,0,4065,13834,239,-70,418,313 S,0,4065,13834,0.3 R,0,4065,13834,0,0.9 F,0,13834,14734,1,0 S,0,13834,14734,0.3,0.4
Sprite,Foreground,Centre,"sb\lotus.png",320,240 M,0,3065,13834,218,-70,88,188 S,0,3065,13834,0.3 R,0,3065,13834,0,0.9 F,0,13834,14734,1,0 S,0,13834,14734,0.3,0.4
Sprite,Foreground,Centre,"sb\lotus.png",320,240 M,0,5065,13834,239,-70,118,188 S,0,5065,13834,0.3 R,0,5065,13834,0,0.9 F,0,13834,14734,1,0 S,0,13834,14734,0.3,0.4
Sprite,Foreground,Centre,"sb\lotus.png",320,240 M,0,6065,13834,701,368,502,216 S,0,6065,13834,0.3 R,0,6065,13834,0,0.9 F,0,13834,14734,1,0 S,0,13834,14734,0.3,0.4
Sprite,Foreground,Centre,"sb\lotus.png",320,240 M,0,224150,233843,445,-130,390,411 S,0,224150,233843,0.6 R,0,224150,233843,0.8,1.7 M,0,233843,234743,390,411,340,411 F,0,233843,234743,1,0 S,0,233843,234743,0.6,0.7
Sprite,Foreground,Centre,"sb\imegafofokuronlindoghmorzinho.png",320,240 M,0,236967,241559,285,246 F,0,236967,241559,0,1
Sprite,Foreground,Centre,"sb\imegafofokuronlindoghmorzinho.png",320,240 M,0,241559,248145,285,246 S,0,241559,248145,1 F,0,248145,249045,1,0
Sprite,Foreground,Centre,"sb\imegafofokuronlindoghmorzinho.png",320,240 M,0,248145,252304,285,246 F,0,248145,252304,1,0
Sprite,Foreground,Centre,"sb\white.jpg",320,240 F,0,162295,162968,0,1 S,0,162295,162968,2
Sprite,Foreground,Centre,"sb\white.jpg",320,240 F,0,162968,164256,1,0 S,0,162968,164256,2
Sprite,Foreground,Centre,"sb\Ring.png",320,240 M,0,3113,4377,320,323 S,1,3113,4377,0.4,0.8 F,0,3113,5377,0.3,0 S,1,3213,4277,0.4,0.8 F,0,3213,5277,0.3,0
Sprite,Foreground,Centre,"sb\Ring.png",320,240 M,0,4603,5867,411,355 S,1,4603,5867,0.4,0.8 F,0,4603,6867,0.3,0 S,1,4703,5767,0.4,0.8 F,0,4703,6767,0.3,0
Sprite,Foreground,Centre,"sb\Ring.png",320,240 M,0,6142,7406,214,301 S,1,6142,7406,0.4,0.8 F,0,6142,8406,0.3,0 S,1,6242,7306,0.4,0.8 F,0,6242,8306,0.3,0
Sprite,Foreground,Centre,"sb\Ring.png",320,240 M,0,7702,8966,270,358 S,1,7702,8966,0.4,0.8 F,0,7702,9966,0.3,0 S,1,7802,8866,0.4,0.8 F,0,7802,9866,0.3,0
Sprite,Foreground,Centre,"sb\Ring.png",320,240 M,0,9266,10530,464,440 S,1,9266,10530,0.4,0.8 F,0,9266,11530,0.3,0 S,1,9366,10430,0.4,0.8 F,0,9366,11430,0.3,0
Sprite,Foreground,Centre,"sb\Ring.png",320,240 M,0,10757,12021,342,352 S,1,10757,12021,0.4,0.8 F,0,10757,13021,0.3,0 S,1,10857,11921,0.4,0.8 F,0,10857,12921,0.3,0
Sprite,Foreground,Centre,"sb\Ring.png",320,240 M,0,15372,16636,171,148 F,0,15372,16636,1,0 S,1,15372,16636,0.4,4
Sprite,Foreground,Centre,"sb\Ring.png",320,240 M,0,20780,22044,410,260 F,0,20780,22044,1,0 S,1,20780,22044,0.4,4
Sprite,Foreground,Centre,"sb\Ring.png",320,240 M,0,27679,28943,147,218 F,0,27679,28943,1,0 S,1,27679,28943,0.4,4
Sprite,Foreground,Centre,"sb\Ring.png",320,240 M,0,51549,52813,238,354 F,0,51549,52813,1,0 S,1,51549,52813,0.4,4
Sprite,Foreground,Centre,"sb\Ring.png",320,240 M,0,82319,83583,490,392 F,0,82319,83583,1,0 S,1,82319,83583,0.4,4
Sprite,Foreground,Centre,"sb\Ring.png",320,240 M,0,94626,95890,214,256 F,0,94626,95890,1,0 S,1,94626,95890,0.4,4
Sprite,Foreground,Centre,"sb\Ring.png",320,240 M,0,106910,108174,262,398 F,0,106910,108174,1,0 S,1,106910,108174,0.4,4
Sprite,Foreground,Centre,"sb\Ring.png",320,240 M,0,168448,168452,84.63227,300.8645 F,0,168448,169712,1,0 S,1,168448,169712,0.4,4 M,0,168452,168455,84.63227,300.8645 M,0,168455,168458,84.63227,300.8645 M,0,168458,168462,84.63227,300.8645 M,0,168462,168464,84.63227,300.8645 M,0,168464,168467,84.63227,300.8645 M,0,168467,168477,84.63227,300.8645 M,0,168477,168479,84.63227,300.8645 M,0,168479,168488,84.63227,300.8645 M,0,168488,168492,84.63227,300.8645 M,0,168492,168496,84.63227,300.8645 M,0,168496,168507,84.63227,300.8645 M,0,168507,168511,84.63227,300.8645 M,0,168511,168520,84.63227,300.8645 M,0,168520,168523,84.63227,300.8645 M,0,168523,168526,84.63227,300.8645 M,0,168526,168537,84.63227,300.8645 M,0,168537,168541,84.63227,300.8645 M,0,168541,168551,84.63227,300.8645 M,0,168551,168557,84.63227,300.8645 M,0,168557,168568,84.63227,300.8645 M,0,168568,168572,84.63227,300.8645 M,0,168572,168575,84.63227,300.8645 M,0,168575,168583,84.63227,300.8645 M,0,168583,168588,84.63227,300.8645 M,0,168588,168600,84.63227,300.8645 M,0,168600,168604,84.63227,300.8645 M,0,168604,168617,84.63227,300.8645 M,0,168617,168622,84.63227,300.8645 M,0,168622,168632,84.63227,300.8645 M,0,168632,168637,84.63227,300.8645 M,0,168637,168646,84.63227,300.8645 M,0,168646,168650,84.63227,300.8645 M,0,168650,168654,84.63227,300.8645 M,0,168654,168663,84.63227,300.8645 M,0,168663,168668,84.63227,300.8645 M,0,168668,168675,84.63227,300.8645 M,0,168675,168688,84.63227,300.8645 M,0,168688,168701,84.63227,300.8645 M,0,168701,168706,84.63227,300.8645 M,0,168706,168716,84.63227,300.8645 M,0,168716,168721,84.63227,300.8645 M,0,168721,168732,84.63227,300.8645 M,0,168732,168737,84.63227,300.8645 M,0,168737,168750,84.63227,300.8645 M,0,168750,168755,84.63227,300.8645 M,0,168755,168768,84.63227,300.8645 M,0,168768,168775,84.63227,300.8645 M,0,168775,168783,84.63227,300.8645 M,0,168783,168788,84.63227,300.8645 M,0,168788,168797,84.63227,300.8645 M,0,168797,168801,84.63227,300.8645 M,0,168801,168806,84.63227,300.8645 M,0,168806,168818,84.63227,300.8645 M,0,168818,168823,84.63227,300.8645 M,0,168823,168833,84.63227,300.8645 M,0,168833,168839,84.63227,300.8645 M,0,168839,168850,84.63227,300.8645 M,0,168850,168855,84.63227,300.8645 M,0,168855,168862,84.63227,300.8645 M,0,168862,168867,84.63227,300.8645 M,0,168867,168871,84.63227,300.8645 M,0,168871,168879,84.63227,300.8645 M,0,168879,168884,84.63227,300.8645 M,0,168884,168890,84.63227,300.8645 M,0,168890,168899,84.63227,300.8645 M,0,168899,168902,84.63227,300.8645 M,0,168902,168908,84.63227,300.8645 M,0,168908,168917,84.63227,300.8645 M,0,168917,168921,84.63227,300.8645 M,0,168921,168930,84.63227,300.8645 M,0,168930,168935,84.63227,300.8645 M,0,168935,168939,84.63227,300.8645 M,0,168939,168947,84.63227,300.8645 M,0,168947,168952,84.63227,300.8645 M,0,168952,168957,84.63227,300.8645 M,0,168957,168967,84.63227,300.8645 M,0,168967,168972,84.63227,300.8645 M,0,168972,168984,84.63227,300.8645 M,0,168984,168988,84.63227,300.8645 M,0,168988,168997,84.63227,300.8645 M,0,168997,169001,84.63227,300.8645 M,0,169001,169007,84.63227,300.8645 M,0,169007,169015,84.63227,300.8645 M,0,169015,169019,84.63227,300.8645 M,0,169019,169023,84.63227,300.8645 M,0,169023,169034,84.63227,300.8645 M,0,169034,169039,84.63227,300.8645 M,0,169039,169050,84.63227,300.8645 M,0,169050,169056,84.63227,300.8645 M,0,169056,169063,84.63227,300.8645 M,0,169063,169067,84.63227,300.8645 M,0,169067,169071,84.63227,300.8645 M,0,169071,169080,84.63227,300.8645 M,0,169080,169083,84.63227,300.8645 M,0,169083,169087,84.63227,300.8645 M,0,169087,169098,84.63227,300.8645 M,0,169098,169102,84.63227,300.8645 M,0,169102,169107,84.63227,300.8645 M,0,169107,169118,84.63227,300.8645 M,0,169118,169127,84.63227,300.8645 M,0,169127,169135,84.63227,300.8645 M,0,169135,169140,84.63227,300.8645 M,0,169140,169149,84.63227,300.8645 M,0,169149,169153,84.63227,300.8645 M,0,169153,169162,84.63227,300.8645 M,0,169162,169168,84.63227,300.8645 M,0,169168,169172,84.63227,300.8645 M,0,169172,169180,84.63227,300.8645 M,0,169180,169186,84.63227,300.8645 M,0,169186,169196,84.63227,300.8645 M,0,169196,169200,84.63227,300.8645 M,0,169200,169205,84.63227,300.8645 M,0,169205,169214,84.63227,300.8645 M,0,169214,169218,84.63227,300.8645 M,0,169218,169222,84.63227,300.8645 M,0,169222,169231,84.63227,300.8645 M,0,169231,169238,84.63227,300.8645 M,0,169238,169248,84.63227,300.8645 M,0,169248,169256,84.63227,300.8645 M,0,169256,169268,84.63227,300.8645 M,0,169268,169272,84.63227,300.8645 M,0,169272,169282,84.63227,300.8645 M,0,169282,169288,84.63227,300.8645 M,0,169288,169299,84.63227,300.8645 M,0,169299,169305,84.63227,300.8645 M,0,169305,169315,84.63227,300.8645 M,0,169315,169320,84.63227,300.8645 M,0,169320,169325,84.63227,300.8645 M,0,169325,169338,84.63227,300.8645 M,0,169338,169352,84.63227,300.8645 M,0,169352,169358,84.63227,300.8645 M,0,169358,169370,84.63227,300.8645 M,0,169370,169376,84.63227,300.8645 M,0,169376,169386,84.63227,300.8645 M,0,169386,169392,84.63227,300.8645 M,0,169392,169402,84.63227,300.8645 M,0,169402,169408,84.63227,300.8645 M,0,169408,169419,84.63227,300.8645 M,0,169419,169425,84.63227,300.8645 M,0,169425,169434,84.63227,300.8645 M,0,169434,169438,84.63227,300.8645 M,0,169438,169449,84.63227,300.8645 M,0,169449,169452,84.63227,300.8645 M,0,169452,169458,84.63227,300.8645 M,0,169458,169470,84.63227,300.8645 M,0,169470,169480,84.63227,300.8645 M,0,169480,169485,84.63227,300.8645 M,0,169485,169490,84.63227,300.8645 M,0,169490,169500,84.63227,300.8645 M,0,169500,169506,84.63227,300.8645 M,0,169506,169515,84.63227,300.8645 M,0,169515,169519,84.63227,300.8645 M,0,169519,169523,84.63227,300.8645 M,0,169523,169534,84.63227,300.8645 M,0,169534,169539,84.63227,300.8645 M,0,169539,169552,84.63227,300.8645 M,0,169552,169558,84.63227,300.8645 M,0,169558,169569,84.63227,300.8645 M,0,169569,169576,84.63227,300.8645 M,0,169576,169588,84.63227,300.8645 M,0,169588,169599,84.63227,300.8645 M,0,169599,169605,84.63227,300.8645 M,0,169605,169618,84.63227,300.8645 M,0,169618,169624,84.63227,300.8645 M,0,169624,169633,84.63227,300.8645 M,0,169633,169637,84.63227,300.8645 M,0,169637,169647,84.63227,300.8645 M,0,169647,169651,84.63227,300.8645 M,0,169651,169657,84.63227,300.8645 M,0,169657,169666,84.63227,300.8645 M,0,169666,169672,84.63227,300.8645 M,0,169672,169685,84.63227,300.8645 M,0,169685,169690,84.63227,300.8645 M,0,169690,169699,84.63227,300.8645 M,0,169699,169702,84.63227,300.8645 M,0,169702,169707,84.63227,300.8645 M,0,169707,169712,84.63227,300.8645,154,414 M,0,169712,169717,154,414,84.63227,300.8645 M,0,169717,169722,84.63227,300.8645 M,0,169722,169735,84.63227,300.8645 M,0,169735,169741,84.63227,300.8645 M,0,169741,169752,84.63227,300.8645 M,0,169752,169757,84.63227,300.8645 M,0,169757,169766,84.63227,300.8645 M,0,169766,169771,84.63227,300.8645 M,0,169771,169782,84.63227,300.8645 M,0,169782,169786,84.63227,300.8645 M,0,169786,169791,84.63227,300.8645,84.63227,299.2129 M,0,169791,169801,84.63227,299.2129,84.63227,294.2581
Sprite,Foreground,Centre,"sb\Ring.png",320,240 M,0,180780,182044,271,407 F,0,180780,182044,1,0 S,1,180780,182044,0.4,4
Sprite,Foreground,Centre,"sb\Ring.png",320,240 M,0,193064,194328,230,270 F,0,193064,194328,1,0 S,1,193064,194328,0.4,4
Sprite,Foreground,Centre,"sb\Ring.png",320,240 M,0,205372,206636,430,406 F,0,205372,206636,1,0 S,1,205372,206636,0.4,4
Sprite,Foreground,Centre,"sb\Ring.png",320,240 M,0,217703,218967,318,343 F,0,217703,218967,1,0 S,1,217703,218967,0.4,4
//Storyboard Sound Samples

[TimingPoints]
2296,384.615384615385,4,2,2,5,1,0
2296,-153.846153846153,4,2,2,5,0,0
3113,384.615384615385,4,2,2,5,1,0
3113,-153.846153846154,4,2,2,5,0,0
4242,384.615384615385,4,2,2,5,1,0
4242,-153.846153846154,4,2,2,5,0,0
5371,384.615384615385,4,2,2,5,1,0
5371,-153.846153846154,4,2,2,5,0,0
6164,384.615384615385,4,2,2,5,1,0
6164,-153.846153846154,4,2,2,5,0,0
7704,384.615384615385,4,2,2,5,1,0
7704,-153.846153846154,4,2,2,5,0,0
9266,384.615384615385,4,2,2,5,1,0
9266,-153.846153846154,4,2,2,5,0,0
10395,384.615384615385,4,2,2,5,1,0
10781,384.615384615385,4,2,2,5,1,0
10781,-153.846153846154,4,2,2,5,0,0
12296,-100,4,2,2,10,0,0
12872,-100,4,2,2,20,0,0
13449,-100,4,2,2,25,0,0
13834,-117.647058823529,4,2,1,35,0,0
14603,-200,4,2,1,40,0,0
15396,384.615384615385,4,2,1,60,1,0
15396,-83.3333333333333,4,2,1,60,0,0
17222,-83.3333333333333,4,2,1,80,0,0
17992,-83.3333333333333,4,2,1,30,0,0
18184,-83.3333333333333,4,2,1,60,0,0
20011,-117.647058823529,4,2,1,60,0,0
20780,-200,4,2,1,45,0,0
21133,-200,4,2,1,5,0,0
21197,-200,4,2,1,45,0,0
21549,-100,4,2,1,60,0,0
23376,-100,4,2,1,80,0,0
23953,-100,4,2,1,35,0,0
24338,-100,4,2,1,60,0,0
26838,-100,4,2,2,80,0,0
27030,-100,4,2,1,60,0,0
40011,-100,4,2,1,20,0,0
51549,-200,4,2,1,15,0,0
52319,-100,4,2,1,45,0,0
63761,-100,4,2,2,65,0,0
63953,-100,4,2,1,45,0,0
70780,-100,4,2,1,30,0,0
76069,-100,4,2,2,50,0,0
76261,-100,4,2,1,30,0,0
76934,-117.647058823529,4,2,1,60,0,1
78761,-117.647058823529,4,2,1,80,0,1
79338,-117.647058823529,4,2,1,60,0,1
81838,-117.647058823529,4,2,1,80,0,1
82319,-200,4,2,1,60,0,1
83665,-117.647058823529,4,2,1,60,0,1
84915,-117.647058823529,4,2,1,80,0,1
85492,-117.647058823529,4,2,1,60,0,1
87992,-117.647058823529,4,2,1,80,0,1
88376,-117.647058823529,4,2,2,80,0,1
88569,-117.647058823529,4,2,1,60,0,1
91069,-117.647058823529,4,2,1,80,0,1
91646,-117.647058823529,4,2,1,60,0,1
94146,-117.647058823529,4,2,1,80,0,1
94626,-200,4,2,1,60,0,1
95972,-117.647058823529,4,2,1,60,0,1
97222,-117.647058823529,4,2,1,80,0,1
97799,-117.647058823529,4,2,1,60,0,1
100684,-117.647058823529,4,2,2,85,0,1
100876,-117.647058823529,4,2,1,60,0,1
101549,-100,4,2,1,60,0,1
103376,-100,4,2,1,85,0,1
103953,-100,4,2,1,60,0,1
106453,-100,4,2,1,85,0,1
106934,-200,4,2,1,60,0,1
107703,-100,4,2,1,60,0,1
109530,-100,4,2,1,85,0,1
110107,-100,4,2,1,60,0,1
112607,-100,4,2,1,85,0,1
112992,-100,4,2,2,90,0,1
113184,-100,4,2,1,60,0,1
113857,-100,4,2,1,60,0,0
114146,-100,4,2,1,30,0,0
118761,-100,4,2,1,55,0,0
119338,-100,4,2,1,30,0,0
124530,-100,4,2,1,55,0,0
125492,-100,4,2,1,30,0,0
130684,-100,4,2,1,55,0,0
131646,-100,4,2,1,30,0,0
136838,-100,4,2,1,55,0,0
137799,-100,4,2,1,25,0,0
138184,-100,4,2,1,30,0,0
138472,-100,4,2,1,45,0,0
142992,-100,4,2,1,65,0,0
143953,-100,4,2,1,35,0,0
144338,-100,4,2,1,45,0,0
149146,-100,4,2,1,65,0,0
150107,-100,4,2,1,35,0,0
150492,-100,4,2,1,45,0,0
160011,-66.6666666666667,4,2,0,5,0,0
160203,-66.6666666666667,4,2,0,10,0,0
160396,-66.6666666666667,4,2,0,15,0,0
160588,-66.6666666666667,4,2,0,20,0,0
160780,-66.6666666666667,4,2,0,25,0,0
160972,-66.6666666666667,4,2,0,35,0,0
161549,-66.6666666666667,4,2,1,20,0,0
161742,-66.6666666666667,4,2,1,25,0,0
161934,-66.6666666666667,4,2,1,30,0,0
162126,-66.6666666666667,4,2,1,50,0,0
162319,-66.6666666666667,4,2,1,60,0,0
162511,-66.6666666666667,4,2,1,65,0,0
162703,-66.6666666666667,4,2,1,75,0,0
162896,-66.6666666666667,4,2,1,80,0,0
163088,-117.647058823529,4,2,1,60,0,1
164915,-117.647058823529,4,2,1,80,0,1
165684,-117.647058823529,4,2,1,55,0,1
165876,-117.647058823529,4,2,1,60,0,1
167992,-117.647058823529,4,2,1,80,0,1
168472,-200,4,2,1,60,0,1
169819,-117.647058823529,4,2,1,60,0,1
171069,-117.647058823529,4,2,1,80,0,1
171646,-117.647058823529,4,2,1,60,0,1
174530,-117.647058823529,4,2,2,80,0,1
174722,-117.647058823529,4,2,1,60,0,1
177222,-117.647058823529,4,2,1,80,0,1
177799,-117.647058823529,4,2,1,60,0,1
180299,-117.647058823529,4,2,1,80,0,1
180780,-200,4,2,1,60,0,1
181742,-117.647058823529,4,2,1,60,0,1
183376,-117.647058823529,4,2,1,80,0,1
183953,-117.647058823529,4,2,1,60,0,1
186453,-117.647058823529,4,2,1,85,0,1
186838,-117.647058823529,4,2,1,30,0,1
187126,-117.647058823529,4,2,1,35,0,1
187319,-117.647058823529,4,2,1,40,0,1
187511,-117.647058823529,4,2,1,45,0,1
187703,-100,4,2,1,60,0,1
187992,-100,4,2,1,75,0,1
189530,-100,4,2,1,90,0,1
190492,-100,4,2,1,75,0,1
192607,-100,4,2,1,90,0,1
193088,-200,4,2,1,60,0,1
193857,-100,4,2,1,75,0,1
195684,-100,4,2,1,90,0,1
196646,-100,4,2,1,75,0,1
198761,-100,4,2,1,90,0,1
199146,-100,4,2,2,90,0,1
199338,-100,4,2,1,45,0,1
199915,-100,4,2,1,75,0,1
201838,-100,4,2,1,90,0,1
202799,-100,4,2,1,75,0,1
204915,-100,4,2,1,90,0,1
205396,-200,4,2,1,60,0,1
206165,-100,4,2,1,75,0,1
207992,-100,4,2,1,90,0,1
208761,-100,4,2,1,55,0,1
208953,-100,4,2,1,75,0,1
211069,-100,4,2,1,90,0,1
211549,-100,4,2,1,30,0,1
211933,-100,4,2,1,45,0,1
212319,-100,4,2,1,60,0,0
214146,-100,4,2,1,80,0,0
215107,-100,4,2,1,60,0,0
217222,-100,4,2,1,80,0,0
217703,-200,4,2,1,60,0,0
218472,-100,4,2,1,60,0,0
220299,-100,4,2,1,80,0,0
221261,-100,4,2,1,60,0,0
223376,-100,4,2,1,80,0,0
223843,384.615384615385,4,2,1,90,1,0
224228,-66.6666666666667,4,2,1,60,0,0
225381,-133.333333333333,4,2,2,5,0,0
226198,384.615384615385,4,2,2,5,1,0
226198,-133.333333333333,4,2,2,5,0,0
227303,384.615384615385,4,2,2,5,1,0
227713,384.615384615385,4,2,2,5,1,0
227713,-133.333333333333,4,2,2,5,0,0
228458,384.615384615385,4,2,2,5,1,0
228458,-133.333333333333,4,2,2,5,0,0
229251,384.615384615385,4,2,2,5,1,0
229996,384.615384615385,4,2,2,5,1,0
229996,-133.333333333333,4,2,2,5,0,0
230790,384.615384615385,4,2,2,5,1,0
230790,-133.333333333333,4,2,2,5,0,0
231919,384.615384615385,4,2,2,5,1,0
232328,384.615384615385,4,2,2,5,1,0
232328,-133.333333333333,4,2,2,5,0,0
232905,384.615384615385,4,2,2,5,1,0
233073,384.615384615385,4,2,2,5,1,0
233073,-133.333333333333,4,2,2,5,0,0
233867,384.615384615385,4,2,2,5,1,0
233867,-250,4,2,2,5,0,0
236535,384.615384615385,4,2,2,5,1,0
236919,-133.333333333333,4,2,2,5,0,0
236967,384.615384615385,4,2,2,5,1,0
236967,-133.333333333333,4,2,2,5,0,0
238073,384.615384615385,4,2,2,5,1,0
238073,-133.333333333333,4,2,2,5,0,0
238481,384.615384615385,4,2,2,5,1,0
238481,-133.333333333333,4,2,2,5,0,0
239612,384.615384615385,4,2,2,5,1,0
239612,-133.333333333333,4,2,2,5,0,0
241559,384.615384615385,4,2,2,5,1,0
241559,-181.818181818181,4,2,2,5,0,0
242689,384.615384615385,4,2,2,5,1,0
243097,384.615384615385,4,2,2,5,1,0
243097,-133.333333333333,4,2,2,5,0,0
244227,384.615384615385,4,2,2,5,1,0
244227,-133.333333333333,4,2,2,5,0,0
246919,-200,4,2,2,5,0,0
247689,384.615384615385,4,2,2,5,1,0
247689,-66.6666666666667,4,2,2,5,0,0

[Colours]
Combo1 : 213,0,213
Combo2 : 0,145,83
Combo3 : 0,157,157
Combo4 : 143,20,23
Combo5 : 95,95,95
Combo6 : 127,127,127
Combo7 : 255,100,255

[HitObjects]
81,192,2296,70,0,P|94:173|116:160,1,48.3437477869989
258,238,3113,2,0,P|211:229|174:242,1,88.1562459645273
257,340,4243,5,0,0:0:0:0:
354,285,4627,2,0,L|304:284,1,45.4999979171754
211,339,5372,2,0,L|265:340,1,45.4999979171754
155,233,6164,86,0,P|142:273|152:304,1,68.2499968757631
212,200,6933,2,0,P|191:180|177:172,1,45.4999979171754
210,270,7704,1,0,0:0:0:0:
346,335,8473,6,0,L|343:283,1,45.4999979171754
406,371,9266,2,0,L|400:284,1,88.1562459645273
320,206,10396,1,0,0:0:0:0:
286,283,10781,86,0,L|335:284,1,45.4999979171754
396,244,11358,1,0,0:0:0:0:
358,182,11550,6,0,L|314:209,1,45.4999979171754
479,212,12320,86,0,L|450:190,1,35
408,140,12704,2,0,L|456:125,1,35
495,83,13089,2,0,L|455:70,1,35
383,26,13473,1,0,0:0:0:0:
315,75,13666,1,0,0:0:0:0:
318,139,13858,38,0,L|411:140,1,89.2500017023087,2|0,3:0|0:0,0:0:0:0:
286,264,14627,86,0,L|248:272,1,35,2|0,3:0|0:0,0:0:0:0:
117,81,15396,22,0,P|101:119|129:200,1,125.999996154785,6|0,0:0|0:0,0:0:0:0:
186,232,16165,1,2,0:0:0:0:
265,172,16549,1,0,0:0:0:0:
222,302,16934,22,0,P|187:256|187:225,1,83.9999974365235,2|0,0:0|3:0,0:0:0:0:
125,196,17511,2,0,P|138:168|152:156,1,41.9999987182618,0|0,3:0|3:0,0:0:0:0:
264,52,18088,1,0,0:0:0:0:
284,42,18472,70,0,L|291:86,1,41.9999987182618,2|0,0:0|0:0,0:0:0:0:
308,166,18857,1,0,0:0:0:0:
327,256,19049,2,0,L|335:301,1,41.9999987182618,0|2,0:0|0:0,0:0:0:0:
436,205,19626,1,0,0:0:0:0:
378,347,20011,22,0,L|310:357,1,59.5000011348725,2|0,0:0|0:0,0:0:0:0:
240,283,20588,1,0,0:0:0:0:
341,174,20780,38,0,L|354:212,1,35,8|0,0:0|0:0,0:0:0:0:
228,104,21549,22,0,P|191:103|154:118,1,70,2|0,0:0|0:0,0:0:0:0:
106,171,22126,1,0,0:0:0:0:
111,249,22319,2,0,P|136:277|172:291,1,70,2|0,0:0|0:0,0:0:0:0:
312,150,23088,5,2,0:0:0:0:
195,133,23472,1,0,3:0:0:0:
201,170,23665,1,0,3:0:0:0:
221,199,23857,1,0,3:0:0:0:
347,221,24242,1,0,0:0:0:0:
286,351,24626,6,0,L|241:344,1,35,2|0,0:0|0:0,0:0:0:0:
202,297,25011,1,0,0:0:0:0:
268,259,25203,2,0,L|313:266,1,35,0|2,0:0|0:0,0:0:0:0:
414,371,25780,1,0,0:0:0:0:
221,353,26165,70,0,L|143:340,1,70,2|0,0:0|0:0,0:0:0:0:
86,324,26742,1,0,0:0:0:0:
86,169,26934,1,0,0:0:0:0:
93,151,27703,69,4,0:0:0:0:
83,180,40011,21,0,0:0:0:0:
196,106,40396,1,0,0:0:0:0:
238,159,40588,1,0,0:0:0:0:
248,231,40780,2,0,P|244:266|227:297,1,70
137,213,41549,6,0,L|154:174,1,35
307,110,42126,1,0,0:0:0:0:
238,159,42319,1,0,0:0:0:0:
415,183,42703,1,0,0:0:0:0:
338,315,43088,6,0,P|294:289|242:300,1,105
168,355,43857,2,0,L|162:277,1,70
201,127,44626,6,0,L|189:166,1,35
353,117,45203,1,0,0:0:0:0:
353,117,45396,2,0,L|286:71,1,70
164,19,46165,70,0,P|185:55|178:127,1,105
95,186,46934,2,0,L|94:113,1,70
225,215,47703,6,0,L|231:264,1,35
336,328,48280,1,0,0:0:0:0:
336,328,48472,1,0,0:0:0:0:
232,323,48857,1,0,0:0:0:0:
399,363,49242,6,0,P|409:314|375:260,1,105
293,232,50011,1,0,0:0:0:0:
293,232,50780,70,0,L|245:226,1,35
116,233,51357,1,0,0:0:0:0:
179,268,51549,70,0,L|179:230,1,35,8|0,0:0|0:0,0:0:0:0:
133,312,52319,38,0,P|185:312|245:323,1,105,2|2,0:0|0:0,0:0:0:0:
319,354,53088,1,2,0:0:0:0:
339,369,53472,1,2,0:0:0:0:
438,284,53857,6,0,P|448:242|421:178,1,105
340,129,54626,2,0,P|335:154|347:200,1,70
240,255,55396,70,0,L|153:189,1,105,2|2,0:0|0:0,0:0:0:0:
155,112,56165,1,2,0:0:0:0:
270,53,56549,1,2,0:0:0:0:
350,189,56934,6,0,L|303:170,1,35,2|0,0:0|0:0,0:0:0:0:
437,77,57511,1,0,0:0:0:0:
437,77,57703,2,0,L|443:149,1,70
391,290,58472,6,0,P|348:272|290:297,1,105,2|2,0:0|0:0,0:0:0:0:
241,344,59242,2,0,L|172:316,1,70,2|2,0:0|0:0,0:0:0:0:
50,252,60011,70,0,P|72:244|42:284,1,140
91,133,61165,1,0,0:0:0:0:
176,317,61549,6,0,B|175:283|175:283|214:204,1,105,2|2,0:0|0:0,0:0:0:0:
258,166,62319,1,2,0:0:0:0:
281,147,62703,1,2,0:0:0:0:
386,273,63088,6,0,L|340:268,1,35,2|0,0:0|0:0,0:0:0:0:
122,316,63665,1,0,0:0:0:0:
204,348,63857,2,0,L|187:269,1,70
272,98,64626,70,0,P|294:127|293:204,1,105,2|0,0:0|0:0,0:0:0:0:
138,135,65396,2,0,L|139:55,1,70,2|0,0:0|0:0,0:0:0:0:
225,218,66165,6,0,P|192:254|125:261,1,105,2|0,0:0|0:0,0:0:0:0:
205,123,66934,2,0,L|287:123,1,70,2|0,0:0|0:0,0:0:0:0:
358,228,67703,1,2,0:0:0:0:
437,86,68088,1,0,0:0:0:0:
466,216,68472,2,0,L|405:168,1,70,2|0,0:0|0:0,0:0:0:0:
248,86,69242,6,0,P|264:111|242:221,1,140,2|0,0:0|0:0,0:0:0:0:
147,151,70396,1,0,0:0:0:0:
77,295,70780,70,0,L|181:322,1,105
250,301,71549,1,0,0:0:0:0:
435,89,72319,6,0,L|331:62,1,105
262,83,73088,1,0,0:0:0:0:
245,100,73472,1,0,0:0:0:0:
325,252,73857,38,0,B|323:222|290:222|267:258|296:304|341:317,2,140
192,352,75780,1,0,0:0:0:0:
256,72,76165,5,0,0:0:0:0:
384,352,76549,1,0,0:0:0:0:
445,286,76934,38,0,P|452:240|436:191,1,89.2500017023087,2|0,0:0|0:0,0:0:0:0:
314,89,77703,2,0,P|293:114|285:147,1,59.5000011348725,2|0,0:0|0:0,0:0:0:0:
227,330,78472,5,2,0:0:0:0:
346,242,78857,1,0,3:0:0:0:
331,223,79049,1,0,3:0:0:0:
307,213,79242,1,0,3:0:0:0:
132,243,79626,1,0,0:0:0:0:
303,336,80011,6,0,P|300:318|292:294,1,29.7500005674362,2|0,0:0|0:0,0:0:0:0:
107,98,80588,1,2,0:0:0:0:
107,98,80780,2,0,P|99:117|107:160,1,59.5000011348725,2|0,0:0|0:0,0:0:0:0:
340,53,81549,69,2,0:0:0:0:
467,255,81934,1,0,3:0:0:0:
450,279,82126,1,0,3:0:0:0:
427,297,82319,70,0,L|427:222,1,70,8|2,0:0|0:0,0:0:0:0:
79,362,83665,21,0,0:0:0:0:
79,362,83857,2,0,L|77:292,1,59.5000011348725,2|0,0:0|0:0,0:0:0:0:
195,117,84626,5,2,0:0:0:0:
367,301,85011,1,0,3:0:0:0:
334,311,85203,1,0,3:0:0:0:
302,306,85396,1,0,3:0:0:0:
428,206,85780,1,0,0:0:0:0:
302,306,86165,6,0,L|263:304,1,29.7500005674362,2|2,0:0|0:0,0:0:0:0:
59,171,86742,1,2,0:0:0:0:
59,171,86934,2,0,L|126:176,1,59.5000011348725,2|2,0:0|0:0,0:0:0:0:
130,346,87703,69,2,0:0:0:0:
257,155,88088,1,0,3:0:0:0:
276,175,88280,1,0,3:0:0:0:
287,203,88472,1,0,0:0:0:0:
83,262,88857,1,0,0:0:0:0:
209,59,89242,22,0,P|253:50|304:64,1,89.2500017023087,2|0,0:0|0:0,0:0:0:0:
394,139,90011,2,0,L|428:201,1,59.5000011348725,2|0,0:0|0:0,0:0:0:0:
308,327,90780,69,2,0:0:0:0:
139,177,91165,1,0,3:0:0:0:
120,202,91357,1,0,3:0:0:0:
112,232,91549,1,0,3:0:0:0:
293,211,91934,1,0,0:0:0:0:
157,71,92319,6,0,L|138:94,1,29.7500005674362,2|2,0:0|0:0,0:0:0:0:
246,339,92896,1,0,0:0:0:0:
246,339,93088,2,0,L|227:272,1,59.5000011348725,2|0,0:0|0:0,0:0:0:0:
401,119,93857,5,2,0:0:0:0:
121,242,94242,1,0,3:0:0:0:
129,209,94434,1,0,3:0:0:0:
149,177,94626,38,0,L|175:246,1,70,8|2,0:0|0:0,0:0:0:0:
186,48,95972,21,0,0:0:0:0:
186,48,96165,2,0,L|246:53,1,59.5000011348725,2|0,0:0|0:0,0:0:0:0:
436,189,96934,5,2,0:0:0:0:
280,296,97319,1,0,3:0:0:0:
257,284,97511,1,0,3:0:0:0:
238,258,97703,1,0,3:0:0:0:
388,274,98088,1,0,0:0:0:0:
159,354,98472,6,0,L|127:332,1,29.7500005674362,2|2,0:0|0:0,0:0:0:0:
68,189,99049,1,2,0:0:0:0:
130,229,99242,1,2,0:0:0:0:
136,95,99626,1,2,0:0:0:0:
50,306,100011,69,2,0:0:0:0:
173,354,100396,2,0,L|207:345,2,29.7500005674362
174,275,100972,1,0,0:0:0:0:
250,252,101165,5,2,0:0:0:0:
263,260,101261,1,2,0:0:0:0:
270,273,101357,1,2,0:0:0:0:
269,286,101453,1,2,0:0:0:0:
265,296,101549,6,0,L|331:265,1,70,6|0,0:0|0:0,0:0:0:0:
298,97,102126,1,0,0:0:0:0:
357,149,102319,1,2,0:0:0:0:
202,107,102703,1,0,0:0:0:0:
399,294,103088,86,0,L|396:219,1,70,2|0,0:0|3:0,0:0:0:0:
336,306,103665,2,0,L|342:349,1,35,0|0,3:0|3:0,0:0:0:0:
474,172,104242,1,0,0:0:0:0:
310,95,104626,6,0,L|299:131,1,35,2|2,0:0|0:0,0:0:0:0:
186,310,105203,1,0,0:0:0:0:
186,310,105396,2,0,L|156:248,1,70,2|0,0:0|0:0,0:0:0:0:
312,273,106165,70,0,L|305:343,1,70,2|0,0:0|3:0,0:0:0:0:
249,257,106742,1,0,3:0:0:0:
213,332,106934,70,0,L|175:330,1,35,8|0,0:0|0:0,0:0:0:0:
42,225,107703,22,0,P|41:191|62:152,1,70,2|0,0:0|0:0,0:0:0:0:
113,112,108280,1,0,0:0:0:0:
185,134,108472,2,0,L|204:207,1,70,2|0,0:0|0:0,0:0:0:0:
382,109,109242,5,2,0:0:0:0:
443,345,109626,1,0,3:0:0:0:
463,324,109819,1,0,3:0:0:0:
468,293,110011,1,0,3:0:0:0:
285,241,110396,1,0,0:0:0:0:
145,333,110780,6,0,L|147:284,1,35,2|2,0:0|0:0,0:0:0:0:
270,150,111357,1,2,0:0:0:0:
270,150,111549,2,0,L|276:228,2,70,2|2|2,0:0|0:0|0:0,0:0:0:0:
28,128,112703,5,0,3:0:0:0:
25,155,112896,1,0,3:0:0:0:
33,181,113088,1,0,0:0:0:0:
121,229,113280,1,0,0:0:0:0:
198,174,113472,5,2,0:0:0:0:
202,160,113569,1,2,0:0:0:0:
198,141,113665,1,2,0:0:0:0:
180,127,113761,1,2,0:0:0:0:
152,134,113857,6,0,L|217:91,1,70,4|0,0:0|0:0,0:0:0:0:
314,159,114434,1,0,0:0:0:0:
302,290,114626,1,8,0:3:0:0:
400,157,115011,1,0,0:0:0:0:
472,340,115396,70,0,L|421:344,1,35,8|0,0:3|0:0,0:0:0:0:
216,260,115972,2,0,L|246:282,1,35
94,259,116549,1,0,0:0:0:0:
286,221,116934,22,0,P|315:257|304:323,1,105,8|0,0:3|0:0,0:0:0:0:
228,362,117703,2,0,L|151:356,1,70,8|0,0:3|0:0,0:0:0:0:
310,313,118472,86,0,L|356:293,1,35,8|0,0:3|0:0,0:0:0:0:
388,256,118857,1,0,3:0:0:0:
399,201,119049,1,0,3:0:0:0:
407,145,119242,1,0,3:0:0:0:
275,60,119626,1,0,0:0:0:0:
162,213,120011,6,0,L|140:96,1,105,8|0,0:3|0:0,0:0:0:0:
83,240,120780,2,0,P|92:266|138:291,1,70,8|0,0:3|0:0,0:0:0:0:
328,192,121549,70,0,L|301:225,1,35,8|0,0:3|0:0,0:0:0:0:
415,287,122126,1,0,0:0:0:0:
415,287,122319,2,0,L|406:212,1,70
310,341,123088,6,0,P|279:329|211:352,1,105,8|0,0:3|0:0,0:0:0:0:
140,339,123857,1,8,0:3:0:0:
121,324,124242,1,0,0:0:0:0:
223,205,124626,6,0,B|227:222|227:222|239:249,1,35,0|0,3:0|3:0,0:0:0:0:
347,239,125011,2,0,B|330:243|330:243|303:255,1,35,0|0,3:0|3:0,0:0:0:0:
264,312,125396,1,0,3:0:0:0:
430,299,125780,1,0,0:0:0:0:
419,133,126165,70,0,L|305:113,1,105,8|0,0:3|0:0,0:0:0:0:
404,218,126934,2,0,L|481:233,1,70,8|0,0:3|0:0,0:0:0:0:
383,331,127703,6,0,L|337:315,1,35,8|0,0:3|0:0,0:0:0:0:
161,286,128280,1,0,0:0:0:0:
161,286,128472,2,0,L|233:253,1,70
402,165,129242,6,0,P|360:180|299:155,1,105,8|0,0:3|0:0,0:0:0:0:
253,81,130011,1,8,0:3:0:0:
239,60,130396,1,0,0:0:0:0:
110,220,130780,70,0,B|110:200|110:200|122:173,1,35,0|0,3:0|3:0,0:0:0:0:
148,124,131165,1,0,3:0:0:0:
188,85,131357,1,0,3:0:0:0:
239,60,131550,1,0,3:0:0:0:
291,212,131934,1,0,0:0:0:0:
117,324,132319,6,0,P|175:314|232:331,1,105,8|0,0:3|0:0,0:0:0:0:
296,371,133088,2,0,L|315:296,1,70,8|0,0:3|0:0,0:0:0:0:
250,157,133857,6,0,L|236:200,1,35,8|0,0:3|0:0,0:0:0:0:
394,153,134434,1,0,0:0:0:0:
394,153,134626,2,0,L|330:103,1,70
166,75,135396,70,0,P|206:93|277:77,1,105,8|0,0:3|0:0,0:0:0:0:
327,41,136165,2,0,P|365:42|398:69,1,70,8|0,0:3|0:0,0:0:0:0:
457,155,136934,6,0,B|453:172|453:172|441:199,1,35,0|0,3:0|3:0,0:0:0:0:
333,189,137319,2,0,B|350:193|350:193|377:205,1,35,0|0,3:0|3:0,0:0:0:0:
426,267,137703,1,0,3:0:0:0:
438,289,138088,1,0,3:0:0:0:
363,348,138472,6,0,L|248:320,1,105,2|2,0:0|0:0,0:0:0:0:
195,244,139242,1,2,0:0:0:0:
180,228,139626,1,2,0:0:0:0:
76,337,140011,70,0,L|115:366,1,35
174,332,140396,1,0,0:0:0:0:
180,228,140588,1,0,0:0:0:0:
83,221,140780,2,0,L|36:278,1,70
227,289,141549,6,0,P|251:235|235:183,1,105,2|2,0:0|0:0,0:0:0:0:
151,308,142319,2,0,P|187:354|210:361,1,70,2|2,0:0|0:0,0:0:0:0:
180,228,143088,6,0,L|133:220,1,35,0|0,3:0|3:0,0:0:0:0:
60,263,143472,1,0,3:0:0:0:
82,202,143665,1,0,3:0:0:0:
133,319,143857,1,0,3:0:0:0:
146,339,144242,1,0,3:0:0:0:
269,350,144626,70,0,L|272:234,1,105,2|2,0:0|0:0,0:0:0:0:
180,137,145396,2,0,P|170:170|175:218,1,70,2|2,0:0|0:0,0:0:0:0:
332,211,146165,6,0,P|303:182|233:188,1,105
222,290,146934,2,0,P|254:273|274:234,1,70
147,159,147703,6,0,P|177:182|251:177,1,105,2|2,0:0|0:0,0:0:0:0:
307,125,148472,1,2,0:0:0:0:
319,109,148857,1,2,0:0:0:0:
175,42,149242,5,0,3:0:0:0:
261,38,149434,1,0,3:0:0:0:
150,123,149626,1,0,3:0:0:0:
104,55,149819,1,0,3:0:0:0:
250,119,150011,1,0,3:0:0:0:
270,126,150396,1,0,3:0:0:0:
229,241,150780,70,0,P|218:194|277:123,1,140,2|0,0:0|0:0,0:0:0:0:
392,259,151934,1,0,0:0:0:0:
278,340,152319,6,0,L|299:197,1,140,2|0,0:0|0:0,0:0:0:0:
467,124,153472,1,0,0:0:0:0:
397,232,153857,6,0,P|383:201|410:127,1,105,2|0,0:0|0:0,0:0:0:0:
512,204,154626,2,0,L|442:186,1,70,2|0,0:0|0:0,0:0:0:0:
438,16,155396,6,0,P|448:70|394:138,1,140,2|0,0:0|0:0,0:0:0:0:
212,141,156549,1,0,0:0:0:0:
79,316,156934,1,0,0:0:0:0:
75,338,157319,69,0,0:0:0:0:
148,351,157511,1,0,0:0:0:0:
263,253,157703,1,0,0:0:0:0:
282,235,158088,1,0,0:0:0:0:
146,151,158472,6,0,L|135:194,1,35
297,118,159049,1,0,0:0:0:0:
297,118,159242,2,0,L|228:76,1,70
242,341,160011,22,0,L|242:355,45,8.75
162,337,161549,37,2,0:0:0:0:
167,311,161646,1,2,0:0:0:0:
180,288,161742,1,2,0:0:0:0:
200,271,161838,1,2,0:0:0:0:
224,261,161934,1,2,0:0:0:0:
250,260,162030,1,2,0:0:0:0:
275,267,162126,1,2,0:0:0:0:
297,282,162222,1,2,0:0:0:0:
315,301,162319,85,2,0:0:0:0:
319,275,162415,1,2,0:0:0:0:
336,256,162511,1,2,0:0:0:0:
361,248,162607,1,2,0:0:0:0:
386,255,162703,6,0,L|375:228,1,26.2500010013581,2|2,0:0|0:0,0:0:0:0:
314,185,162896,2,0,L|303:212,1,26.2500010013581,2|2,0:0|0:0,0:0:0:0:
377,164,163088,6,0,L|284:148,1,89.2500017023087,4|0,0:0|0:0,0:0:0:0:
173,212,163857,1,2,0:0:0:0:
263,81,164242,1,0,0:0:0:0:
219,302,164626,5,2,0:0:0:0:
159,99,165011,1,0,3:0:0:0:
207,70,165203,1,0,3:0:0:0:
263,81,165396,1,0,3:0:0:0:
408,215,165780,1,0,3:0:0:0:
225,306,166165,6,0,L|241:266,1,29.7500005674362,2|2,0:0|0:0,0:0:0:0:
451,129,166742,1,2,0:0:0:0:
451,129,166934,2,0,L|456:193,1,59.5000011348725,2|2,0:0|0:0,0:0:0:0:
331,351,167703,69,2,0:0:0:0:
43,336,168088,1,0,3:0:0:0:
14,288,168280,1,0,3:0:0:0:
25,232,168472,70,8,L|86:188,1,70,8|2,0:0|0:0,0:0:0:0:
311,54,169819,21,0,0:0:0:0:
369,102,170011,2,0,P|338:124|307:124,1,59.5000011348725,2|0,0:0|0:0,0:0:0:0:
139,52,170780,6,0,P|156:78|158:114,1,59.5000011348725,2|0,0:0|3:0,0:0:0:0:
116,224,171357,1,0,3:0:0:0:
84,103,171549,1,0,3:0:0:0:
84,103,172319,6,0,L|83:139,1,29.7500005674362,2|2,0:0|0:0,0:0:0:0:
252,308,172896,1,2,0:0:0:0:
252,308,173088,2,0,L|264:239,1,59.5000011348725,2|2,0:0|0:0,0:0:0:0:
369,46,173857,70,0,P|386:68|393:104,1,59.5000011348725,2|0,0:0|0:0,0:0:0:0:
241,169,174434,2,0,L|250:135,1,29.7500005674362
248,140,175396,22,0,P|294:155|341:144,1,89.2500017023087,2|0,0:0|0:0,0:0:0:0:
163,62,176165,2,0,P|144:87|136:120,1,59.5000011348725,2|0,0:0|0:0,0:0:0:0:
268,322,176934,69,2,0:0:0:0:
431,211,177319,1,0,3:0:0:0:
460,163,177511,1,0,3:0:0:0:
449,107,177703,1,0,3:0:0:0:
449,107,178472,6,0,L|416:103,1,29.7500005674362,2|2,0:0|0:0,0:0:0:0:
185,61,179049,1,2,0:0:0:0:
188,64,179242,2,0,L|254:79,1,59.5000011348725,2|2,0:0|0:0,0:0:0:0:
196,242,180011,6,0,P|189:206|200:175,1,59.5000011348725,2|0,0:0|3:0,0:0:0:0:
266,212,180588,1,0,3:0:0:0:
209,321,180780,38,0,L|134:322,1,70,8|2,0:0|0:0,0:0:0:0:
55,115,182126,21,0,0:0:0:0:
91,180,182319,1,2,0:0:0:0:
76,21,182703,1,0,0:0:0:0:
274,70,183088,21,2,0:0:0:0:
300,291,183472,1,0,3:0:0:0:
252,320,183665,1,0,3:0:0:0:
196,309,183857,1,0,3:0:0:0:
196,309,184626,86,0,L|199:274,1,29.7500005674362,2|2,0:0|0:0,0:0:0:0:
343,65,185203,1,2,0:0:0:0:
343,65,185396,2,0,L|360:133,1,59.5000011348725,2|2,0:0|0:0,0:0:0:0:
150,168,186165,5,2,0:0:0:0:
263,47,186549,1,0,3:0:0:0:
326,105,186742,1,0,3:0:0:0:
317,207,186934,69,2,0:0:0:0:
313,221,187030,1,2,0:0:0:0:
307,234,187126,1,2,0:0:0:0:
298,247,187222,1,2,0:0:0:0:
282,260,187319,1,2,0:0:0:0:
263,269,187415,1,2,0:0:0:0:
242,271,187511,1,2,0:0:0:0:
220,264,187607,1,2,0:0:0:0:
200,246,187703,6,0,P|190:284|208:325,1,70,4|0,0:0|0:0,0:0:0:0:
262,358,188280,1,0,0:0:0:0:
418,287,188472,1,2,0:0:0:0:
237,187,188857,1,0,0:0:0:0:
363,352,189242,5,2,0:0:0:0:
439,86,189626,1,0,3:0:0:0:
391,57,189819,1,0,3:0:0:0:
335,68,190011,1,0,3:0:0:0:
165,197,190396,1,0,3:0:0:0:
328,352,190780,70,0,L|368:352,1,35,2|2,0:0|0:0,0:0:0:0:
486,115,191357,1,2,0:0:0:0:
408,61,191549,2,0,L|382:128,1,70,2|2,0:0|0:0,0:0:0:0:
170,311,192319,5,2,0:0:0:0:
241,76,192703,2,0,L|267:103,1,35,0|0,3:0|3:0,0:0:0:0:
180,207,193088,54,0,L|195:167,1,35,8|0,0:0|0:0,0:0:0:0:
137,237,193857,22,0,L|177:132,1,105,2|2,0:0|0:0,0:0:0:0:
290,39,194626,1,2,0:0:0:0:
316,29,195011,1,2,0:0:0:0:
447,209,195396,6,0,P|408:201|374:218,1,70,2|0,0:0|3:0,0:0:0:0:
259,287,195972,2,0,L|292:301,1,35,0|0,3:0|3:0,0:0:0:0:
298,173,196549,1,0,3:0:0:0:
287,359,196934,6,0,P|309:357|331:346,1,35,2|0,0:0|0:0,0:0:0:0:
385,286,197319,1,0,0:0:0:0:
460,364,197511,2,0,P|454:346|444:330,1,35,2|2,0:0|0:0,0:0:0:0:
292,237,198088,1,2,0:0:0:0:
488,186,198472,69,2,0:0:0:0:
252,33,198857,2,0,L|222:66,1,35,0|0,3:0|3:0,0:0:0:0:
220,242,199242,1,0,0:0:0:0:
218,264,199626,1,0,0:0:0:0:
448,328,200011,6,0,P|463:278|441:228,1,105,2|0,0:0|0:0,0:0:0:0:
257,152,200780,2,0,P|288:182|325:194,1,70,2|0,0:0|0:0,0:0:0:0:
420,41,201549,5,2,0:0:0:0:
192,108,201934,1,0,3:0:0:0:
181,164,202126,1,0,3:0:0:0:
210,212,202319,1,0,3:0:0:0:
345,70,202703,1,0,3:0:0:0:
453,280,203088,70,0,L|410:295,1,35,2|2,0:0|0:0,0:0:0:0:
149,297,203665,1,0,0:0:0:0:
205,342,203857,1,2,0:0:0:0:
143,169,204242,1,0,0:0:0:0:
310,275,204626,6,0,L|310:198,1,70,2|0,0:0|3:0,0:0:0:0:
244,319,205203,1,0,3:0:0:0:
377,345,205396,54,0,L|375:305,1,35,8|0,0:0|0:0,0:0:0:0:
270,264,206165,22,0,P|327:270|371:239,1,105,2|0,0:0|0:0,0:0:0:0:
404,158,206934,1,2,0:0:0:0:
252,38,207319,1,0,0:0:0:0:
106,158,207703,5,2,0:0:0:0:
225,333,208088,1,0,3:0:0:0:
280,342,208280,1,0,3:0:0:0:
328,312,208472,2,0,L|368:242,1,70,0|0,3:0|3:0,0:0:0:0:
271,88,209242,6,0,L|263:124,1,35,2|2,0:0|0:0,0:0:0:0:
454,110,209819,1,2,0:0:0:0:
454,110,210011,2,0,L|388:71,1,70,2|2,0:0|0:0,0:0:0:0:
175,68,210780,69,2,0:0:0:0:
112,284,211165,1,0,3:0:0:0:
186,294,211357,1,0,3:0:0:0:
97,206,211549,5,2,0:3:0:0:
73,216,211646,1,2,0:0:0:0:
54,234,211742,1,2,0:0:0:0:
42,257,211838,1,2,0:0:0:0:
38,283,211934,1,2,0:0:0:0:
43,308,212030,1,2,0:0:0:0:
57,331,212126,1,2,0:0:0:0:
77,348,212222,1,2,0:0:0:0:
101,357,212319,6,0,L|211:349,1,105,4|0,0:0|0:0,0:0:0:0:
279,280,213088,1,2,0:0:0:0:
237,60,213472,1,0,0:0:0:0:
175,213,213857,69,2,0:0:0:0:
412,222,214242,2,0,L|451:194,1,35,0|0,3:0|3:0,0:0:0:0:
456,138,214626,1,0,3:0:0:0:
369,46,215011,1,0,3:0:0:0:
205,108,215396,6,0,L|223:146,1,35,2|2,0:0|0:0,0:0:0:0:
76,218,215972,1,0,0:0:0:0:
76,218,216165,2,0,L|78:147,1,70,2|0,0:0|0:0,0:0:0:0:
299,134,216934,5,2,0:0:0:0:
299,134,217319,2,0,L|317:179,1,35,0|0,3:0|3:0,0:0:0:0:
262,254,217703,38,0,L|266:214,1,35,8|0,0:0|0:0,0:0:0:0:
384,149,218472,22,0,P|376:207|342:235,1,105
245,155,219242,2,0,P|291:155|317:170,1,70,2|0,0:0|0:0,0:0:0:0:
441,349,220011,5,2,0:0:0:0:
474,173,220396,2,0,L|474:128,1,35,0|0,3:0|3:0,0:0:0:0:
471,69,220780,1,0,3:0:0:0:
308,22,221165,1,0,3:0:0:0:
105,171,221549,6,0,L|139:195,1,35,2|0,0:0|0:0,0:0:0:0:
308,22,222126,2,0,L|270:27,1,35,0|2,0:0|0:0,0:0:0:0:
294,267,222703,1,0,0:0:0:0:
374,23,223088,69,2,0:0:0:0:
390,148,223472,1,0,3:0:0:0:
426,214,223665,1,0,3:0:0:0:
484,160,223843,6,0,L|461:80,1,70,0|2,3:0|0:0,0:0:0:0:
449,72,224323,1,2,0:0:0:0:
426,59,224419,2,0,L|393:60,1,26.2500010013581
336,97,224612,37,2,0:0:0:0:
229,12,225381,86,0,P|220:42|229:72,1,52.5000020027161
376,29,226198,2,0,P|350:19|288:48,1,98.4375037550928
256,138,227304,5,0,0:0:0:0:
400,141,227713,2,0,L|346:86,1,75.4687528789045
256,138,228458,86,0,L|255:192,1,52.5000020027161
390,288,229251,1,0,0:0:0:0:
390,288,229996,6,0,L|338:293,1,52.5000020027161
120,326,230790,2,0,P|165:344|215:329,1,101.718753880263
284,235,231919,85,0,0:0:0:0:
126,163,232328,2,0,L|126:212,1,49.2187518775464
174,276,232905,1,0,0:0:0:0:
221,213,233073,6,0,L|211:156,1,52.5000020027161
144,48,233867,6,0,P|106:88|142:74,1,164.5
267,28,236535,69,0,0:0:0:0:
46,6,236967,2,0,P|26:58|39:102,1,101.718753880263
150,185,238073,5,0,0:0:0:0:
188,60,238481,2,0,P|164:46|129:47,2,52.5000020027161
240,138,239612,85,0,0:0:0:0:
150,185,239996,2,0,P|136:149|148:103,1,78.7500030040742
227,205,240766,6,0,P|214:232|191:247,1,52.5000020027161
74,320,241559,86,0,L|152:318,1,77.0000023498536
306,272,242689,5,0,0:0:0:0:
277,104,243097,2,0,P|243:150|245:194,1,101.718753880263
306,272,244227,85,0,0:0:0:0:
375,181,244612,2,0,L|315:167,1,52.5000020027161
225,115,245381,6,0,L|277:104,1,52.5000020027161
116,156,246150,2,0,L|164:179,1,52.5000020027161
36,231,246919,86,0,L|65:255,1,35
77,354,247689,5,0,0:0:0:0:
77,354,247809,2,0,L|112:344,2,32.8125012516976
141,351,248145,1,0,0:0:0:0:
