osu file format v14

[General]
AudioFilename: hazakura.mp3.mp3
AudioLeadIn: 0
PreviewTime: 162319
Countdown: 0
SampleSet: Soft
StackLeniency: 0.7
Mode: 0
LetterboxInBreaks: 0
EpilepsyWarning: 1
WidescreenStoryboard: 1

[Editor]
Bookmarks: 11911,52295,138448,163064,187679,224602
DistanceSpacing: 1
BeatDivisor: 6
GridSize: 8
TimelineZoom: 3.079999

[Metadata]
Title:Yume to Hazakura
TitleUnicode:Yume to Hazakura
Artist:Aoki Gekkoh
ArtistUnicode:Aoki Gekkoh
Creator:Seto Kousuke
Version:Normal
Source:
Tags:Hatsune Miku Vocaloid 初音ミク Dream and Cherry Tree Leaf 花楽里漫葉集 Karakuri Manyoushuu
BeatmapID:1077700
BeatmapSetID:496768

[Difficulty]
HPDrainRate:2
CircleSize:3
OverallDifficulty:2
ApproachRate:4
SliderMultiplier:1
SliderTickRate:1

[Events]
//Background and Video events
0,0,"mikuhazakura2.jpg",0,0
//Break Periods
2,27903,38691
//Storyboard Layer 0 (Background)
//Storyboard Layer 1 (Fail)
//Storyboard Layer 2 (Pass)
//Storyboard Layer 3 (Foreground)
//Storyboard Sound Samples

[TimingPoints]
2296,384.615384615385,4,2,2,5,1,0
2296,-100,4,2,2,5,0,0
3113,384.615384615385,4,2,2,5,1,0
4242,384.615384615385,4,2,2,5,1,0
5371,384.615384615385,4,2,2,5,1,0
6164,384.615384615385,4,2,2,5,1,0
7704,384.615384615385,4,2,2,5,1,0
9266,384.615384615385,4,2,2,5,1,0
10395,384.615384615385,4,2,2,5,1,0
10781,384.615384615385,4,2,2,5,1,0
12296,-100,4,2,2,10,0,0
12872,-100,4,2,2,20,0,0
13449,-100,4,2,2,25,0,0
13834,-100,4,2,1,35,0,0
14603,-100,4,2,1,40,0,0
15396,384.615384615385,4,2,1,60,1,0
15396,-100,4,2,1,60,0,0
17222,-100,4,2,1,80,0,0
17992,-100,4,2,1,30,0,0
18184,-100,4,2,1,60,0,0
20780,-100,4,2,1,45,0,0
21133,-100,4,2,1,5,0,0
21197,-100,4,2,1,45,0,0
21549,-100,4,2,1,60,0,0
23376,-100,4,2,1,80,0,0
23953,-100,4,2,1,35,0,0
24338,-100,4,2,1,60,0,0
26838,-100,4,2,2,80,0,0
27030,-100,4,2,1,60,0,0
40011,-100,4,2,1,20,0,0
51549,-100,4,2,1,15,0,0
52319,-100,4,2,1,45,0,0
63761,-100,4,2,2,65,0,0
63953,-100,4,2,1,45,0,0
70780,-100,4,2,1,30,0,0
76069,-100,4,2,2,50,0,0
76261,-100,4,2,1,30,0,0
76934,-100,4,2,1,60,0,1
113857,-100,4,2,1,60,0,0
114146,-100,4,2,1,30,0,0
118761,-100,4,2,1,55,0,0
119338,-100,4,2,1,30,0,0
124530,-100,4,2,1,55,0,0
125492,-100,4,2,1,30,0,0
130684,-100,4,2,1,55,0,0
131646,-100,4,2,1,30,0,0
136838,-100,4,2,1,55,0,0
137799,-100,4,2,1,25,0,0
138184,-100,4,2,1,30,0,0
138472,-100,4,2,1,45,0,0
142992,-100,4,2,1,65,0,0
143953,-100,4,2,1,35,0,0
144338,-100,4,2,1,45,0,0
149146,-100,4,2,1,65,0,0
150107,-100,4,2,1,35,0,0
150492,-100,4,2,1,45,0,0
160011,-100,4,2,0,5,0,0
160203,-100,4,2,0,10,0,0
160396,-100,4,2,0,15,0,0
160588,-100,4,2,0,20,0,0
160780,-100,4,2,0,25,0,0
160972,-100,4,2,0,35,0,0
161549,-100,4,2,1,20,0,0
161742,-100,4,2,1,25,0,0
161934,-100,4,2,1,30,0,0
162126,-100,4,2,1,50,0,0
162319,-100,4,2,1,60,0,0
162511,-100,4,2,1,65,0,0
162703,-100,4,2,1,75,0,0
162896,-100,4,2,1,80,0,0
163088,-100,4,2,1,60,0,1
164915,-100,4,2,1,80,0,1
165684,-100,4,2,1,55,0,1
165876,-100,4,2,1,60,0,1
167992,-100,4,2,1,80,0,1
168472,-100,4,2,1,60,0,1
169819,-100,4,2,1,60,0,1
171069,-100,4,2,1,80,0,1
171646,-100,4,2,1,60,0,1
174530,-100,4,2,2,80,0,1
174722,-100,4,2,1,60,0,1
177222,-100,4,2,1,80,0,1
177799,-100,4,2,1,60,0,1
180299,-100,4,2,1,80,0,1
180780,-100,4,2,1,60,0,1
181742,-100,4,2,1,60,0,1
183376,-100,4,2,1,80,0,1
183953,-100,4,2,1,60,0,1
186453,-100,4,2,1,85,0,1
186838,-100,4,2,1,30,0,1
187126,-100,4,2,1,35,0,1
187319,-100,4,2,1,40,0,1
187511,-100,4,2,1,45,0,1
187703,-100,4,2,1,60,0,1
187992,-100,4,2,1,75,0,1
189530,-100,4,2,1,90,0,1
190492,-100,4,2,1,75,0,1
192607,-100,4,2,1,90,0,1
193088,-100,4,2,1,60,0,1
193857,-100,4,2,1,75,0,1
195684,-100,4,2,1,90,0,1
196646,-100,4,2,1,75,0,1
198761,-100,4,2,1,90,0,1
199146,-100,4,2,2,90,0,1
199338,-100,4,2,1,45,0,1
199915,-100,4,2,1,75,0,1
201838,-100,4,2,1,90,0,1
202799,-100,4,2,1,75,0,1
204915,-100,4,2,1,90,0,1
205396,-100,4,2,1,60,0,1
206165,-100,4,2,1,75,0,1
207992,-100,4,2,1,90,0,1
208761,-100,4,2,1,55,0,1
208953,-100,4,2,1,75,0,1
211069,-100,4,2,1,90,0,1
211549,-100,4,2,1,30,0,1
211933,-100,4,2,1,45,0,1
212319,-100,4,2,1,60,0,0
214146,-100,4,2,1,80,0,0
215107,-100,4,2,1,60,0,0
217222,-100,4,2,1,80,0,0
217703,-100,4,2,1,60,0,0
218472,-100,4,2,1,60,0,0
220299,-100,4,2,1,80,0,0
221261,-100,4,2,1,60,0,0
223376,-100,4,2,1,80,0,0
223843,384.615384615385,4,2,1,90,1,0
224228,-100,4,2,1,60,0,0
225381,-100,4,2,2,5,0,0
226198,384.615384615385,4,2,2,5,1,0
226198,-100,4,2,2,5,0,0
227303,384.615384615385,4,2,2,5,1,0
227713,384.615384615385,4,2,2,5,1,0
227713,-100,4,2,2,5,0,0
228458,384.615384615385,4,2,2,5,1,0
228458,-100,4,2,2,5,0,0
229251,384.615384615385,4,2,2,5,1,0
229996,384.615384615385,4,2,2,5,1,0
229996,-100,4,2,2,5,0,0
230790,384.615384615385,4,2,2,5,1,0
230790,-100,4,2,2,5,0,0
231919,384.615384615385,4,2,2,5,1,0
232328,384.615384615385,4,2,2,5,1,0
232328,-100,4,2,2,5,0,0
232905,384.615384615385,4,2,2,5,1,0
233073,384.615384615385,4,2,2,5,1,0
233073,-100,4,2,2,5,0,0
233867,384.615384615385,4,2,2,5,1,0
233867,-100,4,2,2,5,0,0
236535,384.615384615385,4,2,2,5,1,0
236919,-100,4,2,2,5,0,0
236967,384.615384615385,4,2,2,5,1,0
236967,-100,4,2,2,5,0,0
238073,384.615384615385,4,2,2,5,1,0
238073,-100,4,2,2,5,0,0
238481,384.615384615385,4,2,2,5,1,0
238481,-100,4,2,2,5,0,0
239612,384.615384615385,4,2,2,5,1,0
239612,-100,4,2,2,5,0,0
241559,384.615384615385,4,2,2,5,1,0
241559,-100,4,2,2,5,0,0
242689,384.615384615385,4,2,2,5,1,0
243097,384.615384615385,4,2,2,5,1,0
243097,-100,4,2,2,5,0,0
244227,384.615384615385,4,2,2,5,1,0
244227,-100,4,2,2,5,0,0
246919,-100,4,2,2,5,0,0
247689,384.615384615385,4,2,2,5,1,0
247689,-100,4,2,2,5,0,0

[Colours]
Combo1 : 213,0,213
Combo2 : 0,145,83
Combo3 : 0,157,157
Combo4 : 143,20,23
Combo5 : 95,95,95
Combo6 : 127,127,127
Combo7 : 255,100,255

[HitObjects]
251,360,12319,6,0,L|145:324,1,100
67,282,13088,2,0,L|63:175,1,100
79,75,13857,6,0,P|145:105|228:78,1,150
265,71,14627,2,0,L|265:200,1,100
345,230,15396,6,0,L|346:51,1,150
370,28,16165,1,0,0:0:0:0:
454,81,16549,1,0,0:0:0:0:
497,171,16934,6,0,L|470:294,1,100
444,308,17511,2,0,L|377:309,1,50
299,275,18088,1,0,0:0:0:0:
220,336,18472,6,0,P|146:311|73:339,1,150
30,326,19242,2,0,L|30:207,1,100
52,128,20011,2,0,P|114:139|205:95,1,150
226,70,20780,1,0,0:0:0:0:
412,47,21549,6,0,P|408:130|455:192,1,150
440,233,22319,2,0,L|341:234,1,100
254,181,23088,5,0,0:0:0:0:
181,251,23472,2,0,L|196:301,2,50
85,219,24242,1,0,0:0:0:0:
46,310,24626,6,0,P|-10:231|27:140,1,200
106,84,25780,1,0,0:0:0:0:
201,112,26165,5,0,0:0:0:0:
233,206,26549,2,0,L|241:262,2,50
405,105,27703,5,0,0:0:0:0:
389,339,40011,6,0,B|401:295|401:295|363:191,1,150
335,156,40780,1,0,0:0:0:0:
236,176,41165,1,0,0:0:0:0:
207,271,41549,6,0,L|280:271,1,50
225,365,42126,2,0,L|159:365,1,50
122,270,42703,1,0,0:0:0:0:
80,361,43088,6,0,P|21:286|67:189,1,200
151,168,44242,1,0,0:0:0:0:
220,239,44626,6,0,L|299:240,1,50
321,153,45203,2,0,L|242:153,1,50
209,74,45780,1,0,0:0:0:0:
291,17,46165,6,0,P|363:37|455:8,1,150
483,9,46934,2,0,L|485:118,1,100
451,203,47703,6,0,L|429:264,1,50
372,171,48280,2,0,L|399:108,1,50
337,40,48857,1,0,0:0:0:0:
241,68,49242,6,0,P|241:266|242:267,1,200
410,333,50780,6,0,L|408:153,1,150
383,139,51549,1,0,0:0:0:0:
212,33,52319,6,0,P|235:82|191:205,1,150
217,223,53088,2,0,L|341:225,1,100
410,260,53857,5,0,0:0:0:0:
359,346,54242,1,0,0:0:0:0:
264,314,54626,1,0,0:0:0:0:
81,336,55396,6,0,P|104:287|60:164,1,150
89,145,56165,2,0,L|213:143,1,100
241,228,56934,6,0,L|252:294,1,50
346,302,57511,2,0,L|335:236,1,50
430,79,58472,6,0,P|368:104|264:55,1,150
249,52,59242,2,0,L|204:152,1,100
207,243,60011,5,0,0:0:0:0:
307,246,60396,1,0,0:0:0:0:
326,343,60780,1,0,0:0:0:0:
132,292,61549,6,0,P|125:205|177:158,1,150
212,147,62319,2,0,L|174:45,1,100
79,29,63088,1,0,0:0:0:0:
24,224,63857,6,0,P|104:272|224:272,1,200
288,96,65396,5,0,0:0:0:0:
362,164,65780,1,0,0:0:0:0:
411,77,66165,2,0,P|459:178|396:268,1,200
256,136,67703,5,0,0:0:0:0:
80,48,68472,1,0,0:0:0:0:
144,240,69242,6,0,L|365:239,1,200
487,108,70780,6,0,P|385:113|270:67,1,200
122,186,72319,6,0,P|224:181|339:227,1,200
256,192,73857,12,0,76165,0:0:0:0:
112,53,76934,6,0,P|99:120|139:212,1,150
169,220,77703,2,0,L|267:237,1,100
363,207,78472,5,0,0:0:0:0:
423,127,78857,2,0,L|431:72,2,50
480,208,79626,1,0,0:0:0:0:
424,290,80011,6,0,L|352:290,1,50
313,207,80588,2,0,L|379:207,1,50
423,127,81165,1,0,0:0:0:0:
360,49,81549,5,0,0:0:0:0:
261,65,81934,2,0,L|221:102,1,50
202,144,82319,1,0,0:0:0:0:
335,292,83088,6,0,P|285:272|177:311,1,150
165,335,83857,2,0,L|40:304,1,100
36,215,84626,5,0,0:0:0:0:
95,134,85011,2,0,L|74:56,2,50
186,174,85780,1,0,0:0:0:0:
261,108,86165,6,0,L|335:110,1,50
361,195,86742,2,0,L|291:195,1,50
227,250,87319,1,0,0:0:0:0:
267,341,87703,5,0,0:0:0:0:
363,367,88088,2,0,L|429:377,2,50
338,269,88857,1,0,0:0:0:0:
267,341,89242,6,0,L|73:344,1,150
67,334,90011,2,0,P|88:272|78:221,1,100
20,161,90780,5,0,0:0:0:0:
97,98,91165,2,0,L|84:48,2,50
180,152,91934,1,0,0:0:0:0:
240,72,92319,6,0,P|273:123|243:233,1,150
219,234,93088,2,0,L|85:236,1,100
84,141,93857,5,0,0:0:0:0:
131,53,94242,2,0,L|197:54,1,50
226,73,94626,1,0,0:0:0:0:
360,221,95396,6,0,P|289:209|210:237,1,150
177,264,96165,2,0,L|70:228,1,100
76,126,96934,5,0,0:0:0:0:
145,55,97319,2,0,L|126:4,2,50
229,109,98088,1,0,0:0:0:0:
307,47,98472,6,0,L|373:69,1,50
375,160,99049,2,0,L|312:140,1,50
247,205,99626,1,0,0:0:0:0:
283,298,100011,5,0,0:0:0:0:
371,345,100396,2,0,L|439:344,1,50
467,325,100780,1,0,0:0:0:0:
458,125,101549,6,0,P|405:72|304:69,1,150
290,87,102319,2,0,P|279:129|292:205,1,100
320,282,103088,6,0,P|231:276|190:296,1,100
179,304,103665,2,0,L|108:300,1,50
79,214,104242,1,0,0:0:0:0:
107,118,104626,6,0,L|154:86,1,50
241,125,105203,2,0,L|288:93,1,50
380,115,105780,1,0,0:0:0:0:
429,202,106165,5,0,0:0:0:0:
423,301,106549,2,0,L|368:332,1,50
329,331,106934,1,0,0:0:0:0:
130,356,107703,6,0,P|186:302|167:210,1,150
171,185,108472,2,0,B|296:143,1,100
345,214,109242,6,0,P|365:163|350:99,1,100
367,69,109819,2,0,L|449:64,1,50
486,137,110396,1,0,0:0:0:0:
482,236,110780,6,0,L|450:301,1,50
361,265,111357,2,0,L|327:322,1,50
235,311,111934,1,0,0:0:0:0:
160,244,112319,5,0,0:0:0:0:
173,145,112703,2,0,L|245:124,1,50
271,132,113088,1,0,0:0:0:0:
412,45,113857,6,0,L|421:195,1,150
427,244,114626,2,0,P|369:231|321:253,1,100
259,313,115396,6,0,L|171:322,1,50
121,269,115972,1,0,0:0:0:0:
86,232,116165,2,0,L|87:105,1,100
181,89,116934,6,0,P|251:103|334:77,1,150
370,59,117703,2,0,L|418:158,1,100
401,248,118472,5,0,0:0:0:0:
325,313,118857,2,0,L|264:312,2,50
415,356,119626,1,0,0:0:0:0:
492,292,120011,6,0,L|490:134,1,150
464,98,120780,2,0,P|404:105|362:80,1,100
296,20,121549,6,0,L|228:21,1,50
179,93,122126,1,0,0:0:0:0:
154,137,122319,2,0,L|155:239,1,100
253,290,123088,6,0,P|318:280|417:315,1,150
438,332,123857,2,0,L|444:231,1,100
416,135,124626,5,0,0:0:0:0:
329,85,125011,2,0,L|240:88,2,50
419,42,125780,1,0,0:0:0:0:
499,97,126165,6,0,L|499:256,1,150
476,291,126934,2,0,P|418:280|358:297,1,100
308,359,127703,6,0,L|230:353,1,50
190,278,128280,1,0,0:0:0:0:
163,235,128472,2,0,L|162:126,1,100
66,164,129242,6,0,L|71:319,1,150
76,360,130011,2,0,P|126:354|174:368,1,100
230,285,130780,5,0,0:0:0:0:
317,235,131165,2,0,L|320:168,2,50
304,334,131934,1,0,0:0:0:0:
210,369,132319,6,0,L|32:358,1,150
25,323,133088,2,0,P|55:259|48:211,1,100
24,135,133857,6,0,L|88:86,1,50
163,102,134434,1,0,0:0:0:0:
195,139,134626,2,0,L|277:207,1,100
313,281,135396,6,0,P|303:200|354:127,1,150
383,129,136165,2,0,L|494:129,1,100
428,44,136934,5,0,0:0:0:0:
335,6,137319,2,0,L|271:7,2,50
347,105,138088,1,0,0:0:0:0:
275,174,138472,6,0,L|108:174,1,150
78,194,139242,1,0,0:0:0:0:
40,286,139626,1,0,0:0:0:0:
102,363,140011,6,0,P|164:348|252:374,1,150
295,373,140780,2,0,L|392:327,1,100
422,237,141549,6,0,P|346:241|281:188,1,150
272,151,142319,1,0,0:0:0:0:
319,63,142703,1,0,0:0:0:0:
419,61,143088,5,0,0:0:0:0:
501,117,143472,2,0,L|501:184,2,50
502,21,144242,1,0,0:0:0:0:
419,61,144626,6,0,L|419:246,1,150
401,258,145396,1,0,0:0:0:0:
315,309,145780,1,0,0:0:0:0:
225,263,146165,6,0,P|203:188|239:120,1,150
271,94,146934,2,0,L|133:63,1,100
83,116,147703,6,0,P|63:186|85:270,1,150
116,293,148472,1,0,0:0:0:0:
213,314,148857,1,0,0:0:0:0:
300,265,149242,5,0,0:0:0:0:
337,172,149626,2,0,L|336:94,2,50
237,184,150396,1,0,0:0:0:0:
300,265,150780,6,0,L|510:267,1,200
364,119,152319,6,0,L|163:118,1,200
91,186,153472,1,0,0:0:0:0:
111,284,153857,6,0,P|170:328|266:331,1,150
290,355,154626,2,0,P|334:296|340:230,1,100
275,195,155396,6,0,P|331:221|492:167,1,200
485,98,156549,1,0,0:0:0:0:
417,23,156934,5,0,0:0:0:0:
316,25,157319,2,0,L|282:82,1,50
276,116,157703,2,0,P|215:108|165:129,1,100
105,187,158472,5,0,0:0:0:0:
101,287,158857,1,0,0:0:0:0:
161,366,159242,2,0,P|198:318|188:254,1,100
256,192,160011,12,0,162319,0:0:0:0:
94,47,163088,6,0,P|106:108|49:169,1,150
4,189,163857,1,0,0:0:0:0:
21,287,164242,1,0,0:0:0:0:
101,345,164626,6,0,L|214:344,1,100
250,354,165203,2,0,L|263:287,1,50
326,230,165780,1,0,0:0:0:0:
410,282,166165,6,0,L|408:201,1,50
497,322,166742,2,0,L|495:251,1,50
485,172,167319,1,0,0:0:0:0:
399,121,167703,5,0,0:0:0:0:
301,141,168088,2,0,L|285:195,1,50
299,237,168472,1,0,0:0:0:0:
119,326,169242,6,0,P|152:265|120:168,1,150
98,156,170011,1,0,0:0:0:0:
141,66,170396,1,0,0:0:0:0:
240,68,170780,6,0,P|273:120|271:188,1,100
264,205,171357,2,0,L|357:222,1,50
396,158,171934,1,0,0:0:0:0:
489,193,172319,6,0,L|489:273,1,50
388,247,172896,2,0,L|388:322,1,50
294,347,173472,1,0,0:0:0:0:
205,300,173857,5,0,0:0:0:0:
255,213,174242,2,0,L|255:146,1,50
234,117,174626,1,0,0:0:0:0:
421,46,175396,6,0,P|402:117|433:206,1,150
461,219,176165,1,0,0:0:0:0:
448,318,176549,1,0,0:0:0:0:
362,370,176934,6,0,P|309:368|262:341,1,100
239,305,177511,2,0,L|173:301,1,50
113,236,178088,1,0,0:0:0:0:
61,150,178472,6,0,L|114:123,1,50
17,67,179049,2,0,L|70:40,1,50
161,48,179626,1,0,0:0:0:0:
234,115,180011,5,0,0:0:0:0:
174,195,180396,2,0,L|175:260,1,50
197,289,180780,1,0,0:0:0:0:
390,339,181549,6,0,P|382:265|439:203,1,150
476,201,182319,1,0,0:0:0:0:
497,103,182703,1,0,0:0:0:0:
440,20,183088,6,0,P|391:8|316:19,1,100
298,36,183665,2,0,L|276:112,1,50
339,167,184242,1,0,0:0:0:0:
398,247,184626,6,0,L|335:310,1,50
460,305,185203,2,0,L|397:368,1,50
326,361,185780,1,0,0:0:0:0:
229,333,186165,6,0,P|206:276|119:218,1,150
121,175,186934,2,0,P|186:179|276:101,1,150
301,114,187703,6,0,P|311:189|394:247,1,150
411,249,188472,1,0,0:0:0:0:
495,302,188857,1,0,0:0:0:0:
418,362,189242,6,0,L|295:364,1,100
270,347,189819,2,0,L|245:279,1,50
314,221,190396,1,0,0:0:0:0:
394,280,190780,6,0,P|414:216|366:139,1,150
330,127,191549,1,0,0:0:0:0:
229,151,191934,1,0,0:0:0:0:
198,246,192319,5,0,0:0:0:0:
249,331,192703,2,0,L|310:357,1,50
344,345,193088,1,0,0:0:0:0:
487,199,193857,6,0,P|417:215|336:191,1,150
304,162,194626,1,0,0:0:0:0:
309,62,195011,1,0,0:0:0:0:
217,21,195396,5,0,0:0:0:0:
163,105,195780,2,0,L|89:120,2,50
234,175,196549,1,0,0:0:0:0:
253,273,196934,6,0,L|191:316,1,50
305,345,197511,2,0,L|367:302,1,50
367,218,198088,1,0,0:0:0:0:
455,263,198472,6,0,L|455:87,1,150
429,69,199242,1,0,0:0:0:0:
338,27,199626,1,0,0:0:0:0:
247,69,200011,6,0,L|246:242,1,150
284,251,200780,1,0,0:0:0:0:
364,311,201165,1,0,0:0:0:0:
282,368,201549,6,0,L|174:364,1,100
139,338,202126,2,0,L|120:278,1,50
186,212,202703,1,0,0:0:0:0:
99,162,203088,6,0,P|152:115|249:135,1,150
271,142,203857,2,0,L|359:85,1,100
449,119,204626,5,0,0:0:0:0:
486,212,205011,2,0,L|477:270,1,50
439,293,205396,1,0,0:0:0:0:
254,356,206165,6,0,L|110:296,1,150
90,255,206934,2,0,P|129:207|123:157,1,100
36,131,207703,5,0,0:0:0:0:
96,63,208088,2,0,L|72:16,2,50
195,70,208857,1,0,0:0:0:0:
289,102,209242,6,0,L|299:166,1,50
384,200,209819,2,0,L|394:264,1,50
386,349,210396,1,0,0:0:0:0:
288,369,210780,6,0,L|160:361,1,100
142,342,211357,2,0,L|123:284,1,50
106,124,212319,6,0,P|193:144|279:115,1,150
288,97,213088,2,0,L|354:200,1,100
338,281,213857,5,0,0:0:0:0:
254,336,214242,2,0,L|195:333,1,50
160,308,214626,1,0,0:0:0:0:
124,214,215011,1,0,0:0:0:0:
181,132,215396,6,0,L|238:97,1,50
316,142,215972,2,0,L|373:107,1,50
456,137,216549,2,0,L|458:268,1,100
385,306,217319,6,0,L|323:332,1,50
293,305,217703,1,0,0:0:0:0:
96,342,218472,6,0,P|129:278|105:199,1,150
68,177,219242,2,0,L|163:125,1,100
254,144,220011,5,0,0:0:0:0:
334,203,220396,2,0,L|327:253,1,50
336,301,220780,1,0,0:0:0:0:
437,128,221549,6,0,P|384:74|289:72,1,150
273,96,222319,2,0,L|155:98,1,100
88,150,223088,6,0,L|90:291,1,100
113,294,223665,2,0,L|152:344,1,50
236,360,224227,1,0,0:0:0:0:
330,326,224612,5,0,0:0:0:0:
