osu file format v14

[General]
AudioFilename: hazakura.mp3.mp3
AudioLeadIn: 0
PreviewTime: 162319
Countdown: 0
SampleSet: Soft
StackLeniency: 0.8
Mode: 0
LetterboxInBreaks: 0
EpilepsyWarning: 1
WidescreenStoryboard: 1

[Editor]
Bookmarks: 11911,52295,138448,163064,187679,224602
DistanceSpacing: 1.5
BeatDivisor: 2
GridSize: 4
TimelineZoom: 3.079999

[Metadata]
Title:Yume to Hazakura
TitleUnicode:Yume to Hazakura
Artist:Aoki Gekkoh
ArtistUnicode:Aoki Gekkoh
Creator:Seto Kousuke
Version:Advanced
Source:
Tags:Hatsune Miku Vocaloid 初音ミク Dream and Cherry Tree Leaf 花楽里漫葉集 Karakuri Manyoushuu
BeatmapID:1077699
BeatmapSetID:496768

[Difficulty]
HPDrainRate:3
CircleSize:4
OverallDifficulty:4
ApproachRate:5
SliderMultiplier:1
SliderTickRate:1

[Events]
//Background and Video events
0,0,"mikuhazakura2.jpg",0,0
//Break Periods
2,27903,38811
//Storyboard Layer 0 (Background)
//Storyboard Layer 1 (Fail)
//Storyboard Layer 2 (Pass)
//Storyboard Layer 3 (Foreground)
//Storyboard Sound Samples

[TimingPoints]
2296,384.615384615385,4,2,2,5,1,0
2296,-100,4,2,2,5,0,0
3113,384.615384615385,4,2,2,5,1,0
4242,384.615384615385,4,2,2,5,1,0
5371,384.615384615385,4,2,2,5,1,0
6164,384.615384615385,4,2,2,5,1,0
7704,384.615384615385,4,2,2,5,1,0
9266,384.615384615385,4,2,2,5,1,0
10395,384.615384615385,4,2,2,5,1,0
10781,384.615384615385,4,2,2,5,1,0
12296,-100,4,2,2,10,0,0
12872,-100,4,2,2,20,0,0
13449,-100,4,2,2,25,0,0
13834,-100,4,2,1,35,0,0
14603,-100,4,2,1,40,0,0
15396,384.615384615385,4,2,1,60,1,0
15396,-100,4,2,1,60,0,0
17222,-100,4,2,1,80,0,0
17992,-100,4,2,1,30,0,0
18184,-100,4,2,1,60,0,0
20780,-100,4,2,1,45,0,0
21133,-100,4,2,1,5,0,0
21197,-100,4,2,1,45,0,0
21549,-100,4,2,1,60,0,0
23376,-100,4,2,1,80,0,0
23953,-100,4,2,1,35,0,0
24338,-100,4,2,1,60,0,0
26838,-100,4,2,2,80,0,0
27030,-100,4,2,1,60,0,0
40011,-100,4,2,1,20,0,0
51549,-100,4,2,1,15,0,0
52319,-100,4,2,1,45,0,0
63761,-100,4,2,2,65,0,0
63953,-100,4,2,1,45,0,0
70780,-100,4,2,1,30,0,0
76069,-100,4,2,2,50,0,0
76261,-100,4,2,1,30,0,0
76934,-100,4,2,1,60,0,1
113857,-100,4,2,1,60,0,0
114146,-100,4,2,1,30,0,0
118761,-100,4,2,1,55,0,0
119338,-100,4,2,1,30,0,0
124530,-100,4,2,1,55,0,0
125492,-100,4,2,1,30,0,0
130684,-100,4,2,1,55,0,0
131646,-100,4,2,1,30,0,0
136838,-100,4,2,1,55,0,0
137799,-100,4,2,1,25,0,0
138184,-100,4,2,1,30,0,0
138472,-100,4,2,1,45,0,0
142992,-100,4,2,1,65,0,0
143953,-100,4,2,1,35,0,0
144338,-100,4,2,1,45,0,0
149146,-100,4,2,1,65,0,0
150107,-100,4,2,1,35,0,0
150492,-100,4,2,1,45,0,0
160011,-100,4,2,0,5,0,0
160203,-100,4,2,0,10,0,0
160396,-100,4,2,0,15,0,0
160588,-100,4,2,0,20,0,0
160780,-100,4,2,0,25,0,0
160972,-100,4,2,0,35,0,0
161549,-100,4,2,1,20,0,0
161742,-100,4,2,1,25,0,0
161934,-100,4,2,1,30,0,0
162126,-100,4,2,1,50,0,0
162319,-100,4,2,1,60,0,0
162511,-100,4,2,1,65,0,0
162703,-100,4,2,1,75,0,0
162896,-100,4,2,1,80,0,0
163088,-100,4,2,1,60,0,1
164915,-100,4,2,1,80,0,1
165684,-100,4,2,1,55,0,1
165876,-100,4,2,1,60,0,1
167992,-100,4,2,1,80,0,1
168472,-100,4,2,1,60,0,1
169819,-100,4,2,1,60,0,1
171069,-100,4,2,1,80,0,1
171646,-100,4,2,1,60,0,1
174530,-100,4,2,2,80,0,1
174722,-100,4,2,1,60,0,1
177222,-100,4,2,1,80,0,1
177799,-100,4,2,1,60,0,1
180299,-100,4,2,1,80,0,1
180780,-100,4,2,1,60,0,1
181742,-100,4,2,1,60,0,1
183376,-100,4,2,1,80,0,1
183953,-100,4,2,1,60,0,1
186453,-100,4,2,1,85,0,1
186838,-100,4,2,1,30,0,1
187126,-100,4,2,1,35,0,1
187319,-100,4,2,1,40,0,1
187511,-100,4,2,1,45,0,1
187703,-100,4,2,1,60,0,1
187992,-100,4,2,1,75,0,1
189530,-100,4,2,1,90,0,1
190492,-100,4,2,1,75,0,1
192607,-100,4,2,1,90,0,1
193088,-100,4,2,1,60,0,1
193857,-100,4,2,1,75,0,1
195684,-100,4,2,1,90,0,1
196646,-100,4,2,1,75,0,1
198761,-100,4,2,1,90,0,1
199146,-100,4,2,2,90,0,1
199338,-100,4,2,1,45,0,1
199915,-100,4,2,1,75,0,1
201838,-100,4,2,1,90,0,1
202799,-100,4,2,1,75,0,1
204915,-100,4,2,1,90,0,1
205396,-100,4,2,1,60,0,1
206165,-100,4,2,1,75,0,1
207992,-100,4,2,1,90,0,1
208761,-100,4,2,1,55,0,1
208953,-100,4,2,1,75,0,1
211069,-100,4,2,1,90,0,1
211549,-100,4,2,1,30,0,1
211933,-100,4,2,1,45,0,1
212319,-100,4,2,1,60,0,0
214146,-100,4,2,1,80,0,0
215107,-100,4,2,1,60,0,0
217222,-100,4,2,1,80,0,0
217703,-100,4,2,1,60,0,0
218472,-100,4,2,1,60,0,0
220299,-100,4,2,1,80,0,0
221261,-100,4,2,1,60,0,0
223376,-100,4,2,1,80,0,0
223843,384.615384615385,4,2,1,90,1,0
224228,-100,4,2,1,60,0,0
225381,-100,4,2,2,5,0,0
226198,384.615384615385,4,2,2,5,1,0
226198,-100,4,2,2,5,0,0
227303,384.615384615385,4,2,2,5,1,0
227713,384.615384615385,4,2,2,5,1,0
227713,-100,4,2,2,5,0,0
228458,384.615384615385,4,2,2,5,1,0
228458,-100,4,2,2,5,0,0
229251,384.615384615385,4,2,2,5,1,0
229996,384.615384615385,4,2,2,5,1,0
229996,-100,4,2,2,5,0,0
230790,384.615384615385,4,2,2,5,1,0
230790,-100,4,2,2,5,0,0
231919,384.615384615385,4,2,2,5,1,0
232328,384.615384615385,4,2,2,5,1,0
232328,-100,4,2,2,5,0,0
232905,384.615384615385,4,2,2,5,1,0
233073,384.615384615385,4,2,2,5,1,0
233073,-100,4,2,2,5,0,0
233867,384.615384615385,4,2,2,5,1,0
233867,-100,4,2,2,5,0,0
236535,384.615384615385,4,2,2,5,1,0
236919,-100,4,2,2,5,0,0
236967,384.615384615385,4,2,2,5,1,0
236967,-100,4,2,2,5,0,0
238073,384.615384615385,4,2,2,5,1,0
238073,-100,4,2,2,5,0,0
238481,384.615384615385,4,2,2,5,1,0
238481,-100,4,2,2,5,0,0
239612,384.615384615385,4,2,2,5,1,0
239612,-100,4,2,2,5,0,0
241559,384.615384615385,4,2,2,5,1,0
241559,-100,4,2,2,5,0,0
242689,384.615384615385,4,2,2,5,1,0
243097,384.615384615385,4,2,2,5,1,0
243097,-100,4,2,2,5,0,0
244227,384.615384615385,4,2,2,5,1,0
244227,-100,4,2,2,5,0,0
246919,-100,4,2,2,5,0,0
247689,384.615384615385,4,2,2,5,1,0
247689,-100,4,2,2,5,0,0

[Colours]
Combo1 : 213,0,213
Combo2 : 0,145,83
Combo3 : 0,157,157
Combo4 : 143,20,23
Combo5 : 95,95,95
Combo6 : 127,127,127
Combo7 : 255,100,255

[HitObjects]
72,108,12319,6,0,P|76:146|87:167,1,50,0|0,0:0|0:0,0:0:0:0:
150,155,12704,2,0,P|154:116|165:95,1,50,0|0,0:0|0:0,0:0:0:0:
228,108,13088,2,0,P|232:147|243:168,1,50,0|0,0:0|0:0,0:0:0:0:
305,165,13473,2,0,P|309:126|320:105,1,50,0|0,0:0|0:0,0:0:0:0:
374,150,13857,6,0,L|373:304,1,150,0|0,0:0|0:0,0:0:0:0:
340,367,14627,1,0,0:0:0:0:
259,327,15011,1,0,0:0:0:0:
184,271,15396,6,0,P|164:191|234:142,1,150
234,217,16165,2,0,L|355:218,1,100
380,134,16934,5,0,0:0:0:0:
342,48,17319,2,0,L|389:-17,2,50
252,65,18088,1,0,0:0:0:0:
194,133,18472,6,0,L|115:134,2,50
245,187,19049,1,0,0:0:0:0:
193,241,19242,2,0,L|93:240,1,100
38,323,20011,6,0,P|11:287|2:233,1,100
17,159,20588,2,0,L|53:91,1,50
202,203,21549,6,0,P|273:222|322:170,1,150
252,150,22319,2,0,L|240:43,1,100
153,20,23088,6,0,P|140:78|164:136,1,100
185,182,23665,2,0,L|135:214,1,50
116,302,24242,1,0,0:0:0:0:
201,358,24626,6,0,P|244:343|260:323,1,50
299,260,25203,2,0,P|312:239|317:215,1,50
273,121,25780,1,0,0:0:0:0:
176,143,26165,5,0,0:0:0:0:
128,228,26549,2,0,L|66:226,2,50
312,259,27703,5,0,0:0:0:0:
132,76,40011,6,0,P|190:64|288:111,1,150
316,156,40780,1,0,0:0:0:0:
132,301,41549,6,0,P|143:268|172:241,1,50
253,235,42126,2,0,P|242:268|213:295,1,50
185,180,42703,1,0,0:0:0:0:
280,149,43088,6,0,P|331:200|324:280,1,150
286,336,43857,1,0,0:0:0:0:
184,350,44242,1,0,0:0:0:0:
132,270,44626,6,0,P|123:236|132:197,1,50
197,148,45203,2,0,P|205:181|196:220,1,50
112,139,45780,1,0,0:0:0:0:
52,218,46165,6,0,P|14:160|31:82,1,150
90,40,46934,2,0,L|198:42,1,100
279,87,47703,6,0,P|287:120|278:159,1,50
214,209,48280,2,0,P|205:175|214:136,1,50
299,224,48857,1,0,0:0:0:0:
230,293,49242,6,0,L|120:293,2,100
300,351,50396,1,0,0:0:0:0:
385,298,50780,6,0,L|410:140,1,150
393,76,51549,1,0,0:0:0:0:
209,27,52319,6,0,P|264:78|250:146,1,150
191,99,53088,2,0,L|98:144,1,100
55,227,53857,1,0,0:0:0:0:
56,321,54242,1,0,0:0:0:0:
147,346,54626,1,0,0:0:0:0:
329,341,55396,6,0,P|254:343|215:285,1,150
290,277,56165,2,0,L|323:179,1,100
307,89,56934,6,0,P|278:69|238:65,1,50,0|0,0:0|0:0,0:0:0:0:
169,108,57511,2,0,P|197:127|236:133,1,50,0|0,0:0|0:0,0:0:0:0:
189,336,58472,6,0,P|162:263|210:190,1,150
262,172,59242,2,0,L|262:288,1,100
331,336,60011,5,0,0:0:0:0:
379,254,60396,1,0,0:0:0:0:
474,278,60780,1,0,0:0:0:0:
512,188,61165,1,0,0:0:0:0:
479,106,61549,6,0,P|412:123|320:69,1,150
289,35,62319,2,0,L|153:36,1,100
115,92,63088,6,0,P|106:125|116:164,1,50,0|0,0:0|0:0,0:0:0:0:
177,217,63665,1,0,0:0:0:0:
177,217,63857,2,0,L|293:217,1,100
212,300,64626,6,0,L|43:300,1,150
10,244,65396,2,0,P|1:197|22:138,1,100
80,72,66165,5,0,0:0:0:0:
173,42,66549,1,0,0:0:0:0:
210,133,66934,1,0,0:0:0:0:
309,99,67319,1,0,0:0:0:0:
350,193,67703,6,0,L|305:292,1,100
397,325,68472,2,0,L|442:226,1,100
480,139,69242,6,0,L|290:62,1,200
197,75,70396,1,0,0:0:0:0:
150,168,70780,6,0,P|164:246|221:282,1,150
294,274,71549,1,0,0:0:0:0:
197,75,72319,6,0,P|117:71|69:118,1,150
56,191,73088,1,0,0:0:0:0:
86,283,73472,1,0,0:0:0:0:
176,307,73857,6,0,L|404:302,1,200
351,75,75396,6,0,L|123:80,1,200
13,24,76934,6,0,P|-2:92|48:164,1,150
112,167,77703,2,0,L|217:149,1,100
319,160,78472,5,0,0:0:0:0:
385,233,78857,2,0,L|368:289,1,50
323,339,79242,1,0,0:0:0:0:
229,324,79626,1,0,0:0:0:0:
172,248,80011,6,0,P|169:213|186:176,1,50
257,137,80588,2,0,P|260:171|245:208,1,50,0|0,0:0|0:0,0:0:0:0:
175,119,81165,1,0,0:0:0:0:
236,52,81549,5,0,0:0:0:0:
146,23,81934,2,0,L|86:21,1,50
32,62,82319,1,0,0:0:0:0:
34,258,83088,6,0,P|97:241|180:278,1,150
224,326,83857,2,0,P|271:347|335:345,1,100
404,293,84626,5,0,0:0:0:0:
417,197,85011,2,0,L|406:142,1,50
362,87,85396,1,0,0:0:0:0:
265,48,85780,1,0,0:0:0:0:
191,110,86165,6,0,P|188:144|205:181,1,50
276,221,86742,2,0,P|279:186|264:149,1,50,0|0,0:0|0:0,0:0:0:0:
187,242,87319,2,0,L|75:240,1,100
44,329,88088,2,0,L|102:340,1,50
164,315,88472,1,0,0:0:0:0:
367,338,89242,6,0,P|356:276|403:203,1,150
469,175,90011,2,0,L|490:67,1,100
426,4,90780,5,0,0:0:0:0:
332,27,91165,2,0,L|305:77,1,50
305,145,91549,1,0,0:0:0:0:
231,209,91934,1,0,0:0:0:0:
135,210,92319,6,0,P|108:188|94:149,1,50
116,71,92896,2,0,P|142:93|158:130,1,50,0|0,0:0|0:0,0:0:0:0:
41,111,93472,1,0,0:0:0:0:
15,208,93857,5,0,0:0:0:0:
55,302,94242,2,0,L|103:327,1,50
173,319,94626,1,0,0:0:0:0:
293,151,95396,6,0,P|267:223|323:286,1,150
340,211,96165,2,0,L|456:211,1,100
504,138,96934,5,0,0:0:0:0:
488,38,97319,2,0,L|436:15,1,50
367,17,97703,1,0,0:0:0:0:
290,80,98088,1,0,0:0:0:0:
265,171,98472,6,0,P|262:206|279:243,1,50
350,282,99049,2,0,P|353:248|338:211,1,50,0|0,0:0|0:0,0:0:0:0:
268,304,99626,1,0,0:0:0:0:
173,291,100011,6,0,L|118:172,1,100
121,125,100588,1,0,0:0:0:0:
150,55,100780,2,0,P|216:26|283:40,1,100
336,67,101549,5,0,0:0:0:0:
354,204,102126,2,0,P|331:230|293:245,1,50
218,235,102703,1,0,0:0:0:0:
193,146,103088,6,0,P|259:146|294:178,1,100
318,238,103665,2,0,L|323:302,1,50
269,363,104242,1,0,0:0:0:0:
174,362,104626,6,0,P|147:339|132:301,1,50
155,223,105203,2,0,P|181:244|196:281,1,50
80,265,105780,1,0,0:0:0:0:
88,172,106165,6,0,P|131:141|208:160,1,100
245,172,106742,1,0,0:0:0:0:
273,241,106934,1,0,0:0:0:0:
154,364,107703,6,0,L|152:195,1,150
176,141,108472,1,0,0:0:0:0:
256,84,108857,1,0,0:0:0:0:
344,120,109242,6,0,L|345:226,1,100
313,288,109819,2,0,L|275:335,1,50
187,321,110396,1,0,0:0:0:0:
124,252,110780,6,0,P|121:217|138:180,1,50
209,141,111357,2,0,P|212:175|197:212,1,50,0|0,0:0|0:0,0:0:0:0:
129,120,111934,1,0,0:0:0:0:
42,158,112319,6,0,P|27:215|40:258,1,100
98,298,112896,1,0,0:0:0:0:
172,307,113088,1,0,0:0:0:0:
306,206,113857,6,0,L|296:99,1,100
251,46,114434,1,0,0:0:0:0:
180,26,114626,2,0,P|129:33|79:82,1,100
66,160,115396,6,0,P|63:195|80:232,1,50
189,183,115973,2,0,P|155:180|118:195,1,50
130,277,116549,1,0,0:0:0:0:
202,348,116934,6,0,L|329:348,1,100
365,306,117511,1,0,0:0:0:0:
408,245,117703,2,0,P|416:193|392:137,1,100
322,99,118472,6,0,L|272:99,1,50
305,172,118857,2,0,L|256:172,1,50
281,247,119242,1,0,0:0:0:0:
196,293,119626,1,0,0:0:0:0:
113,243,120011,6,0,P|95:187|125:120,1,100
154,92,120588,1,0,0:0:0:0:
223,65,120780,2,0,L|357:66,1,100
399,138,121549,6,0,P|402:173|385:210,1,50
276,161,122126,2,0,P|310:158|347:173,1,50
335,255,122702,1,0,0:0:0:0:
263,323,123088,6,0,L|125:315,1,100
97,280,123665,1,0,0:0:0:0:
58,215,123857,2,0,P|50:160|71:104,1,100
139,55,124626,6,0,L|189:55,1,50
155,128,125011,2,0,L|204:127,1,50
180,203,125396,1,0,0:0:0:0:
273,246,125780,1,0,0:0:0:0:
364,204,126165,6,0,L|363:86,1,100
427,65,126742,1,0,0:0:0:0:
489,106,126934,2,0,L|488:238,1,100
426,284,127703,6,0,P|391:287|354:270,1,50
403,161,128280,2,0,P|406:195|391:232,1,50
309,220,128856,1,0,0:0:0:0:
226,178,129242,6,0,P|215:231|239:281,1,100
294,314,129819,1,0,0:0:0:0:
366,330,130011,2,0,L|497:329,1,100
512,248,130780,6,0,L|462:248,1,50
495,175,131165,2,0,L|446:175,1,50
471,100,131550,1,0,0:0:0:0:
407,27,131934,1,0,0:0:0:0:
320,67,132319,6,0,P|297:142|335:216,1,150
374,260,133088,2,0,P|391:314|375:355,1,100
290,309,133857,6,0,P|255:312|218:295,1,50
267,186,134434,2,0,P|270:220|255:257,1,50
172,245,135010,1,0,0:0:0:0:
103,173,135396,6,0,P|102:115|133:67,1,100
185,39,135972,1,0,0:0:0:0:
259,26,136165,2,0,L|370:38,1,100
428,106,136934,6,0,L|473:127,1,50
412,179,137319,2,0,L|456:199,1,50
402,257,137704,1,0,0:0:0:0:
470,331,138088,1,0,0:0:0:0:
372,363,138472,6,0,P|296:345|221:363,1,150
152,375,139242,1,0,0:0:0:0:
73,322,139626,1,0,0:0:0:0:
129,252,140011,6,0,P|164:249|201:266,1,50
152,375,140588,2,0,P|149:341|164:304,1,50
246,316,141164,1,0,0:0:0:0:
325,373,141549,6,0,P|330:290|375:238,1,150
446,240,142319,2,0,B|466:213|466:213|465:119,1,100
404,70,143088,6,0,L|351:31,1,50
288,39,143472,2,0,L|247:68,1,50
237,143,143857,1,0,0:0:0:0:
299,229,144242,1,0,0:0:0:0:
405,231,144626,6,0,P|417:276|395:340,1,100
337,360,145203,1,0,0:0:0:0:
262,371,145396,2,0,L|158:344,1,100
123,255,146165,6,0,P|158:179|225:168,1,150
280,206,146934,2,0,B|306:216|306:216|389:195,1,100
454,133,147703,6,0,L|393:32,1,100
324,37,148280,1,0,0:0:0:0:
256,74,148472,2,0,L|216:169,1,100
249,247,149242,6,0,L|314:254,1,50
364,215,149626,2,0,L|384:169,1,50
356,99,150011,1,0,0:0:0:0:
260,57,150396,1,0,0:0:0:0:
167,108,150780,6,0,L|167:329,1,200
321,378,152319,6,0,L|321:178,1,200
253,104,153472,1,0,0:0:0:0:
184,178,153857,6,0,P|256:205|335:160,1,150
370,122,154626,2,0,P|434:114|474:138,1,100
412,213,155396,6,0,L|401:332,1,100
352,368,155972,2,0,L|284:381,1,50
212,348,156549,1,0,0:0:0:0:
161,267,156934,6,0,L|163:110,1,150
196,49,157703,1,0,0:0:0:0:
271,115,158088,1,0,0:0:0:0:
234,206,158472,6,0,L|410:203,1,150
436,148,159242,1,0,0:0:0:0:
452,48,159626,1,0,0:0:0:0:
356,10,160011,6,0,L|127:11,3,200
80,83,162703,1,0,0:0:0:0:
61,184,163088,6,0,B|62:288|62:288|99:333,1,150
162,347,163857,2,0,P|212:357|283:331,1,100
324,267,164626,5,0,0:0:0:0:
313,163,165011,2,0,L|266:125,1,50
200,115,165396,1,0,0:0:0:0:
119,167,165780,1,0,0:0:0:0:
120,258,166165,6,0,P|132:290|163:317,1,50
241,226,166742,2,0,P|208:237|181:266,1,50
227,336,167318,1,0,0:0:0:0:
312,289,167703,6,0,L|349:178,1,100
355,119,168280,1,0,0:0:0:0:
347,44,168472,1,0,0:0:0:0:
157,9,169242,6,0,P|174:79|132:147,1,150
75,186,170011,2,0,P|39:236|42:292,1,100
139,267,170780,5,0,0:0:0:0:
217,206,171165,2,0,L|211:140,1,50
189,84,171549,1,0,0:0:0:0:
242,3,171934,1,0,0:0:0:0:
312,61,172319,6,0,P|315:96|298:133,1,50
189,84,172896,2,0,P|223:81|260:96,1,50
248,178,173472,1,0,0:0:0:0:
168,236,173857,6,0,P|118:216|78:165,1,100
59,113,174434,1,0,0:0:0:0:
74,39,174626,1,0,0:0:0:0:
265,8,175396,6,0,P|327:24|363:105,1,150
350,170,176165,2,0,L|360:274,1,100
298,346,176934,5,0,0:0:0:0:
206,370,177319,2,0,L|141:363,1,50
105,309,177703,1,0,0:0:0:0:
96,201,178088,1,0,0:0:0:0:
174,135,178472,6,0,P|209:135|244:155,1,50
186,259,179049,2,0,P|185:224|204:189,1,50
284,208,179625,1,0,0:0:0:0:
263,303,180011,6,0,P|228:342|172:347,1,100
119,309,180588,1,0,0:0:0:0:
94,238,180780,1,0,0:0:0:0:
234,107,181549,6,0,P|295:121|405:80,1,150
422,38,182319,2,0,P|454:79|448:129,1,100
388,205,183088,5,0,0:0:0:0:
301,247,183472,2,0,L|225:227,1,50
196,183,183857,1,0,0:0:0:0:
99,157,184242,1,0,0:0:0:0:
93,254,184626,6,0,P|115:280|153:295,1,50
196,183,185203,2,0,P|169:204|154:241,1,50
220,291,185779,1,0,0:0:0:0:
285,215,186165,5,0,0:0:0:0:
265,117,186549,2,0,L|219:82,1,50
250,15,186934,2,0,L|330:76,1,100
413,29,187703,6,0,P|426:77|414:135,1,100
356,169,188280,1,0,0:0:0:0:
286,192,188472,2,0,P|235:220|219:260,2,100
306,284,189626,2,0,L|350:320,1,50
418,332,190011,1,0,0:0:0:0:
491,264,190396,1,0,0:0:0:0:
475,166,190780,6,0,P|450:141|410:130,1,50
333,135,191357,2,0,P|357:110|369:72,1,50
319,11,191933,1,0,0:0:0:0:
223,37,192319,6,0,P|199:82|212:130,1,100
271,177,192896,1,0,0:0:0:0:
333,135,193088,1,0,0:0:0:0:
121,131,193857,6,0,L|118:231,1,100
139,303,194434,1,0,0:0:0:0:
194,353,194626,6,0,P|239:367|308:352,2,100
250,278,195780,2,0,L|261:193,1,50
244,154,196165,1,0,0:0:0:0:
313,77,196549,1,0,0:0:0:0:
403,114,196934,6,0,P|402:149|382:185,1,50
324,236,197511,2,0,P|358:236|394:255,1,50
402,333,198087,1,0,0:0:0:0:
316,383,198473,2,0,P|267:368|242:325,1,100
250,250,199050,1,0,0:0:0:0:
324,236,199242,1,0,0:0:0:0:
130,283,200011,6,0,P|103:240|106:172,1,100
130,122,200588,1,0,0:0:0:0:
178,64,200780,6,0,L|292:66,2,100
226,147,201934,2,0,L|295:148,1,50
339,106,202319,1,0,0:0:0:0:
439,123,202703,1,0,0:0:0:0:
451,225,203088,6,0,P|426:250|386:261,1,50
309,256,203665,2,0,P|333:281|344:319,1,50
295,380,204241,1,0,0:0:0:0:
199,354,204627,2,0,P|175:309|188:261,1,100
246,214,205204,1,0,0:0:0:0:
309,256,205396,1,0,0:0:0:0:
441,108,206165,6,0,L|322:108,1,100
273,142,206742,1,0,0:0:0:0:
246,214,206934,2,0,L|240:313,1,100
315,382,207703,5,0,0:0:0:0:
416,359,208088,1,0,0:0:0:0:
465,303,208280,1,0,0:0:0:0:
481,229,208472,1,0,0:0:0:0:
434,133,208857,1,0,0:0:0:0:
342,106,209242,6,0,P|309:120|285:154,1,50
264,228,209819,2,0,P|248:196|217:172,1,50
142,199,210395,1,0,0:0:0:0:
134,298,210781,6,0,P|168:335|217:340,1,100
282,301,211358,1,0,0:0:0:0:
264,228,211550,1,0,0:0:0:0:
343,164,211934,1,0,0:0:0:0:
430,224,212319,6,0,L|427:44,1,150
375,20,213088,2,0,P|322:13|274:30,1,100
225,111,213857,5,0,0:0:0:0:
237,212,214242,2,0,L|256:277,1,50
315,297,214626,1,0,0:0:0:0:
414,297,215011,1,0,0:0:0:0:
477,220,215396,6,0,P|476:186|457:150,1,50
382,118,215973,2,0,P|382:153|400:188,1,50
461,88,216550,1,0,0:0:0:0:
388,22,216934,6,0,L|256:23,1,100
219,53,217511,1,0,0:0:0:0:
195,124,217703,1,0,0:0:0:0:
341,262,218472,6,0,P|272:244|195:277,1,150
148,326,219242,2,0,P|88:330|43:311,1,100
12,223,220011,5,0,0:0:0:0:
48,128,220396,2,0,L|102:106,1,50
168,114,220780,1,0,0:0:0:0:
242,184,221165,1,0,0:0:0:0:
295,264,221549,6,0,P|328:272|367:263,1,50
417,199,222126,2,0,P|383:190|344:199,1,50
432,284,222703,1,0,0:0:0:0:
495,204,223088,6,0,L|495:44,1,150
447,2,223843,5,0,0:0:0:0:
358,26,224227,2,0,L|330:80,1,50
330,145,224612,1,0,0:0:0:0:
