osu file format v14

[General]
AudioFilename: audio.mp3
AudioLeadIn: 0
PreviewTime: 236574
Countdown: 0
SampleSet: Soft
StackLeniency: 0.3
Mode: 0
LetterboxInBreaks: 0
WidescreenStoryboard: 1

[Editor]
Bookmarks: 2534,31325,41991,55324,65991,76658,89991,111324,121991,135324,145991,156658,169991,191324,201991,209991,223324,236658,247324,257991,268658,279324,289991,303334,329510
DistanceSpacing: 0.3
BeatDivisor: 4
GridSize: 32
TimelineZoom: 3.279999

[Metadata]
Title:Unmei no Koi nara...
TitleUnicode:運命の恋なら…
Artist:Aoishi Miyu
ArtistUnicode:青石実夕
Creator:buckfro
Version:Koi
Source:君とつながる恋フラグ
Tags:Kimi to Tsunagaru Koi Flag Koiflag Kimikoi Mirage Soft eroge visual novel galgame ending full version jpop j-pop pop japanese i.o.sound 津上潤也 レインメーカー Junya Tsugami rainmaker notlaw
BeatmapID:3397537
BeatmapSetID:1664261

[Difficulty]
HPDrainRate:6
CircleSize:5
OverallDifficulty:9
ApproachRate:9.4
SliderMultiplier:2
SliderTickRate:1

[Events]
//Background and Video events
0,0,"bg.jpg",0,0
//Break Periods
//Storyboard Layer 0 (Background)
//Storyboard Layer 1 (Fail)
//Storyboard Layer 2 (Pass)
//Storyboard Layer 3 (Foreground)
//Storyboard Layer 4 (Overlay)
//Storyboard Sound Samples

[TimingPoints]
2534,400,4,2,46,30,1,0
2534,-333.333333333333,4,2,46,30,0,0
2934,-333.333333333333,4,2,1,30,0,0
3334,-400,4,2,1,30,0,0
4134,-500,4,2,1,30,0,0
4934,-1000,4,2,1,30,0,0
5734,-333.333333333333,4,2,49,30,0,0
6134,-333.333333333333,4,2,1,30,0,0
6534,-400,4,2,1,30,0,0
7334,-500,4,2,1,30,0,0
8134,-1000,4,2,1,30,0,0
8934,-1000,4,2,47,30,0,0
9334,-500,4,2,46,30,0,0
9534,-500,4,2,42,30,0,0
9734,-500,4,2,1,30,0,0
9934,-500,4,2,44,30,0,0
10134,-500,4,2,42,30,0,0
10334,-500,4,2,47,30,0,0
10534,-500,4,2,46,30,0,0
10734,-500,4,2,42,30,0,0
10934,-500,4,2,37,30,0,0
11134,-500,4,2,49,30,0,0
11334,-500,4,2,44,30,0,0
11534,-500,4,2,42,30,0,0
11734,-500,4,2,37,30,0,0
11934,-500,4,2,42,30,0,0
12134,-333.333333333333,4,2,44,35,0,0
12334,-333.333333333333,4,2,47,35,0,0
12534,-333.333333333333,4,2,46,35,0,0
12734,-333.333333333333,4,2,42,35,0,0
12934,-333.333333333333,4,2,49,35,0,0
13134,-333.333333333333,4,2,44,35,0,0
13334,-333.333333333333,4,2,42,35,0,0
13534,-333.333333333333,4,2,47,35,0,0
13734,-333.333333333333,4,2,46,35,0,0
13934,-333.333333333333,4,2,42,35,0,0
14134,-333.333333333333,4,2,37,35,0,0
14334,-333.333333333333,4,2,49,35,0,0
14534,-333.333333333333,4,2,54,35,0,0
14734,-333.333333333333,4,2,49,35,0,0
14934,-333.333333333333,4,2,44,35,0,0
15134,-333.333333333333,4,2,42,35,0,0
15334,-285.714285714286,4,2,46,45,0,0
15534,-285.714285714286,4,2,47,45,0,0
15734,-285.714285714286,4,2,46,45,0,0
15934,-285.714285714286,4,2,42,45,0,0
16134,-285.714285714286,4,2,49,45,0,0
16334,-285.714285714286,4,2,44,45,0,0
16534,-285.714285714286,4,2,42,45,0,0
16734,-285.714285714286,4,2,47,45,0,0
16934,-285.714285714286,4,2,46,45,0,0
17134,-285.714285714286,4,2,42,45,0,0
17334,-285.714285714286,4,2,37,45,0,0
17534,-285.714285714286,4,2,49,45,0,0
17734,-285.714285714286,4,2,44,45,0,0
17934,-285.714285714286,4,2,42,45,0,0
18134,-285.714285714286,4,2,37,45,0,0
18334,-285.714285714286,4,2,42,45,0,0
18534,-285.714285714286,4,2,49,45,0,0
18734,-285.714285714286,4,2,47,45,0,0
18934,-285.714285714286,4,2,46,45,0,0
19134,-285.714285714286,4,2,42,45,0,0
19334,-285.714285714286,4,2,37,45,0,0
19534,-285.714285714286,4,2,44,45,0,0
19734,-285.714285714286,4,2,42,45,0,0
19934,-285.714285714286,4,2,47,45,0,0
20134,-285.714285714286,4,2,46,45,0,0
20334,-285.714285714286,4,2,42,45,0,0
20534,-285.714285714286,4,2,37,45,0,0
20734,-285.714285714286,4,2,49,45,0,0
20934,-285.714285714286,4,2,54,45,0,0
21134,-285.714285714286,4,2,49,45,0,0
21334,-285.714285714286,4,2,44,45,0,0
21534,-285.714285714286,4,2,42,45,0,0
21734,-285.714285714286,4,2,48,45,0,0
21934,-285.714285714286,4,2,49,45,0,0
22134,-285.714285714286,4,2,48,45,0,0
22334,-285.714285714286,4,2,42,45,0,0
22534,-285.714285714286,4,2,51,45,0,0
22734,-285.714285714286,4,2,44,45,0,0
22934,-285.714285714286,4,2,42,45,0,0
23134,-285.714285714286,4,2,49,45,0,0
23334,-285.714285714286,4,2,48,45,0,0
23534,-285.714285714286,4,2,42,45,0,0
23734,-285.714285714286,4,2,39,45,0,0
23934,-285.714285714286,4,2,51,45,0,0
24134,-285.714285714286,4,2,44,45,0,0
24334,-285.714285714286,4,2,42,45,0,0
24534,-285.714285714286,4,2,39,45,0,0
24734,-285.714285714286,4,2,42,45,0,0
24934,-285.714285714286,4,2,44,45,0,0
25134,-285.714285714286,4,2,47,45,0,0
25334,-285.714285714286,4,2,46,45,0,0
25534,-285.714285714286,4,2,42,45,0,0
25734,-285.714285714286,4,2,49,45,0,0
25934,-285.714285714286,4,2,44,45,0,0
26134,-285.714285714286,4,2,42,45,0,0
26334,-285.714285714286,4,2,47,45,0,0
26534,-285.714285714286,4,2,46,40,0,0
26734,-285.714285714286,4,2,42,40,0,0
26934,-285.714285714286,4,2,37,40,0,0
27134,-285.714285714286,4,2,49,40,0,0
27334,-285.714285714286,4,2,54,35,0,0
27534,-285.714285714286,4,2,49,35,0,0
27734,-285.714285714286,4,2,44,35,0,0
27934,-285.714285714286,4,2,42,35,0,0
28134,-285.714285714286,4,2,54,30,0,0
28334,-285.714285714286,4,2,49,30,0,0
28534,-285.714285714286,4,2,44,30,0,0
28734,-285.714285714286,4,2,42,30,0,0
28934,-285.714285714286,4,2,54,25,0,0
29134,-285.714285714286,4,2,49,25,0,0
29334,-285.714285714286,4,2,44,25,0,0
29534,-285.714285714286,4,2,42,25,0,0
29734,-285.714285714286,4,2,54,20,0,0
29934,-285.714285714286,4,2,49,20,0,0
30134,-285.714285714286,4,2,44,20,0,0
30334,-285.714285714286,4,2,42,20,0,0
30534,-285.714285714286,4,2,54,20,0,0
31325,333.333333333333,4,2,1,60,1,0
31325,-71.4285714285714,4,2,1,60,0,0
31491,-71.4285714285714,4,2,4,60,0,0
31825,-71.4285714285714,4,2,2,60,0,0
31991,-71.4285714285714,4,2,4,60,0,0
32325,-71.4285714285714,4,2,1,60,0,0
32491,-71.4285714285714,4,2,4,60,0,0
32825,-200,4,2,2,60,0,0
32991,-200,4,2,4,60,0,0
33325,-71.4285714285714,4,2,1,60,0,0
33574,-71.4285714285714,4,2,99,5,0,0
33658,-142.857142857143,4,2,3,60,0,0
33907,-142.857142857143,4,2,99,5,0,0
33991,-142.857142857143,4,2,1,60,0,0
34157,-142.857142857143,4,2,4,60,0,0
34491,-142.857142857143,4,2,2,60,0,0
34657,-142.857142857143,4,2,4,60,0,0
34991,-142.857142857143,4,2,1,60,0,0
35157,-142.857142857143,4,2,4,60,0,0
35491,-142.857142857143,4,2,2,60,0,0
35657,-142.857142857143,4,2,4,60,0,0
35991,-71.4285714285715,4,2,1,60,0,0
36240,-71.4285714285715,4,2,99,5,0,0
36324,-250.000000000001,4,2,2,60,0,0
36574,-250.000000000001,4,2,99,5,0,0
36658,-250.000000000001,4,2,1,60,0,0
36824,-250.000000000001,4,2,4,60,0,0
37158,-250.000000000001,4,2,2,60,0,0
37324,-250.000000000001,4,2,4,60,0,0
37658,-250.000000000001,4,2,1,60,0,0
37824,-250.000000000001,4,2,4,60,0,0
38158,-200,4,2,2,60,0,0
38324,-200,4,2,4,60,0,0
38658,-71.4285714285715,4,2,1,60,0,0
38907,-71.4285714285715,4,2,99,5,0,0
38991,-142.857142857143,4,2,3,60,0,0
39240,-142.857142857143,4,2,99,5,0,0
39324,-142.857142857143,4,2,1,60,0,0
39490,-142.857142857143,4,2,4,60,0,0
39824,-142.857142857143,4,2,2,60,0,0
39990,-142.857142857143,4,2,4,60,0,0
40324,-142.857142857143,4,2,1,60,0,0
40490,-142.857142857143,4,2,4,60,0,0
40824,-142.857142857143,4,2,2,60,0,0
40990,-142.857142857143,4,2,4,60,0,0
41324,-142.857142857143,4,2,3,60,0,0
41658,-142.857142857143,4,2,4,50,0,0
41991,-166.666666666667,4,2,3,60,0,0
42240,-166.666666666667,4,2,99,5,0,0
42324,-83.3333333333333,4,2,3,60,0,0
42573,-83.3333333333333,4,2,99,5,0,0
42658,-83.3333333333333,4,2,4,60,0,0
42824,-83.3333333333333,4,2,1,60,0,0
42991,-83.3333333333333,4,2,2,60,0,0
43074,-83.3333333333333,4,2,99,5,0,0
43158,-83.3333333333333,4,2,2,60,0,0
43240,-83.3333333333333,4,2,99,5,0,0
43324,-71.4285714285714,4,2,4,60,0,0
43491,-71.4285714285714,4,2,1,60,0,0
43658,-142.857142857143,4,2,1,60,0,0
44324,-142.857142857143,4,2,2,60,0,0
44491,-83.3333333333333,4,2,2,60,0,0
44824,-83.3333333333333,4,2,1,60,0,0
44991,-250.000000000001,4,2,1,60,0,0
45240,-250.000000000001,4,2,99,5,0,0
45324,-166.666666666667,4,2,4,60,0,0
45491,-166.666666666667,4,2,1,60,0,0
45658,-166.666666666667,4,2,2,60,0,0
45824,-83.3333333333333,4,2,2,60,0,0
46073,-83.3333333333333,4,2,99,5,0,0
46158,-83.3333333333333,4,2,1,60,0,0
46324,-142.857142857143,4,2,1,60,0,0
46658,-83.3333333333333,4,2,1,60,0,0
46907,-83.3333333333333,4,2,99,5,0,0
46991,-83.3333333333333,4,2,2,60,0,0
47074,-83.3333333333333,4,2,4,60,0,0
47324,-166.666666666667,4,2,1,60,0,0
47573,-166.666666666667,4,2,99,5,0,0
47658,-83.3333333333333,4,2,1,60,0,0
47907,-83.3333333333333,4,2,99,5,0,0
47991,-83.3333333333333,4,2,4,60,0,0
48158,-83.3333333333333,4,2,1,60,0,0
48324,-83.3333333333333,4,2,2,60,0,0
48408,-83.3333333333333,4,2,99,5,0,0
48491,-83.3333333333333,4,2,2,60,0,0
48573,-83.3333333333333,4,2,99,5,0,0
48658,-71.4285714285714,4,2,4,60,0,0
48824,-71.4285714285714,4,2,1,60,0,0
48991,-250,4,2,1,60,0,0
49658,-333.333333333333,4,2,2,60,0,0
50324,-83.3333333333333,4,2,1,60,0,0
50573,-83.3333333333333,4,2,99,5,0,0
50658,-83.3333333333333,4,2,4,60,0,0
50824,-83.3333333333333,4,2,1,60,0,0
50991,-166.666666666667,4,2,2,60,0,0
51240,-166.666666666667,4,2,99,5,0,0
51324,-166.666666666667,4,2,4,60,0,0
51491,-166.666666666667,4,2,1,60,0,0
51991,-333.333333333334,4,2,1,60,0,0
52240,-333.333333333334,4,2,99,5,0,0
52324,-83.3333333333334,4,2,2,60,0,0
52573,-83.3333333333334,4,2,99,5,0,0
52658,-83.3333333333334,4,2,1,60,0,0
52824,-83.3333333333334,4,2,2,60,0,0
52991,-83.3333333333334,4,2,1,60,0,0
53158,-33.3333333333333,4,2,1,60,0,0
53199,-33.3333333333333,4,2,1,30,0,0
53324,-33.3333333333333,4,2,4,60,0,0
53366,-33.3333333333333,4,2,1,30,0,0
53491,-33.3333333333333,4,2,1,60,0,0
53658,-250.000000000001,4,2,2,60,0,0
53991,-71.4285714285715,4,2,4,60,0,0
54240,-71.4285714285715,4,2,99,5,0,0
54324,-71.4285714285715,4,2,1,60,0,0
54658,-100,4,2,2,50,0,0
54991,-100,4,2,4,50,0,0
55324,-111.111111111111,4,2,42,35,0,0
55491,-111.111111111111,4,2,47,35,0,0
55658,-111.111111111111,4,2,46,35,0,0
55824,-111.111111111111,4,2,42,35,0,0
56074,-111.111111111111,4,2,99,5,0,0
56158,-111.111111111111,4,2,44,35,0,0
56324,-111.111111111111,4,2,42,35,0,0
56491,-111.111111111111,4,2,47,35,0,0
56658,-111.111111111111,4,2,46,35,0,0
56824,-111.111111111111,4,2,42,35,0,0
56991,-111.111111111111,4,2,37,35,0,0
57158,-111.111111111111,4,2,49,35,0,0
57325,-111.111111111111,4,2,44,35,0,0
57491,-111.111111111111,4,2,42,35,0,0
57658,-111.111111111111,4,2,37,35,0,0
57824,-111.111111111111,4,2,42,35,0,0
57991,-111.111111111111,4,2,35,35,0,0
58158,-111.111111111111,4,2,47,35,0,0
58324,-111.111111111111,4,2,46,35,0,0
58491,-111.111111111111,4,2,42,35,0,0
58658,-111.111111111111,4,2,49,35,0,0
58824,-111.111111111111,4,2,44,35,0,0
58991,-111.111111111111,4,2,42,35,0,0
59158,-111.111111111111,4,2,47,35,0,0
59324,-111.111111111111,4,2,46,35,0,0
59491,-111.111111111111,4,2,42,35,0,0
59658,-111.111111111111,4,2,37,35,0,0
59824,-111.111111111111,4,2,49,35,0,0
59991,-111.111111111111,4,2,54,35,0,0
60074,-111.111111111111,4,2,99,5,0,0
60158,-111.111111111111,4,2,49,35,0,0
60241,-111.111111111111,4,2,99,5,0,0
60324,-111.111111111111,4,2,44,35,0,0
60491,-111.111111111111,4,2,42,35,0,0
60658,-111.111111111111,4,2,25,35,0,0
60824,-111.111111111111,4,2,47,35,0,0
60991,-111.111111111111,4,2,46,35,0,0
61158,-111.111111111111,4,2,42,35,0,0
61324,-111.111111111111,4,2,49,35,0,0
61491,-111.111111111111,4,2,44,35,0,0
61658,-111.111111111111,4,2,42,35,0,0
61824,-111.111111111111,4,2,47,35,0,0
61991,-111.111111111111,4,2,46,35,0,0
62158,-111.111111111111,4,2,42,35,0,0
62324,-111.111111111111,4,2,37,35,0,0
62491,-111.111111111111,4,2,49,35,0,0
62658,-111.111111111111,4,2,44,35,0,0
62824,-111.111111111111,4,2,42,35,0,0
62991,-111.111111111111,4,2,37,35,0,0
63158,-111.111111111111,4,2,42,35,0,0
63324,-111.111111111111,4,2,37,35,0,0
63491,-111.111111111111,4,2,47,35,0,0
63658,-111.111111111111,4,2,46,35,0,0
63824,-111.111111111111,4,2,42,35,0,0
63991,-111.111111111111,4,2,49,35,0,0
64158,-111.111111111111,4,2,44,35,0,0
64324,-111.111111111111,4,2,42,35,0,0
64491,-111.111111111111,4,2,47,35,0,0
64658,-111.111111111111,4,2,46,35,0,0
64824,-111.111111111111,4,2,42,35,0,0
64991,-111.111111111111,4,2,37,35,0,0
65158,-111.111111111111,4,2,49,35,0,0
65241,-111.111111111111,4,2,99,5,0,0
65324,-111.111111111111,4,2,54,35,0,0
65408,-111.111111111111,4,2,99,5,0,0
65491,-111.111111111111,4,2,49,35,0,0
65574,-111.111111111111,4,2,99,5,0,0
65658,-111.111111111111,4,2,44,35,0,0
65824,-111.111111111111,4,2,42,35,0,0
65991,-166.666666666666,4,2,5,50,0,0
66240,-166.666666666666,4,2,99,5,0,0
66324,-166.666666666666,4,2,5,50,0,0
66491,-249.999999999999,4,2,5,50,0,0
66741,-249.999999999999,4,2,99,5,0,0
66824,-111.111111111111,4,2,5,50,0,0
67073,-111.111111111111,4,2,99,5,0,0
67158,-111.111111111111,4,2,5,50,0,0
67824,-250.000000000001,4,2,5,50,0,0
68074,-250.000000000001,4,2,99,5,0,0
68158,-250.000000000001,4,2,5,50,0,0
68658,-111.111111111111,4,2,5,50,0,0
68907,-111.111111111111,4,2,99,5,0,0
68991,-111.111111111111,4,2,5,50,0,0
69158,-250.000000000001,4,2,5,50,0,0
69408,-250.000000000001,4,2,99,5,0,0
69491,-250.000000000001,4,2,5,50,0,0
69658,-111.111111111111,4,2,5,50,0,0
70158,-166.666666666666,4,2,5,50,0,0
70991,-166.666666666666,4,2,6,50,0,0
71324,-249.999999999999,4,2,5,50,0,0
71574,-249.999999999999,4,2,99,5,0,0
71658,-249.999999999999,4,2,5,50,0,0
71824,-111.111111111111,4,2,5,50,0,0
72074,-111.111111111111,4,2,99,5,0,0
72158,-111.111111111111,4,2,5,50,0,0
72824,-166.666666666666,4,2,5,50,0,0
73324,-249.999999999999,4,2,5,50,0,0
73574,-249.999999999999,4,2,99,5,0,0
73658,-111.111111111111,4,2,5,50,0,0
75824,-111.111111111111,4,2,6,50,0,0
75991,-111.111111111111,4,2,5,50,0,0
76158,-111.111111111111,4,2,6,50,0,0
76574,-111.111111111111,4,2,5,50,0,0
76658,-100,4,2,1,50,0,0
76824,-100,4,2,2,50,0,0
77158,-250,4,2,3,50,0,0
77408,-250,4,2,99,5,0,0
77491,-250,4,2,64,50,0,0
77658,-83.3333333333333,4,2,1,50,0,0
77907,-83.3333333333333,4,2,99,5,0,0
77991,-250,4,2,5,50,0,0
78241,-250,4,2,99,5,0,0
78324,-111.111111111111,4,2,5,50,0,0
78573,-111.111111111111,4,2,99,5,0,0
78658,-166.666666666666,4,2,5,50,0,0
78907,-166.666666666666,4,2,99,5,0,0
78991,-166.666666666666,4,2,5,50,0,0
79324,-166.666666666666,4,2,1,50,0,0
79491,-166.666666666666,4,2,2,50,0,0
79824,-249.999999999999,4,2,3,50,0,0
80074,-249.999999999999,4,2,99,5,0,0
80158,-249.999999999999,4,2,64,50,0,0
80324,-71.4285714285713,4,2,1,50,0,0
80573,-71.4285714285713,4,2,99,5,0,0
80658,-250,4,2,5,50,0,0
80908,-250,4,2,99,5,0,0
80991,-111.111111111111,4,2,5,50,0,0
81240,-111.111111111111,4,2,99,5,0,0
81324,-166.666666666666,4,2,5,50,0,0
81573,-166.666666666666,4,2,99,5,0,0
81658,-166.666666666666,4,2,5,50,0,0
81991,-166.666666666666,4,2,6,50,0,0
82658,-166.666666666666,4,2,1,50,0,0
82991,-100,4,2,5,50,0,0
84824,-100,4,2,4,50,0,0
84991,-100,4,2,5,50,0,0
85324,-100,4,2,4,50,0,0
85491,-100,4,2,5,50,0,0
85824,-100,4,2,4,50,0,0
85991,-100,4,2,5,50,0,0
86324,-100,4,2,4,50,0,0
86491,-100,4,2,5,50,0,0
86658,-250,4,2,5,50,0,0
86908,-250,4,2,99,5,0,0
86991,-250,4,2,5,40,0,0
87324,-250,4,2,5,50,0,0
87991,-250,4,2,1,40,0,0
88158,-250,4,2,2,40,0,0
88324,-250,4,2,61,50,0,0
88491,-250,4,2,3,50,0,0
88658,-250,4,2,4,50,0,0
89991,-71.4285714285714,4,2,5,70,0,0
90241,-71.4285714285714,4,2,99,5,0,0
90324,-125,4,2,5,70,0,0
90991,-125,4,2,7,70,0,0
91324,-125,4,2,6,70,0,0
91658,-200,4,2,5,70,0,0
91991,-83.3333333333333,4,2,5,70,0,0
92324,-166.666666666667,4,2,7,70,0,0
92574,-166.666666666667,4,2,99,5,0,0
92658,-166.666666666667,4,2,7,70,0,0
92991,-90.9090909090909,4,2,5,70,0,0
93324,-90.9090909090909,4,2,6,70,0,0
93658,-90.9090909090909,4,2,5,70,0,0
93824,-90.909090909091,4,2,7,70,0,0
94158,-90.909090909091,4,2,6,70,0,0
94324,-111.111111111111,4,2,5,70,0,0
95074,-111.111111111111,4,2,5,40,0,0
95324,-111.111111111111,4,2,5,70,0,0
95658,-111.111111111111,4,2,7,70,0,0
95824,-249.999999999999,4,2,7,70,0,0
96074,-249.999999999999,4,2,99,5,0,0
96158,-71.4285714285714,4,2,7,70,0,0
96408,-71.4285714285714,4,2,99,5,0,0
96491,-111.111111111111,4,2,5,70,0,0
96658,-111.111111111111,4,2,6,70,0,0
96991,-111.111111111111,4,2,7,70,0,0
97158,-111.111111111111,4,2,7,70,0,0
97324,-83.3333333333333,4,2,7,70,0,0
97658,-71.4285714285714,4,2,5,70,0,0
97824,-71.4285714285714,4,2,5,70,0,0
98324,-71.4285714285714,4,2,7,70,0,0
98741,-71.4285714285714,4,2,99,5,0,0
98824,-71.4285714285714,4,2,6,70,0,0
98991,-142.857142857143,4,2,5,70,0,0
99241,-142.857142857143,4,2,99,5,0,0
99324,-83.3333333333334,4,2,5,70,0,0
99491,-83.3333333333334,4,2,6,70,0,0
99658,-83.3333333333334,4,2,7,70,0,0
99824,-83.3333333333334,4,2,7,70,0,0
100074,-83.3333333333334,4,2,7,40,0,0
100324,-83.3333333333334,4,2,6,70,0,0
100658,-71.4285714285714,4,2,5,70,0,0
100908,-71.4285714285714,4,2,99,5,0,0
100991,-125,4,2,5,70,0,0
101991,-166.666666666667,4,2,7,70,0,0
102324,-200,4,2,5,70,0,0
102658,-83.3333333333333,4,2,5,70,0,0
102991,-166.666666666667,4,2,7,70,0,0
103324,-166.666666666667,4,2,7,70,0,0
103658,-90.909090909091,4,2,5,70,0,0
104491,-111.111111111111,4,2,7,70,0,0
104991,-111.111111111111,4,2,5,70,0,0
105324,-249.999999999999,4,2,5,70,0,0
105574,-249.999999999999,4,2,99,5,0,0
105658,-249.999999999999,4,2,7,70,0,0
105991,-71.4285714285713,4,2,7,60,0,0
106241,-71.4285714285713,4,2,99,5,0,0
106324,-71.4285714285713,4,2,7,60,0,0
106491,-100,4,2,7,60,0,0
106658,-100,4,2,5,60,0,0
106991,-100,4,2,5,60,0,0
107324,-71.4285714285714,4,2,5,60,0,0
107574,-71.4285714285714,4,2,99,5,0,0
107658,-71.4285714285714,4,2,5,60,0,0
107991,-71.4285714285714,4,2,7,60,0,0
108658,-71.4285714285714,4,2,63,55,0,0
108824,-71.4285714285714,4,2,62,55,0,0
108991,-71.4285714285714,4,2,63,60,0,0
109158,-71.4285714285714,4,2,62,60,0,0
109324,-71.4285714285714,4,2,63,65,0,0
109491,-71.4285714285714,4,2,62,65,0,0
109658,-71.4285714285714,4,2,63,70,0,0
109824,-71.4285714285714,4,2,62,70,0,0
109991,-250,4,2,63,75,0,0
110991,-250,4,2,4,50,0,0
111324,-71.4285714285714,4,2,1,60,0,0
111491,-71.4285714285714,4,2,4,60,0,0
111824,-71.4285714285714,4,2,2,60,0,0
111991,-71.4285714285714,4,2,4,60,0,0
112324,-71.4285714285714,4,2,1,60,0,0
112491,-71.4285714285714,4,2,4,60,0,0
112824,-200,4,2,2,60,0,0
112991,-200,4,2,4,60,0,0
113324,-71.4285714285714,4,2,1,60,0,0
113574,-71.4285714285714,4,2,99,5,0,0
113658,-142.857142857143,4,2,3,60,0,0
113908,-142.857142857143,4,2,99,5,0,0
113991,-142.857142857143,4,2,1,60,0,0
114158,-142.857142857143,4,2,4,60,0,0
114491,-142.857142857143,4,2,2,60,0,0
114658,-142.857142857143,4,2,4,60,0,0
114991,-142.857142857143,4,2,1,60,0,0
115158,-142.857142857143,4,2,4,60,0,0
115491,-142.857142857143,4,2,2,60,0,0
115658,-142.857142857143,4,2,4,60,0,0
115991,-71.4285714285715,4,2,1,60,0,0
116241,-71.4285714285715,4,2,99,5,0,0
116324,-250.000000000001,4,2,2,60,0,0
116574,-250.000000000001,4,2,99,5,0,0
116658,-250.000000000001,4,2,1,60,0,0
116824,-250.000000000001,4,2,4,60,0,0
117158,-250.000000000001,4,2,2,60,0,0
117324,-250.000000000001,4,2,4,60,0,0
117658,-250.000000000001,4,2,1,60,0,0
117824,-250.000000000001,4,2,4,60,0,0
118158,-200,4,2,2,60,0,0
118324,-200,4,2,4,60,0,0
118658,-71.4285714285715,4,2,1,60,0,0
118908,-71.4285714285715,4,2,99,5,0,0
118991,-142.857142857143,4,2,3,60,0,0
119241,-142.857142857143,4,2,99,5,0,0
119324,-142.857142857143,4,2,1,60,0,0
119491,-142.857142857143,4,2,4,60,0,0
119824,-142.857142857143,4,2,2,60,0,0
119991,-142.857142857143,4,2,4,60,0,0
120324,-142.857142857143,4,2,1,60,0,0
120491,-142.857142857143,4,2,4,60,0,0
120824,-142.857142857143,4,2,2,60,0,0
120991,-142.857142857143,4,2,4,60,0,0
121324,-142.857142857143,4,2,3,60,0,0
121658,-142.857142857143,4,2,4,50,0,0
121991,-166.666666666667,4,2,3,60,0,0
122241,-166.666666666667,4,2,99,5,0,0
122324,-83.3333333333333,4,2,3,60,0,0
122574,-83.3333333333333,4,2,99,5,0,0
122658,-83.3333333333333,4,2,4,60,0,0
122824,-83.3333333333333,4,2,1,60,0,0
122991,-83.3333333333333,4,2,2,60,0,0
123074,-83.3333333333333,4,2,99,5,0,0
123158,-83.3333333333333,4,2,2,60,0,0
123241,-83.3333333333333,4,2,99,5,0,0
123324,-83.3333333333334,4,2,4,60,0,0
123491,-83.3333333333334,4,2,1,60,0,0
123658,-142.857142857143,4,2,1,60,0,0
124324,-142.857142857143,4,2,2,60,0,0
124491,-83.3333333333333,4,2,2,60,0,0
124824,-83.3333333333333,4,2,1,60,0,0
124991,-166.666666666667,4,2,1,60,0,0
125241,-166.666666666667,4,2,99,5,0,0
125324,-166.666666666667,4,2,4,60,0,0
125491,-166.666666666667,4,2,1,60,0,0
125658,-166.666666666667,4,2,2,60,0,0
125824,-83.3333333333333,4,2,2,60,0,0
126074,-83.3333333333333,4,2,99,5,0,0
126158,-83.3333333333333,4,2,1,60,0,0
126324,-142.857142857143,4,2,1,60,0,0
126658,-83.3333333333333,4,2,1,60,0,0
126908,-83.3333333333333,4,2,99,5,0,0
126991,-83.3333333333333,4,2,2,60,0,0
127074,-83.3333333333333,4,2,4,60,0,0
127324,-166.666666666667,4,2,1,60,0,0
127574,-166.666666666667,4,2,99,5,0,0
127658,-83.3333333333333,4,2,1,60,0,0
127908,-83.3333333333333,4,2,99,5,0,0
127991,-83.3333333333333,4,2,4,60,0,0
128158,-83.3333333333333,4,2,1,60,0,0
128324,-83.3333333333333,4,2,2,60,0,0
128408,-83.3333333333333,4,2,99,5,0,0
128491,-83.3333333333333,4,2,2,60,0,0
128574,-83.3333333333333,4,2,99,5,0,0
128658,-71.4285714285714,4,2,4,60,0,0
128824,-71.4285714285714,4,2,1,60,0,0
128991,-142.857142857143,4,2,1,60,0,0
129324,-142.857142857143,4,2,1,60,0,0
129658,-333.333333333333,4,2,2,60,0,0
130324,-83.3333333333333,4,2,1,60,0,0
130574,-83.3333333333333,4,2,99,5,0,0
130658,-83.3333333333333,4,2,4,60,0,0
130824,-83.3333333333333,4,2,1,60,0,0
130991,-166.666666666667,4,2,2,60,0,0
131241,-166.666666666667,4,2,99,5,0,0
131324,-166.666666666667,4,2,4,60,0,0
131491,-166.666666666667,4,2,1,60,0,0
131991,-333.333333333334,4,2,1,60,0,0
132241,-333.333333333334,4,2,99,5,0,0
132324,-83.3333333333334,4,2,2,60,0,0
132574,-83.3333333333334,4,2,99,5,0,0
132658,-83.3333333333334,4,2,1,60,0,0
132824,-83.3333333333334,4,2,2,60,0,0
132991,-83.3333333333334,4,2,1,60,0,0
133158,-33.3333333333333,4,2,1,60,0,0
133199,-33.3333333333333,4,2,1,30,0,0
133324,-33.3333333333333,4,2,4,60,0,0
133366,-33.3333333333333,4,2,1,30,0,0
133491,-33.3333333333333,4,2,1,60,0,0
133658,-250.000000000001,4,2,2,60,0,0
133991,-71.4285714285715,4,2,4,60,0,0
134241,-71.4285714285715,4,2,99,5,0,0
134324,-71.4285714285715,4,2,1,60,0,0
134658,-100,4,2,2,60,0,0
134991,-100,4,2,4,60,0,0
135324,-111.111111111111,4,2,42,35,0,0
135491,-111.111111111111,4,2,47,35,0,0
135658,-111.111111111111,4,2,46,35,0,0
135824,-111.111111111111,4,2,42,35,0,0
136074,-111.111111111111,4,2,99,5,0,0
136158,-111.111111111111,4,2,44,35,0,0
136324,-111.111111111111,4,2,42,35,0,0
136491,-111.111111111111,4,2,47,35,0,0
136658,-111.111111111111,4,2,46,35,0,0
136824,-111.111111111111,4,2,42,35,0,0
136991,-111.111111111111,4,2,37,35,0,0
137158,-111.111111111111,4,2,49,35,0,0
137324,-111.111111111111,4,2,44,35,0,0
137491,-111.111111111111,4,2,42,35,0,0
137658,-111.111111111111,4,2,37,35,0,0
137824,-111.111111111111,4,2,42,35,0,0
137991,-111.111111111111,4,2,35,35,0,0
138158,-111.111111111111,4,2,47,35,0,0
138324,-111.111111111111,4,2,46,35,0,0
138491,-111.111111111111,4,2,42,35,0,0
138658,-111.111111111111,4,2,49,35,0,0
138824,-111.111111111111,4,2,44,35,0,0
138991,-111.111111111111,4,2,42,35,0,0
139158,-111.111111111111,4,2,47,35,0,0
139324,-111.111111111111,4,2,46,35,0,0
139491,-111.111111111111,4,2,42,35,0,0
139658,-111.111111111111,4,2,37,35,0,0
139824,-111.111111111111,4,2,49,35,0,0
139991,-111.111111111111,4,2,54,35,0,0
140074,-111.111111111111,4,2,99,5,0,0
140158,-111.111111111111,4,2,49,35,0,0
140241,-111.111111111111,4,2,99,5,0,0
140324,-111.111111111111,4,2,44,35,0,0
140491,-111.111111111111,4,2,42,35,0,0
140658,-111.111111111111,4,2,25,35,0,0
140824,-111.111111111111,4,2,47,35,0,0
140991,-111.111111111111,4,2,46,35,0,0
141158,-111.111111111111,4,2,42,35,0,0
141324,-111.111111111111,4,2,49,35,0,0
141491,-111.111111111111,4,2,44,35,0,0
141658,-111.111111111111,4,2,42,35,0,0
141824,-111.111111111111,4,2,47,35,0,0
141991,-111.111111111111,4,2,46,35,0,0
142158,-111.111111111111,4,2,42,35,0,0
142324,-111.111111111111,4,2,37,35,0,0
142491,-111.111111111111,4,2,49,35,0,0
142658,-111.111111111111,4,2,44,35,0,0
142824,-111.111111111111,4,2,42,35,0,0
142991,-111.111111111111,4,2,37,35,0,0
143158,-111.111111111111,4,2,42,35,0,0
143324,-111.111111111111,4,2,37,35,0,0
143491,-111.111111111111,4,2,47,35,0,0
143658,-111.111111111111,4,2,46,35,0,0
143824,-111.111111111111,4,2,42,35,0,0
143991,-111.111111111111,4,2,49,35,0,0
144158,-111.111111111111,4,2,44,35,0,0
144324,-111.111111111111,4,2,42,35,0,0
144491,-111.111111111111,4,2,47,35,0,0
144658,-111.111111111111,4,2,46,35,0,0
144824,-111.111111111111,4,2,42,35,0,0
144991,-111.111111111111,4,2,37,35,0,0
145158,-111.111111111111,4,2,49,35,0,0
145241,-111.111111111111,4,2,99,5,0,0
145324,-111.111111111111,4,2,54,35,0,0
145408,-111.111111111111,4,2,99,5,0,0
145491,-111.111111111111,4,2,49,35,0,0
145574,-111.111111111111,4,2,99,5,0,0
145658,-111.111111111111,4,2,44,35,0,0
145824,-111.111111111111,4,2,42,35,0,0
145991,-166.666666666666,4,2,5,50,0,0
146241,-166.666666666666,4,2,99,5,0,0
146324,-166.666666666666,4,2,5,50,0,0
146491,-249.999999999999,4,2,5,50,0,0
146741,-249.999999999999,4,2,99,5,0,0
146824,-111.111111111111,4,2,5,50,0,0
147074,-111.111111111111,4,2,99,5,0,0
147158,-111.111111111111,4,2,5,50,0,0
147824,-250.000000000001,4,2,5,50,0,0
148074,-250.000000000001,4,2,99,5,0,0
148158,-250.000000000001,4,2,5,50,0,0
148658,-111.111111111111,4,2,5,50,0,0
148908,-111.111111111111,4,2,99,5,0,0
148991,-111.111111111111,4,2,5,50,0,0
149158,-250.000000000001,4,2,5,50,0,0
149408,-250.000000000001,4,2,99,5,0,0
149491,-250.000000000001,4,2,5,50,0,0
149658,-111.111111111111,4,2,5,50,0,0
150158,-166.666666666666,4,2,5,50,0,0
150991,-166.666666666666,4,2,6,50,0,0
151324,-249.999999999999,4,2,5,50,0,0
151574,-249.999999999999,4,2,99,5,0,0
151658,-249.999999999999,4,2,5,50,0,0
151824,-111.111111111111,4,2,5,50,0,0
152074,-111.111111111111,4,2,99,5,0,0
152158,-111.111111111111,4,2,5,50,0,0
152824,-166.666666666666,4,2,5,50,0,0
153324,-249.999999999999,4,2,5,50,0,0
153574,-249.999999999999,4,2,99,5,0,0
153658,-111.111111111111,4,2,5,50,0,0
155824,-111.111111111111,4,2,6,50,0,0
155991,-111.111111111111,4,2,5,50,0,0
156158,-111.111111111111,4,2,6,50,0,0
156574,-111.111111111111,4,2,5,50,0,0
156658,-100,4,2,1,50,0,0
156824,-100,4,2,2,50,0,0
157158,-250,4,2,3,50,0,0
157408,-250,4,2,99,5,0,0
157491,-250,4,2,64,50,0,0
157658,-83.3333333333333,4,2,1,50,0,0
157908,-83.3333333333333,4,2,99,5,0,0
157991,-250,4,2,5,50,0,0
158241,-250,4,2,99,5,0,0
158324,-111.111111111111,4,2,5,50,0,0
158574,-111.111111111111,4,2,99,5,0,0
158658,-166.666666666666,4,2,5,50,0,0
158908,-166.666666666666,4,2,99,5,0,0
158991,-166.666666666666,4,2,5,50,0,0
159324,-166.666666666666,4,2,1,50,0,0
159491,-166.666666666666,4,2,2,50,0,0
159824,-249.999999999999,4,2,3,50,0,0
160074,-249.999999999999,4,2,99,5,0,0
160158,-249.999999999999,4,2,64,50,0,0
160324,-71.4285714285713,4,2,1,50,0,0
160574,-71.4285714285713,4,2,99,5,0,0
160658,-250,4,2,5,50,0,0
160908,-250,4,2,99,5,0,0
160991,-111.111111111111,4,2,5,50,0,0
161241,-111.111111111111,4,2,99,5,0,0
161324,-166.666666666666,4,2,5,50,0,0
161574,-166.666666666666,4,2,99,5,0,0
161658,-166.666666666666,4,2,5,50,0,0
161991,-166.666666666666,4,2,6,50,0,0
162658,-166.666666666666,4,2,1,50,0,0
162991,-100,4,2,5,50,0,0
164824,-100,4,2,4,50,0,0
164991,-100,4,2,5,50,0,0
165324,-100,4,2,4,50,0,0
165491,-100,4,2,5,50,0,0
165824,-100,4,2,4,50,0,0
165991,-100,4,2,5,50,0,0
166324,-100,4,2,4,50,0,0
166491,-100,4,2,5,50,0,0
166658,-250,4,2,5,50,0,0
166908,-250,4,2,99,5,0,0
166991,-250,4,2,5,40,0,0
167324,-250,4,2,5,50,0,0
167991,-250,4,2,1,40,0,0
168158,-250,4,2,2,40,0,0
168324,-250,4,2,61,50,0,0
168491,-250,4,2,3,50,0,0
168658,-250,4,2,4,50,0,0
169991,-71.4285714285714,4,2,5,70,0,0
170241,-71.4285714285714,4,2,99,5,0,0
170324,-125,4,2,5,70,0,0
170991,-125,4,2,7,70,0,0
171324,-125,4,2,6,70,0,0
171658,-200,4,2,5,70,0,0
171991,-83.3333333333333,4,2,5,70,0,0
172324,-166.666666666667,4,2,7,70,0,0
172574,-166.666666666667,4,2,99,5,0,0
172658,-166.666666666667,4,2,7,70,0,0
172991,-90.9090909090909,4,2,5,70,0,0
173324,-90.9090909090909,4,2,6,70,0,0
173658,-90.9090909090909,4,2,5,70,0,0
173824,-90.909090909091,4,2,7,70,0,0
174158,-90.909090909091,4,2,6,70,0,0
174324,-111.111111111111,4,2,5,70,0,0
175074,-111.111111111111,4,2,5,40,0,0
175324,-111.111111111111,4,2,5,70,0,0
175658,-111.111111111111,4,2,7,70,0,0
175824,-249.999999999999,4,2,7,70,0,0
176074,-249.999999999999,4,2,99,5,0,0
176158,-71.4285714285714,4,2,7,70,0,0
176408,-71.4285714285714,4,2,99,5,0,0
176491,-111.111111111111,4,2,5,70,0,0
176658,-111.111111111111,4,2,6,70,0,0
176991,-111.111111111111,4,2,7,70,0,0
177157,-111.111111111111,4,2,7,70,0,0
177324,-83.3333333333333,4,2,7,70,0,0
177658,-71.4285714285714,4,2,5,70,0,0
177823,-71.4285714285714,4,2,5,70,0,0
178324,-71.4285714285714,4,2,7,70,0,0
178741,-71.4285714285714,4,2,99,5,0,0
178824,-71.4285714285714,4,2,6,70,0,0
178991,-142.857142857143,4,2,5,70,0,0
179241,-142.857142857143,4,2,99,5,0,0
179324,-83.3333333333334,4,2,5,70,0,0
179491,-83.3333333333334,4,2,6,70,0,0
179658,-83.3333333333334,4,2,7,70,0,0
179822,-83.3333333333334,4,2,7,70,0,0
180074,-83.3333333333334,4,2,7,40,0,0
180324,-83.3333333333334,4,2,6,70,0,0
180658,-71.4285714285714,4,2,5,70,0,0
180908,-71.4285714285714,4,2,99,5,0,0
180991,-125,4,2,5,70,0,0
181991,-166.666666666667,4,2,7,70,0,0
182324,-200,4,2,5,70,0,0
182658,-83.3333333333333,4,2,5,70,0,0
182991,-166.666666666667,4,2,7,70,0,0
183324,-166.666666666667,4,2,7,70,0,0
183658,-90.909090909091,4,2,5,70,0,0
184491,-111.111111111111,4,2,7,70,0,0
184991,-111.111111111111,4,2,5,70,0,0
185324,-249.999999999999,4,2,5,70,0,0
185574,-249.999999999999,4,2,99,5,0,0
185658,-249.999999999999,4,2,7,70,0,0
185991,-71.4285714285713,4,2,7,60,0,0
186241,-71.4285714285713,4,2,99,5,0,0
186324,-71.4285714285713,4,2,7,60,0,0
186491,-100,4,2,7,60,0,0
186658,-100,4,2,5,60,0,0
186990,-100,4,2,5,60,0,0
187324,-71.4285714285714,4,2,5,60,0,0
187574,-71.4285714285714,4,2,99,5,0,0
187658,-71.4285714285714,4,2,5,60,0,0
187991,-71.4285714285714,4,2,7,60,0,0
188658,-71.4285714285714,4,2,63,55,0,0
188824,-71.4285714285714,4,2,62,55,0,0
188991,-71.4285714285714,4,2,63,60,0,0
189158,-71.4285714285714,4,2,62,60,0,0
189324,-71.4285714285714,4,2,63,65,0,0
189491,-71.4285714285714,4,2,62,65,0,0
189658,-71.4285714285714,4,2,63,70,0,0
189824,-71.4285714285714,4,2,62,70,0,0
189991,-250,4,2,63,75,0,0
190991,-250,4,2,4,60,0,0
191324,-100,4,2,27,30,0,0
191991,-100,4,2,30,30,0,0
192658,-100,4,2,27,30,0,0
193158,-100,4,2,30,30,0,0
193658,-100,4,2,27,30,0,0
193991,-100,4,2,29,30,0,0
194658,-100,4,2,25,30,0,0
195324,-100,4,2,32,30,0,0
195824,-100,4,2,29,30,0,0
196324,-100,4,2,25,30,0,0
196658,-100,4,2,10,30,0,0
197324,-100,4,2,25,30,0,0
197991,-100,4,2,26,30,0,0
198491,-100,4,2,10,30,0,0
198991,-100,4,2,29,30,0,0
199324,-100,4,2,30,30,0,0
199991,-100,4,2,27,30,0,0
200658,-100,4,2,25,30,0,0
201158,-100,4,2,30,30,0,0
201658,-100,4,2,25,30,0,0
201991,-100,4,2,1,65,0,0
209324,-100,4,2,1,55,0,0
209991,-83.3333333333333,4,2,1,65,0,0
212658,-83.3333333333333,4,2,7,45,0,0
212824,-83.3333333333333,4,2,1,65,0,0
215324,-83.3333333333333,4,2,1,50,0,0
215491,-83.3333333333333,4,2,1,65,0,0
215991,-83.3333333333333,4,2,7,45,0,0
216158,-83.3333333333333,4,2,1,65,0,0
216658,-83.3333333333333,4,2,64,50,0,0
216769,-83.3333333333333,4,2,1,65,0,0
217324,-83.3333333333333,4,2,1,50,0,0
217658,-83.3333333333333,4,2,1,65,0,0
217991,-83.3333333333333,4,2,7,45,0,0
218158,-83.3333333333333,4,2,1,65,0,0
219324,-83.3333333333333,4,2,1,50,0,0
219491,-83.3333333333333,4,2,1,65,0,0
220324,-250,4,2,1,65,0,0
220574,-250,4,2,99,5,0,0
220658,-250,4,2,64,60,0,0
220769,-250,4,2,1,55,0,0
220991,-250,4,2,1,60,0,0
221324,-250,4,2,1,65,0,0
221658,-250,4,2,1,70,0,0
221991,-100,4,2,7,45,0,0
222324,-100,4,2,7,65,0,0
222991,-100,4,2,4,50,0,0
223324,-100,4,2,1,50,0,0
223491,-100,4,2,2,50,0,0
223824,-250,4,2,3,50,0,0
224074,-250,4,2,99,5,0,0
224158,-250,4,2,64,50,0,0
224324,-83.3333333333333,4,2,1,50,0,0
224574,-83.3333333333333,4,2,99,5,0,0
224658,-250,4,2,5,50,0,0
224908,-250,4,2,99,5,0,0
224991,-111.111111111111,4,2,5,50,0,0
225241,-111.111111111111,4,2,99,5,0,0
225324,-166.666666666666,4,2,5,50,0,0
225574,-166.666666666666,4,2,99,5,0,0
225658,-166.666666666666,4,2,5,50,0,0
225991,-166.666666666666,4,2,1,50,0,0
226158,-166.666666666666,4,2,2,50,0,0
226491,-249.999999999999,4,2,3,50,0,0
226741,-249.999999999999,4,2,99,5,0,0
226824,-249.999999999999,4,2,64,50,0,0
226991,-71.4285714285713,4,2,1,50,0,0
227241,-71.4285714285713,4,2,99,5,0,0
227324,-250,4,2,5,50,0,0
227574,-250,4,2,99,5,0,0
227658,-111.111111111111,4,2,5,50,0,0
227908,-111.111111111111,4,2,99,5,0,0
227991,-166.666666666666,4,2,5,50,0,0
228241,-166.666666666666,4,2,99,5,0,0
228324,-166.666666666666,4,2,5,50,0,0
228658,-166.666666666666,4,2,6,50,0,0
229324,-166.666666666666,4,2,1,50,0,0
229658,-100,4,2,5,50,0,0
231491,-100,4,2,4,50,0,0
231658,-100,4,2,5,50,0,0
231991,-100,4,2,4,50,0,0
232158,-100,4,2,5,50,0,0
232491,-100,4,2,4,50,0,0
232658,-100,4,2,5,50,0,0
232991,-100,4,2,4,50,0,0
233158,-100,4,2,5,50,0,0
233324,-250,4,2,5,50,0,0
233574,-250,4,2,99,5,0,0
233658,-250,4,2,5,40,0,0
233991,-250,4,2,5,50,0,0
234658,-250,4,2,1,40,0,0
234824,-250,4,2,2,40,0,0
234991,-250,4,2,61,40,0,0
235158,-250,4,2,3,40,0,0
235324,-250,4,2,4,40,0,0
236658,-250,4,2,18,30,0,0
237991,-250,4,2,17,30,0,0
238491,-250,4,2,13,30,0,0
238991,-250,4,2,37,30,0,0
239324,-250,4,2,13,30,0,0
239991,-250,4,2,13,30,0,0
240658,-250,4,2,14,30,0,0
241158,-250,4,2,22,30,0,0
241658,-250,4,2,20,30,0,0
241991,-250,4,2,18,30,0,0
242658,-250,4,2,27,30,0,0
243324,-250,4,2,11,30,0,0
243824,-250,4,2,23,30,0,0
244658,-250,4,2,8,30,0,0
244991,-250,4,2,20,30,0,0
245324,-250,4,2,23,30,0,0
245658,-100,4,2,1,50,0,0
246741,-250,4,2,1,35,0,0
246991,-250,4,2,4,50,0,0
247324,-71.4285714285714,4,2,5,50,0,0
247574,-71.4285714285714,4,2,99,5,0,0
247658,-125,4,2,5,70,0,0
248658,-166.666666666667,4,2,7,70,0,0
248991,-200,4,2,5,70,0,0
249324,-83.3333333333333,4,2,5,70,0,0
249658,-166.666666666667,4,2,7,70,0,0
249991,-166.666666666667,4,2,7,70,0,0
250324,-90.909090909091,4,2,5,70,0,0
251658,-111.111111111111,4,2,5,70,0,0
251991,-249.999999999999,4,2,5,70,0,0
252241,-249.999999999999,4,2,99,5,0,0
252324,-249.999999999999,4,2,7,70,0,0
252658,-71.4285714285713,4,2,7,60,0,0
252908,-71.4285714285713,4,2,99,5,0,0
252991,-71.4285714285713,4,2,7,60,0,0
253158,-100,4,2,7,60,0,0
253324,-100,4,2,5,60,0,0
253658,-100,4,2,5,60,0,0
253991,-71.4285714285714,4,2,5,60,0,0
254241,-71.4285714285714,4,2,99,5,0,0
254324,-71.4285714285714,4,2,5,60,0,0
254658,-71.4285714285714,4,2,7,50,0,0
255324,-71.4285714285714,4,2,63,60,0,0
255491,-71.4285714285714,4,2,62,60,0,0
255658,-71.4285714285714,4,2,63,60,0,0
255824,-71.4285714285714,4,2,62,60,0,0
255991,-71.4285714285714,4,2,63,60,0,0
256158,-71.4285714285714,4,2,62,60,0,0
256324,-71.4285714285714,4,2,63,60,0,0
256491,-71.4285714285714,4,2,62,60,0,0
256658,-250,4,2,63,60,0,0
257658,-250,4,2,4,60,0,0
257991,-71.4285714285714,4,2,5,70,0,0
258241,-71.4285714285714,4,2,99,5,0,0
258324,-125,4,2,5,70,0,0
258991,-125,4,2,7,70,0,0
259324,-125,4,2,6,70,0,0
259658,-200,4,2,5,70,0,0
259991,-83.3333333333333,4,2,5,70,0,0
260324,-166.666666666667,4,2,7,70,0,0
260574,-166.666666666667,4,2,99,5,0,0
260658,-166.666666666667,4,2,7,70,0,0
260991,-90.9090909090909,4,2,5,70,0,0
261324,-90.9090909090909,4,2,6,70,0,0
261658,-90.9090909090909,4,2,5,70,0,0
261824,-90.909090909091,4,2,7,70,0,0
262158,-90.909090909091,4,2,6,70,0,0
262324,-111.111111111111,4,2,5,70,0,0
263074,-111.111111111111,4,2,5,40,0,0
263324,-111.111111111111,4,2,5,70,0,0
263658,-111.111111111111,4,2,7,70,0,0
263824,-249.999999999999,4,2,7,70,0,0
264074,-249.999999999999,4,2,99,5,0,0
264158,-71.4285714285714,4,2,7,70,0,0
264408,-71.4285714285714,4,2,99,5,0,0
264491,-111.111111111111,4,2,5,70,0,0
264658,-111.111111111111,4,2,6,70,0,0
264991,-111.111111111111,4,2,7,70,0,0
265158,-111.111111111111,4,2,7,70,0,0
265324,-83.3333333333333,4,2,7,70,0,0
265658,-71.4285714285714,4,2,5,70,0,0
265824,-71.4285714285714,4,2,5,70,0,0
266324,-71.4285714285714,4,2,7,70,0,0
266741,-71.4285714285714,4,2,99,5,0,0
266824,-71.4285714285714,4,2,6,70,0,0
266991,-142.857142857143,4,2,5,70,0,0
267241,-142.857142857143,4,2,99,5,0,0
267324,-83.3333333333334,4,2,5,70,0,0
267491,-83.3333333333334,4,2,6,70,0,0
267658,-83.3333333333334,4,2,7,70,0,0
267824,-83.3333333333334,4,2,7,70,0,0
268074,-83.3333333333334,4,2,7,40,0,0
268324,-83.3333333333334,4,2,6,70,0,0
268658,-71.4285714285714,4,2,5,70,0,0
269491,-125,4,2,5,70,0,0
269991,-166.666666666667,4,2,7,70,0,0
270324,-200,4,2,5,70,0,0
270658,-83.3333333333333,4,2,5,70,0,0
270991,-166.666666666667,4,2,7,70,0,0
271324,-166.666666666667,4,2,7,70,0,0
271658,-90.909090909091,4,2,5,70,0,0
272491,-111.111111111111,4,2,7,70,0,0
272991,-111.111111111111,4,2,5,70,0,0
273324,-249.999999999999,4,2,5,70,0,0
273574,-249.999999999999,4,2,99,5,0,0
273658,-249.999999999999,4,2,7,70,0,0
273991,-71.4285714285713,4,2,7,60,0,0
274241,-71.4285714285713,4,2,99,5,0,0
274324,-71.4285714285713,4,2,7,60,0,0
274491,-100,4,2,7,60,0,0
274658,-100,4,2,5,60,0,0
274991,-100,4,2,5,60,0,0
275324,-71.4285714285714,4,2,5,60,0,0
275574,-71.4285714285714,4,2,99,5,0,0
275658,-71.4285714285714,4,2,5,60,0,0
275991,-71.4285714285714,4,2,7,60,0,0
276658,-71.4285714285714,4,2,63,55,0,0
276824,-71.4285714285714,4,2,62,55,0,0
276991,-71.4285714285714,4,2,63,60,0,0
277158,-71.4285714285714,4,2,62,60,0,0
277324,-71.4285714285714,4,2,63,65,0,0
277491,-71.4285714285714,4,2,62,65,0,0
277658,-71.4285714285714,4,2,63,70,0,0
277824,-71.4285714285714,4,2,62,70,0,0
277991,-250,4,2,63,75,0,0
278991,-250,4,2,4,50,0,0
279324,-71.4285714285714,4,2,1,60,0,0
279491,-71.4285714285714,4,2,4,60,0,0
279824,-71.4285714285714,4,2,2,60,0,0
279991,-71.4285714285714,4,2,4,60,0,0
280324,-71.4285714285714,4,2,1,60,0,0
280491,-71.4285714285714,4,2,4,60,0,0
280824,-200,4,2,2,60,0,0
280991,-200,4,2,4,60,0,0
281324,-71.4285714285714,4,2,1,60,0,0
281574,-71.4285714285714,4,2,99,5,0,0
281658,-142.857142857143,4,2,3,60,0,0
281908,-142.857142857143,4,2,99,5,0,0
281991,-142.857142857143,4,2,1,60,0,0
282158,-142.857142857143,4,2,4,60,0,0
282491,-142.857142857143,4,2,2,60,0,0
282658,-142.857142857143,4,2,4,60,0,0
282991,-142.857142857143,4,2,1,60,0,0
283158,-142.857142857143,4,2,4,60,0,0
283491,-142.857142857143,4,2,2,60,0,0
283658,-142.857142857143,4,2,4,60,0,0
283991,-71.4285714285715,4,2,1,60,0,0
284241,-71.4285714285715,4,2,99,5,0,0
284324,-250.000000000001,4,2,2,60,0,0
284574,-250.000000000001,4,2,99,5,0,0
284658,-250.000000000001,4,2,1,60,0,0
284824,-250.000000000001,4,2,4,60,0,0
285158,-250.000000000001,4,2,2,60,0,0
285324,-250.000000000001,4,2,4,60,0,0
285658,-250.000000000001,4,2,1,60,0,0
285824,-250.000000000001,4,2,4,60,0,0
286158,-200,4,2,2,60,0,0
286324,-200,4,2,4,60,0,0
286658,-71.4285714285715,4,2,1,60,0,0
286908,-71.4285714285715,4,2,99,5,0,0
286991,-142.857142857143,4,2,3,60,0,0
287241,-142.857142857143,4,2,99,5,0,0
287324,-142.857142857143,4,2,1,60,0,0
287491,-142.857142857143,4,2,4,60,0,0
287824,-142.857142857143,4,2,2,60,0,0
287991,-142.857142857143,4,2,4,60,0,0
288324,-142.857142857143,4,2,1,60,0,0
288491,-142.857142857143,4,2,4,60,0,0
288824,-142.857142857143,4,2,2,60,0,0
288991,-142.857142857143,4,2,4,60,0,0
289324,-142.857142857143,4,2,3,60,0,0
289658,-142.857142857143,4,2,4,50,0,0
289991,-166.666666666667,4,2,3,60,0,0
290241,-166.666666666667,4,2,99,5,0,0
290324,-83.3333333333333,4,2,3,60,0,0
290574,-83.3333333333333,4,2,99,5,0,0
290658,-83.3333333333333,4,2,4,60,0,0
290824,-83.3333333333333,4,2,1,60,0,0
290991,-83.3333333333333,4,2,2,60,0,0
291074,-83.3333333333333,4,2,99,5,0,0
291158,-83.3333333333333,4,2,2,60,0,0
291241,-83.3333333333333,4,2,99,5,0,0
291324,-71.4285714285714,4,2,4,60,0,0
291491,-71.4285714285714,4,2,1,60,0,0
291658,-142.857142857143,4,2,1,60,0,0
292324,-142.857142857143,4,2,2,60,0,0
292491,-83.3333333333333,4,2,2,60,0,0
292824,-83.3333333333333,4,2,1,60,0,0
292991,-250.000000000001,4,2,1,60,0,0
293241,-250.000000000001,4,2,99,5,0,0
293324,-166.666666666667,4,2,4,60,0,0
293491,-166.666666666667,4,2,1,60,0,0
293658,-166.666666666667,4,2,2,60,0,0
293824,-83.3333333333333,4,2,2,60,0,0
294074,-83.3333333333333,4,2,99,5,0,0
294158,-83.3333333333333,4,2,1,60,0,0
294324,-142.857142857143,4,2,1,60,0,0
294658,-83.3333333333333,4,2,1,60,0,0
294908,-83.3333333333333,4,2,99,5,0,0
294991,-83.3333333333333,4,2,2,60,0,0
295074,-83.3333333333333,4,2,4,60,0,0
295324,-166.666666666667,4,2,1,60,0,0
295574,-166.666666666667,4,2,99,5,0,0
295658,-83.3333333333333,4,2,1,60,0,0
295908,-83.3333333333333,4,2,99,5,0,0
295991,-83.3333333333333,4,2,4,60,0,0
296158,-83.3333333333333,4,2,1,60,0,0
296324,-83.3333333333333,4,2,2,60,0,0
296408,-83.3333333333333,4,2,99,5,0,0
296491,-83.3333333333333,4,2,2,60,0,0
296574,-83.3333333333333,4,2,99,5,0,0
296658,-83.3333333333333,4,2,4,60,0,0
296824,-83.3333333333333,4,2,1,60,0,0
296991,-142.857142857143,4,2,1,60,0,0
297658,-142.857142857143,4,2,2,60,0,0
298324,-83.3333333333333,4,2,1,60,0,0
298574,-83.3333333333333,4,2,99,5,0,0
298658,-83.3333333333333,4,2,4,60,0,0
298824,-83.3333333333333,4,2,1,60,0,0
298991,-166.666666666667,4,2,2,60,0,0
299241,-166.666666666667,4,2,99,5,0,0
299324,-166.666666666667,4,2,4,60,0,0
299491,-142.857142857143,4,2,1,60,0,0
300324,-83.3333333333334,4,2,2,60,0,0
300574,-83.3333333333334,4,2,99,5,0,0
300658,-83.3333333333334,4,2,1,60,0,0
300824,-83.3333333333334,4,2,2,60,0,0
300991,-83.3333333333334,4,2,1,60,0,0
301158,-33.3333333333333,4,2,1,60,0,0
301199,-33.3333333333333,4,2,1,30,0,0
301324,-33.3333333333333,4,2,4,60,0,0
301366,-33.3333333333333,4,2,1,30,0,0
301491,-33.3333333333333,4,2,1,60,0,0
301658,-250.000000000001,4,2,2,60,0,0
301991,-71.4285714285715,4,2,4,60,0,0
302241,-71.4285714285715,4,2,99,5,0,0
302324,-71.4285714285715,4,2,1,60,0,0
302658,-100,4,2,2,60,0,0
302991,-100,4,2,4,60,0,0
303334,352.941176470588,4,2,42,40,1,0
303334,-125,4,2,42,40,0,0
303598,-125,4,2,99,5,0,0
303686,-125,4,2,42,60,0,0
304657,-125,4,2,99,5,0,0
304745,-125,4,2,42,60,0,0
306157,-125,4,2,49,40,0,0
306422,-125,4,2,99,5,0,0
306510,-250,4,2,49,60,0,0
306775,-250,4,2,99,5,0,0
306863,-250,4,2,49,60,0,0
308275,-125,4,2,49,60,0,0
308539,-125,4,2,99,5,0,0
308628,-250,4,2,49,60,0,0
308892,-250,4,2,99,5,0,0
308981,-125,4,2,51,40,0,0
309245,-125,4,2,99,5,0,0
309334,-125,4,2,51,60,0,0
309951,-125,4,2,99,5,0,0
310039,-125,4,2,51,60,0,0
311804,-125,4,2,47,40,0,0
312069,-125,4,2,99,5,0,0
312157,-250,4,2,47,60,0,0
312422,-250,4,2,99,5,0,0
312510,-250,4,2,47,60,0,0
313216,-125,4,2,46,40,0,0
313481,-125,4,2,99,5,0,0
313569,-125,4,2,46,60,0,0
313922,-125,4,2,44,40,0,0
314186,-125,4,2,99,5,0,0
314275,-125,4,2,44,60,0,0
314628,-125,4,2,42,40,0,0
314892,-125,4,2,99,5,0,0
314981,-125,4,2,42,60,0,0
315951,-125,4,2,99,5,0,0
316039,-125,4,2,42,60,0,0
317451,-125,4,2,49,40,0,0
317716,-125,4,2,99,5,0,0
317804,-250,4,2,49,60,0,0
318069,-250,4,2,99,5,0,0
318157,-250,4,2,49,60,0,0
319569,-125,4,2,49,60,0,0
319834,-125,4,2,99,5,0,0
319922,-250,4,2,49,60,0,0
320186,-250,4,2,99,5,0,0
320275,-125,4,2,51,40,0,0
320539,-125,4,2,99,5,0,0
320628,-125,4,2,51,60,0,0
321245,-125,4,2,99,5,0,0
321334,-125,4,2,51,60,0,0
323095,352.941176470588,4,2,47,56,1,0
323095,-125,4,2,47,36,0,0
323359,-125,4,2,99,5,0,0
323447,-250,4,2,47,56,0,0
323712,-250,4,2,99,5,0,0
323800,-250,4,2,47,56,0,0
324506,372.670807453417,4,2,47,54,1,0
324506,-125,4,2,47,54,0,0
324785,-125,4,2,99,5,0,0
324878,-125,4,2,47,54,0,0
325530,-125,4,2,99,5,0,0
325624,-125,4,2,47,54,0,0
325996,400,4,2,46,52,1,0
325996,-125,4,2,46,32,0,0
326296,-125,4,2,99,5,0,0
326396,-125,4,2,46,52,0,0
326788,400,4,2,46,50,1,0
326788,-125,4,2,46,50,0,0
327088,-125,4,2,99,5,0,0
327196,400,4,2,46,48,1,0
327196,-250,4,2,46,48,0,0
327496,-250,4,2,99,5,0,0
327596,413.793103448276,4,2,44,30,1,0
327990,428.571428571429,4,2,44,44,1,0
328411,461.538461538462,4,2,44,42,1,0
328896,545.454545454546,4,2,44,40,1,0
329510,600,4,2,43,30,1,0
337910,-100,4,2,99,5,0,0

[Colours]
Combo1 : 255,215,94
Combo2 : 228,233,238
Combo3 : 193,246,253
Combo4 : 74,165,255

[HitObjects]
480,16,2534,6,0,L|498:72,1,59.9999981689454,4|2,0:2|0:2,0:0:0:0:
423,73,3334,2,0,L|406:119,1,50,2|2,0:2|0:2,0:0:0:0:
352,73,4134,2,0,L|338:34,1,40,2|2,0:2|0:2,0:0:0:0:
423,73,4934,2,0,L|416:92,1,20,2|2,0:2|0:2,0:0:0:0:
32,16,5734,6,0,L|14:72,1,59.9999981689454,4|2,0:2|0:2,0:0:0:0:
89,73,6534,2,0,L|106:119,1,50,2|2,0:2|0:2,0:0:0:0:
160,73,7334,2,0,L|174:34,1,40,2|2,0:2|0:2,0:0:0:0:
89,73,8134,2,0,L|96:92,1,20,2|2,0:2|0:2,0:0:0:0:
98,96,8734,1,2,0:2:0:0:
32,16,8934,5,4,3:2:0:0:
30,105,9334,2,0,L|36:123,1,20,2|2,3:2|0:2,0:0:0:0:
100,95,9734,2,0,L|106:76,3,20,2|2|2|2,3:2|0:2|3:2|0:2,0:0:0:0:
165,38,10534,2,0,L|171:56,3,20,2|2|2|2,3:2|0:2|3:2|0:2,0:0:0:0:
223,102,11334,2,0,L|216:120,3,20,2|2|2|2,3:2|0:2|3:2|0:2,0:0:0:0:
327,49,12134,6,0,L|316:21,3,29.9999990844727,2|2|2|2,3:2|0:2|3:2|0:2,0:0:0:0:
400,77,12934,2,0,L|410:105,3,29.9999990844727,2|2|2|2,3:2|0:2|3:2|0:2,0:0:0:0:
339,126,13734,2,0,L|328:154,3,29.9999990844727,2|2|2|2,3:2|0:2|3:2|0:2,0:0:0:0:
324,47,14534,2,0,L|314:19,3,29.9999990844727,2|2|2|2,3:2|0:2|3:2|0:2,0:0:0:0:
450,31,15334,6,0,L|415:22,1,34.9999989318848,4|2,3:2|0:2,0:0:0:0:
404,93,15734,1,2,3:2:0:0:
406,97,15934,1,2,3:2:0:0:
489,198,16134,1,10,3:3:0:0:
477,124,16334,1,2,0:2:0:0:
406,97,16534,2,0,L|371:90,1,34.9999989318848,2|2,3:2|0:2,0:0:0:0:
289,106,16934,6,0,L|301:140,1,34.9999989318848,2|2,3:2|0:2,0:0:0:0:
380,172,17334,2,0,L|414:178,1,34.9999989318848,2|2,3:2|0:2,0:0:0:0:
512,131,17734,2,0,L|477:124,1,34.9999989318848,10|2,3:3|0:2,0:0:0:0:
371,90,18134,1,2,3:2:0:0:
373,94,18334,1,2,3:2:0:0:
310,217,18534,6,0,L|323:250,1,34.9999989318848,4|2,3:2|0:2,0:0:0:0:
306,326,18934,1,2,3:2:0:0:
366,368,19134,1,2,0:2:0:0:
437,355,19334,2,0,L|471:349,1,34.9999989318848,2|2,3:2|0:2,0:0:0:0:
488,248,19734,2,0,L|454:254,1,34.9999989318848,2|2,3:2|0:2,0:0:0:0:
322,249,20134,5,10,3:3:0:0:
382,207,20334,1,2,0:2:0:0:
366,130,20534,1,2,3:2:0:0:
368,134,20734,1,2,3:2:0:0:
471,68,20934,2,0,L|437:74,1,34.9999989318848,10|2,3:3|0:2,0:0:0:0:
352,40,21334,2,0,L|318:46,1,34.9999989318848,2|2,3:2|0:2,0:0:0:0:
187,47,21734,6,0,L|153:53,1,34.9999989318848,4|2,3:2|0:2,0:0:0:0:
73,68,22134,1,2,3:2:0:0:
75,72,22334,1,2,3:2:0:0:
56,146,22534,1,10,3:3:0:0:
127,129,22734,1,2,0:2:0:0:
189,163,22934,2,0,L|223:157,1,34.9999989318848,2|2,3:2|0:2,0:0:0:0:
215,239,23334,2,0,L|181:246,1,34.9999989318848,2|2,3:2|0:2,0:0:0:0:
176,329,23734,2,0,L|210:322,1,34.9999989318848,2|2,3:2|0:2,0:0:0:0:
104,234,24134,5,10,3:3:0:0:
38,270,24334,1,2,0:2:0:0:
40,343,24534,1,2,3:2:0:0:
43,347,24734,1,2,3:2:0:0:
176,329,24934,6,0,L|210:322,1,34.9999989318848,4|2,3:2|0:2,0:0:0:0:
214,239,25334,2,0,L|180:246,1,34.9999989318848,2|2,3:2|0:2,0:0:0:0:
180,163,25734,2,0,L|214:157,1,34.9999989318848,2|2,3:2|0:2,0:0:0:0:
214,239,26134,2,0,L|180:246,1,34.9999989318848,2|2,3:2|0:2,0:0:0:0:
38,364,26534,6,0,L|72:357,1,34.9999989318848,4|2,3:2|0:2,0:0:0:0:
176,329,26934,2,0,L|210:322,1,34.9999989318848,2|2,0:2|0:2,0:0:0:0:
344,200,27334,5,2,0:2:0:0:
402,245,27534,1,2,0:2:0:0:
409,319,27734,1,2,0:2:0:0:
361,376,27934,1,2,0:2:0:0:
338,227,28134,5,2,0:2:0:0:
381,260,28334,1,2,0:2:0:0:
387,314,28534,1,2,0:2:0:0:
352,355,28734,1,2,0:2:0:0:
335,246,28934,5,2,0:2:0:0:
367,270,29134,1,2,0:2:0:0:
369,310,29334,1,2,0:2:0:0:
346,341,29534,1,2,0:2:0:0:
333,260,29734,5,2,0:2:0:0:
354,278,29934,1,2,0:2:0:0:
358,306,30134,1,2,0:2:0:0:
341,328,30334,1,2,0:2:0:0:
314,294,30534,5,2,0:2:0:0:
456,307,31325,5,14,3:2:0:0:
381,344,31491,1,0,3:0:0:0:
314,294,31658,1,0,3:0:0:0:
265,89,31825,5,8,3:2:0:0:
335,138,31991,1,0,3:0:0:0:
326,221,32158,1,0,3:0:0:0:
172,363,32325,5,8,3:2:0:0:
179,280,32491,1,0,3:0:0:0:
256,248,32658,1,0,3:0:0:0:
407,183,32825,6,0,P|434:189|459:167,2,50,14|0|0,3:2|3:0|3:0,0:0:0:0:
469,251,33325,6,0,B|494:243|490:186|443:167|438:166|434:164|397:152|378:113|403:82,1,209.999993591309,10|0,3:2|0:0,0:0:0:0:
482,31,33658,2,0,B|495:57|483:85|483:85|487:63|465:30,1,104.999996795654,10|0,3:2|0:0,0:0:0:0:
347,45,33991,5,14,3:2:0:0:
267,67,34157,1,0,3:0:0:0:
188,97,34325,1,0,3:0:0:0:
301,305,34491,5,10,3:2:0:0:
317,223,34657,1,0,3:0:0:0:
332,141,34825,1,0,3:0:0:0:
95,134,34991,5,10,3:2:0:0:
158,187,35158,1,0,3:0:0:0:
222,242,35324,1,0,3:0:0:0:
347,45,35491,5,8,3:2:0:0:
267,67,35658,1,0,3:0:0:0:
188,97,35824,1,0,3:0:0:0:
83,282,35991,6,0,P|161:291|153:184,1,209.999993591309,8|0,3:2|0:0,0:0:0:0:
40,228,36324,2,0,P|17:247|12:276,1,60,8|0,3:2|0:0,0:0:0:0:
83,282,36658,5,14,3:2:0:0:
163,313,36824,1,0,3:0:0:0:
226,256,36991,1,0,3:0:0:0:
255,39,37158,5,8,3:2:0:0:
188,93,37324,1,0,3:0:0:0:
205,173,37491,1,0,3:0:0:0:
409,283,37658,5,8,3:2:0:0:
374,204,37824,1,0,3:0:0:0:
288,199,37991,1,0,3:0:0:0:
72,122,38158,6,0,P|43:126|20:158,2,50,10|0|0,3:2|3:0|3:0,0:0:0:0:
61,230,38658,2,0,P|94:134|187:92,1,209.999993591309,10|0,3:2|0:0,0:0:0:0:
276,74,38991,2,0,B|276:49|244:38|244:38|267:60|262:92,1,104.999996795654,10|0,3:2|0:0,0:0:0:0:
319,145,39324,5,14,3:2:0:0:
356,219,39491,1,0,3:0:0:0:
396,292,39658,1,0,3:0:0:0:
171,220,39824,5,10,3:2:0:0:
244,182,39991,1,0,3:0:0:0:
319,145,40158,1,0,3:0:0:0:
248,369,40324,5,10,3:2:0:0:
209,294,40491,1,0,3:0:0:0:
171,220,40658,1,0,3:0:0:0:
4,188,40824,5,10,3:2:0:0:
3,267,40991,1,8,3:3:0:0:
57,302,41158,1,8,3:3:0:0:
101,306,41324,1,0,3:0:0:0:
128,296,41491,1,0,3:0:0:0:
135,282,41658,1,4,3:3:0:0:
135,282,41991,6,0,B|127:250|148:242|148:242|137:263|152:291,1,89.9999972534181,6|0,3:2|0:0,0:0:0:0:
54,311,42324,6,0,P|141:298|222:336,1,179.999994506836,10|0,3:2|0:0,0:0:0:0:
310,355,42658,1,2,3:2:0:0:
313,359,42824,1,2,3:2:0:0:
482,243,42991,6,8,P|453:243|430:262,1,59.9999981689454,10|8,3:2|0:0,0:0:0:0:
375,212,43158,2,0,P|355:233|352:262,1,59.9999981689454,2|0,1:2|0:0,0:0:0:0:
310,355,43324,1,0,3:0:0:0:
313,359,43491,1,0,3:0:0:0:
465,377,43658,6,8,P|479:360|470:310,1,69.9999978637696,8|0,3:2|3:3,0:0:0:0:
512,210,43991,1,2,1:2:0:0:
433,234,44158,1,2,3:2:0:0:
359,193,44324,1,10,3:2:0:0:
454,39,44491,6,0,P|495:129|395:123,1,239.999992675781,2|0,1:2|3:0,0:0:0:0:
241,107,44991,2,0,P|248:148|273:165,1,60,10|0,3:2|0:3,0:0:0:0:
322,106,45324,5,0,3:0:0:0:
325,110,45491,1,2,3:2:0:0:
209,31,45658,1,10,3:2:0:0:
64,118,45824,6,0,B|44:157|75:217|138:194|148:151|94:122|92:147|76:145|59:108,1,179.999994506836,2|0,1:2|0:0,0:0:0:0:
128,63,46158,1,0,3:0:0:0:
0,95,46324,2,0,P|8:71|53:54,1,69.9999978637696,8|0,3:2|3:0,0:0:0:0:
209,31,46658,6,0,P|161:64|137:186,1,179.999994506836,2|0,1:2|0:0,0:0:0:0:
64,238,46991,1,10,3:3:0:0:
47,289,47074,1,0,3:3:0:0:
66,317,47158,1,0,3:3:0:0:
83,320,47241,1,0,3:3:0:0:
151,313,47324,6,0,B|152:339|142:355|142:355|161:342|163:314,1,89.9999972534181,6|0,3:2|0:3,0:3:0:0:
232,290,47658,6,0,P|163:273|139:166,1,179.999994506836,10|0,3:2|0:0,0:3:0:0:
117,82,47991,1,2,3:2:0:0:
120,85,48158,1,2,3:2:0:0:
349,58,48324,6,8,P|320:65|293:52,1,59.9999981689454,10|8,3:2|0:0,0:0:0:0:
254,116,48491,2,0,P|228:99|218:72,1,59.9999981689454,2|0,1:2|0:0,0:0:0:0:
117,82,48658,1,0,3:0:0:0:
120,85,48824,1,0,3:0:0:0:
220,178,48991,6,8,P|246:189|265:182,2,40,10|0|2,3:2|3:0|3:2,0:0:0:0:
322,260,49491,1,2,3:2:0:0:
325,248,49574,1,2,1:2:0:0:
341,217,49658,1,10,3:2:0:0:
382,194,49741,1,2,1:2:0:0:
443,189,49824,1,2,1:2:0:0:
481,28,49991,5,4,3:2:0:0:
484,32,50158,1,0,1:0:0:0:
314,82,50324,2,0,B|326:107|359:127|416:121|430:56|406:17|371:41,1,179.999994506836,10|0,3:2|0:0,0:0:0:0:
312,6,50658,5,0,3:0:0:0:
315,10,50825,1,2,3:2:0:0:
222,120,50991,2,0,B|231:110|245:90|245:90|245:110|270:134,1,89.9999972534181,8|0,3:2|0:0,0:0:0:0:
314,82,51324,5,0,3:0:0:0:
317,86,51491,1,0,3:0:0:0:
348,170,51658,1,10,3:2:0:0:
291,270,51824,1,2,3:2:0:0:
119,346,51991,6,0,P|120:323|135:307,1,44.999998626709,2|0,1:2|0:0,0:0:0:0:
192,354,52324,6,0,P|121:302|115:215,1,179.999994506836,10|0,3:2|0:0,0:0:0:0:
61,166,52658,1,10,3:2:0:0:
188,206,52824,1,2,3:2:0:0:
289,113,52991,5,10,3:2:0:0:
443,53,53158,2,0,B|458:44|458:44|474:54|474:54|458:65|458:65|439:49,8,75.0000028610231,2|0|0|0|0|0|0|0|0,1:2|1:0|1:0|1:0|3:0|1:0|1:0|1:0|3:0,0:0:0:0:
289,113,53658,5,10,3:2:0:0:
141,65,53824,1,2,1:2:0:0:
17,215,53991,6,0,B|-6:169|29:98|103:126|115:176|51:210|49:181|30:183|12:225,1,209.999993591309,2|0,3:2|0:0,0:0:0:0:
81,263,54324,1,10,3:2:0:0:
208,223,54490,1,0,3:0:0:0:
381,294,54658,5,8,3:2:0:0:
441,259,54741,1,0,3:0:0:0:
451,200,54824,1,0,3:0:0:0:
417,162,54908,1,0,3:0:0:0:
384,138,54991,1,8,3:3:0:0:
371,110,55074,1,8,3:3:0:0:
369,89,55158,1,0,3:0:0:0:
380,79,55241,1,0,3:0:0:0:
388,77,55324,6,0,P|363:121|315:128,1,89.9999972534181,2|2,3:2|1:2,0:0:0:0:
256,31,55658,1,2,1:2:0:0:
96,159,55824,2,0,P|158:175|203:128,1,134.999995880127,2|0,1:2|0:0,0:0:0:0:
250,199,56158,2,0,P|252:153|215:134,1,89.9999972534181,2|2,1:2|1:2,0:0:0:0:
96,88,56491,2,0,P|54:89|39:129,1,89.9999972534181,2|2,1:2|1:2,0:0:0:0:
113,82,56824,2,0,P|121:41|88:14,1,89.9999972534181,2|2,1:2|1:2,0:0:0:0:
37,134,57158,2,0,P|40:182|46:229,1,89.9999972534181,2|2,1:2|1:2,0:0:0:0:
56,327,57491,5,2,1:2:0:0:
132,305,57658,1,2,1:2:0:0:
208,283,57824,1,10,1:2:0:0:
394,356,57991,2,0,P|355:330|310:342,1,89.9999972534181,2|2,1:2|1:2,0:0:0:0:
284,261,58324,1,2,1:2:0:0:
409,359,58491,2,0,P|443:329|428:271,1,89.9999972534181,2|2,1:2|1:2,0:0:0:0:
512,192,58824,5,2,1:2:0:0:
441,136,58991,1,2,1:2:0:0:
264,160,59158,6,0,P|287:147|311:145,1,44.999998626709,2|0,1:2|1:2,0:0:0:0:
338,73,59324,2,0,P|360:85|373:105,3,44.999998626709,2|0|2|0,1:2|1:2|1:2|1:2,0:0:0:0:
449,93,59658,6,0,P|449:118|438:139,1,44.999998626709,2|0,1:2|1:2,0:0:0:0:
487,200,59824,2,0,P|465:213|441:214,1,44.999998626709,2|0,1:2|1:2,0:0:0:0:
301,264,59991,6,0,P|299:241|307:221,1,44.999998626709,2|0,1:2|0:0,0:0:0:0:
413,286,60158,2,0,P|393:275|379:258,1,44.999998626709,10|0,1:2|0:0,0:0:0:0:
371,182,60324,5,2,1:2:0:0:
374,186,60491,1,2,1:2:0:0:
316,330,60658,6,0,P|283:300|239:298,1,89.9999972534181,2|2,3:2|1:2,0:0:0:0:
128,349,60991,1,2,1:2:0:0:
55,324,61158,2,0,P|97:310|120:273,1,89.9999972534181,2|2,1:2|1:2,0:0:0:0:
161,139,61491,1,2,1:2:0:0:
219,88,61658,2,0,P|209:131|230:170,2,89.9999972534181,2|2|2,1:2|1:2|1:2,0:0:0:0:
120,272,62158,2,0,P|96:310|55:324,2,89.9999972534181,2|2|2,1:2|1:2|1:2,0:0:0:0:
229,169,62658,6,0,P|208:130|219:88,1,89.9999972534181,2|2,1:2|1:2,0:0:0:0:
241,179,62991,2,0,P|261:217|251:260,1,89.9999972534181,2|10,1:2|1:2,0:0:0:0:
481,362,63324,5,2,1:2:0:0:
406,317,63491,1,2,1:2:0:0:
406,229,63658,1,2,1:2:0:0:
419,218,63824,1,2,1:2:0:0:
481,362,63991,5,2,1:2:0:0:
406,317,64158,1,2,1:2:0:0:
331,360,64324,1,2,1:2:0:0:
169,293,64491,5,2,1:2:0:0:
172,297,64574,1,0,1:2:0:0:
175,301,64658,2,0,P|178:278|190:259,1,44.999998626709,2|0,1:2|1:2,0:0:0:0:
143,199,64824,2,0,P|161:186|183:180,1,44.999998626709,2|0,1:2|1:2,0:0:0:0:
192,104,64991,6,0,P|214:107|233:119,1,44.999998626709,2|0,1:2|1:0,0:0:0:0:
293,71,65158,2,0,P|305:89|311:111,1,44.999998626709,10|0,1:2|0:0,0:0:0:0:
419,218,65324,6,0,P|400:231|378:237,1,44.999998626709,2|0,1:2|0:0,0:0:0:0:
387,118,65491,2,0,P|382:140|371:160,1,44.999998626709,2|0,3:2|0:0,0:0:0:0:
276,222,65658,5,10,1:2:0:0:
276,210,65741,1,8,1:2:0:0:
285,216,65824,1,2,3:2:0:0:
59,260,65991,6,0,P|33:274|25:334,1,89.9999972534181,6|0,3:2|0:0,0:0:0:0:
23,330,66324,1,2,3:2:0:0:
118,223,66491,2,0,P|129:239|128:280,1,60,2|0,1:2|0:0,0:0:0:0:
56,176,66824,2,0,L|189:187,1,134.999995880127,2|0,1:2|0:0,0:0:0:0:
244,124,67158,5,10,1:2:0:0:
247,128,67324,1,0,3:0:0:0:
310,270,67491,1,2,1:2:0:0:
313,274,67657,1,0,3:0:0:0:
303,201,67824,2,0,P|323:199|359:221,1,60,2|0,1:2|0:0,0:0:0:0:
313,274,68158,5,2,1:2:0:0:
370,331,68324,1,2,3:2:0:0:
448,334,68491,1,2,1:2:0:0:
299,269,68658,6,0,L|165:257,1,134.999995880127,2|0,3:2|0:0,0:0:0:0:
162,261,68991,1,2,3:2:0:0:
48,347,69158,2,0,P|66:311|97:304,1,60,2|0,1:2|0:0,0:0:0:0:
92,232,69491,1,2,1:2:0:0:
37,358,69658,2,0,L|216:374,1,179.999994506836,2|0,3:2|3:0,0:0:0:0:
388,350,70158,2,0,L|328:344,1,59.9999981689454,0|0,1:0|3:0,0:0:0:0:
258,307,70491,1,0,1:0:0:0:
216,374,70658,1,0,3:0:0:0:
313,225,70824,5,10,3:3:0:0:
378,209,70991,1,10,3:3:0:0:
414,223,71158,1,2,3:3:0:0:
422,235,71324,2,0,P|438:259|428:288,1,60,6|0,3:2|0:0,0:0:0:0:
429,286,71658,1,2,3:2:0:0:
453,163,71824,2,0,P|366:193|318:147,1,134.999995880127,2|2,1:2|1:2,0:0:0:0:
249,163,72158,1,2,1:2:0:0:
205,36,72324,6,0,P|248:43|269:81,2,89.9999972534181,2|0|0,3:2|1:0|3:0,0:0:0:0:
357,68,72824,2,0,P|391:58|419:73,2,59.9999981689454,2|0|0,1:2|3:0|1:0,0:0:0:0:
503,23,73324,2,0,B|487:28|477:40|477:40|470:23|454:15,1,60,2|0,3:2|0:0,0:0:0:0:
413,67,73658,2,0,P|331:97|236:45,1,179.999994506836,2|0,3:2|3:0,0:0:0:0:
339,134,74158,1,0,1:0:0:0:
336,211,74324,1,0,3:0:0:0:
279,268,74491,1,0,1:0:0:0:
86,206,74658,2,0,P|129:198|165:224,1,89.9999972534181,0|0,3:0|1:0,0:0:0:0:
243,187,74991,5,0,3:0:0:0:
281,276,75158,1,0,1:0:0:0:
285,286,75241,1,0,1:0:0:0:
289,296,75324,5,2,3:2:0:0:
392,352,75491,1,8,3:3:0:0:
489,316,75658,1,2,3:2:0:0:
512,237,75824,1,0,3:0:0:0:
384,92,75991,5,2,3:2:0:0:
499,229,76158,1,8,3:3:0:0:
439,165,76324,1,2,3:2:0:0:
443,158,76408,1,2,3:2:0:0:
447,151,76491,1,2,3:2:0:0:
451,144,76574,1,2,1:2:0:0:
455,137,76658,5,4,3:2:0:0:
384,92,76824,1,6,1:3:0:0:
313,47,76991,1,0,3:0:0:0:
460,195,77158,6,0,P|477:173|466:147,1,60,6|0,1:3|0:0,0:0:0:0:
384,92,77491,1,6,1:3:0:0:
171,227,77658,2,0,B|210:204|203:155|109:131|95:216,1,179.999994506836,6|0,3:3|0:0,0:0:0:0:
54,274,77991,6,0,P|78:259|82:230,1,60,2|0,3:2|0:0,0:0:0:0:
50,287,78324,2,0,P|93:240|64:183,1,134.999995880127,2|0,3:2|0:0,0:0:0:0:
87,85,78658,2,0,B|69:108|46:111|46:111|79:106|98:123,1,89.9999972534181,2|0,3:2|0:0,0:0:0:0:
157,100,78991,5,2,3:2:0:0:
160,104,79158,1,2,1:2:0:0:
228,145,79324,5,2,3:2:0:0:
299,190,79491,1,6,1:3:0:0:
370,235,79658,1,0,3:0:0:0:
228,76,79824,6,0,P|191:79|171:103,1,60,6|0,1:3|0:0,0:0:0:0:
228,145,80158,1,6,1:3:0:0:
441,280,80324,2,0,B|426:330|383:315|337:295|355:241|395:186|442:255|456:235,1,209.999993591309,6|0,3:3|0:0,0:0:0:0:
510,143,80658,6,0,P|477:150|461:189,1,60,2|0,3:2|0:0,0:0:0:0:
512,127,80991,2,0,P|445:128|390:91,1,134.999995880127,2|0,3:2|0:0,0:0:0:0:
301,53,81324,2,0,B|339:31|339:31|318:45|322:82,1,89.9999972534181,2|0,3:2|0:0,0:0:0:0:
390,91,81658,5,2,3:2:0:0:
228,70,81824,1,10,3:3:0:0:
66,49,81991,1,12,3:3:0:0:
66,49,82658,5,0,1:0:0:0:
26,110,82991,2,0,P|46:123|71:121,1,50,2|2,0:2|0:2,0:0:0:0:
95,189,83158,2,0,P|119:183|134:164,1,50,2|2,0:2|0:2,0:0:0:0:
159,53,83324,5,2,3:2:0:0:
151,84,83408,1,2,0:2:0:0:
166,62,83491,5,2,0:2:0:0:
143,74,83574,1,2,0:2:0:0:
165,71,83658,5,2,0:2:0:0:
144,65,83741,1,2,0:2:0:0:
158,75,83824,5,2,0:2:0:0:
150,60,83908,1,2,0:2:0:0:
155,70,83991,5,2,1:2:0:0:
357,70,84324,1,8,3:3:0:0:
256,0,84658,5,8,3:2:0:0:
256,96,84824,1,0,3:0:0:0:
256,192,84991,1,0,3:0:0:0:
464,96,85158,5,8,3:2:0:0:
464,192,85324,1,0,3:0:0:0:
464,288,85491,1,0,3:0:0:0:
256,384,85658,5,10,3:2:0:0:
256,288,85824,1,0,3:0:0:0:
256,192,85991,1,0,3:0:0:0:
48,288,86158,5,10,3:2:0:0:
48,192,86324,1,0,3:0:0:0:
48,96,86491,1,0,3:0:0:0:
256,32,86658,6,0,P|255:64|217:74,1,60,10|0,3:2|0:0,0:0:0:0:
296,87,86991,1,8,1:2:0:0:
303,94,87074,1,8,0:2:0:0:
310,101,87158,1,8,0:2:0:0:
317,108,87241,1,8,0:2:0:0:
324,115,87324,5,0,3:0:0:0:
349,176,87491,1,0,3:0:0:0:
398,118,87658,5,0,3:0:0:0:
436,22,87824,1,0,3:0:0:0:
424,190,87991,5,8,3:2:0:0:
479,331,88158,1,8,3:2:0:0:
278,360,88324,5,8,3:2:0:0:
349,176,88491,1,8,3:2:0:0:
436,22,88658,1,8,3:3:0:0:
436,22,89991,6,0,P|481:87|427:196,1,209.999993591309,6|0,3:2|0:0,0:0:0:0:
426,209,90324,1,10,3:2:0:0:
256,231,90491,2,0,P|286:212|332:240,1,80,2|0,1:2|3:0,0:0:0:0:
445,360,90824,2,0,P|409:337|416:290,1,80,2|8,3:2|3:2,0:0:0:0:
318,313,91158,1,2,1:2:0:0:
230,162,91324,5,0,3:3:0:0:
174,113,91491,1,0,3:3:0:0:
0,270,91658,2,0,P|17:294|52:293,1,50,8|0,3:2|3:0,0:0:0:0:
73,233,91908,1,0,1:0:0:0:
56,232,91991,2,0,P|89:168|68:119,1,119.999996337891,2|0,1:2|3:0,0:0:0:0:
61,366,92324,2,0,P|100:345|157:368,1,89.9999972534181,10|0,3:2|0:0,0:0:0:0:
236,364,92658,5,2,3:2:0:0:
242,352,92824,1,2,3:2:0:0:
412,312,92991,5,10,3:2:0:0:
359,205,93158,2,0,B|340:187|340:187|253:195,1,110.000003356934,2|0,1:2|3:0,0:0:0:0:
409,95,93491,2,0,B|428:112|428:112|515:104,1,110.000003356934,2|8,3:2|3:2,0:0:0:0:
458,24,93824,1,2,1:2:0:0:
453,179,93991,5,0,3:0:0:0:
420,244,94158,1,0,3:0:0:0:
193,182,94324,2,0,P|192:225|225:253,1,89.9999972534181,8|0,3:2|3:0,0:0:0:0:
274,368,94658,1,2,1:2:0:0:
278,351,94741,1,0,1:0:0:0:
282,334,94824,1,0,3:0:0:0:
114,201,94991,5,10,3:2:0:0:
118,218,95074,1,8,3:2:0:0:
122,235,95158,1,8,3:2:0:0:
126,252,95241,1,8,3:2:0:0:
130,269,95324,5,6,3:2:0:0:
152,365,95491,1,2,1:2:0:0:
304,238,95658,5,10,3:2:0:0:
282,334,95824,2,0,P|311:348|343:335,1,60,2|0,1:2|0:0,0:0:0:0:
432,384,96158,2,0,P|368:307|409:216,1,209.999993591309,2|0,3:2|0:0,0:0:0:0:
488,204,96491,1,2,1:2:0:0:
374,136,96658,5,0,3:0:0:0:
310,103,96824,1,0,3:0:0:0:
409,216,96991,5,10,3:2:0:0:
307,260,97158,1,2,3:2:0:0:
149,261,97324,2,0,P|93:223|96:161,1,119.999996337891,0|0,1:0|3:0,0:0:0:0:
88,8,97658,5,10,3:2:0:0:
22,138,97824,1,2,1:2:0:0:
162,150,97991,5,0,3:0:0:0:
195,215,98158,1,2,3:2:0:0:
147,340,98324,5,10,3:2:0:0:
245,144,98491,2,0,P|309:195|441:145,1,209.999993591309,2|0,1:2|0:0,0:0:0:0:
360,234,98824,1,0,3:0:0:0:
246,76,98991,6,0,B|221:72|198:88|198:88|195:63|229:42,1,104.999996795654,10|0,3:2|0:0,0:0:0:0:
308,17,99324,5,2,3:2:0:0:
359,115,99491,1,0,3:0:0:0:
106,151,99658,1,10,3:2:0:0:
190,353,99824,1,2,3:2:0:0:
232,115,99991,5,8,3:2:0:0:
275,161,100074,1,8,3:2:0:0:
274,223,100158,1,8,3:2:0:0:
232,258,100241,1,8,3:2:0:0:
186,246,100324,1,2,3:2:0:0:
193,211,100408,1,0,3:0:0:0:
210,194,100491,1,0,3:0:0:0:
227,187,100574,1,0,3:0:0:0:
241,185,100658,6,0,P|326:236|292:382,1,209.999993591309,6|0,3:2|0:0,0:0:0:0:
321,352,100991,1,10,3:2:0:0:
457,287,101158,2,0,P|429:259|427:220,1,80,2|0,1:2|3:0,0:0:0:0:
276,121,101491,2,0,P|304:92|306:53,1,80,2|8,3:2|3:2,0:0:0:0:
409,110,101824,1,2,1:2:0:0:
314,231,101991,5,0,3:0:0:0:
247,200,102158,1,0,3:0:0:0:
34,202,102324,2,0,P|29:225|45:253,1,50,8|2,3:2|3:2,0:0:0:0:
105,212,102574,1,2,1:2:0:0:
105,193,102658,2,0,P|69:133|13:134,1,119.999996337891,2|0,1:2|3:0,0:0:0:0:
168,288,102991,2,0,B|166:252|166:252|150:271|119:279,1,89.9999972534181,10|0,3:2|1:0,0:0:0:0:
105,193,103324,5,2,3:2:0:0:
111,181,103491,1,2,3:2:0:0:
100,16,103658,5,10,3:2:0:0:
153,123,103824,2,0,B|172:141|172:141|259:133,1,110.000003356934,2|0,1:2|3:0,0:0:0:0:
416,56,104158,2,0,B|397:38|397:38|310:46,1,110.000003356934,2|8,3:2|3:2,0:0:0:0:
478,33,104491,2,0,P|485:75|452:110,1,89.9999972534181,2|0,1:2|3:0,0:0:0:0:
512,360,104824,5,2,3:2:0:0:
394,246,104991,1,10,3:2:0:0:
281,221,105158,1,2,3:2:0:0:
199,238,105324,2,0,P|174:244|149:272,1,60,2|0,1:2|0:0,0:0:0:0:
96,328,105658,1,10,3:2:0:0:
137,349,105741,1,8,3:2:0:0:
183,344,105824,1,8,3:2:0:0:
0,102,105991,6,0,P|84:47|173:92,1,209.999993591309,6|0,3:2|0:0,0:0:0:0:
191,90,106324,1,2,1:2:0:0:
69,164,106491,2,0,P|114:181|162:160,1,100,2|8,3:3|3:2,0:0:0:0:
272,119,106824,1,2,3:2:0:0:
306,187,106991,1,2,1:2:0:0:
407,59,107158,5,2,3:2:0:0:
417,48,107241,1,2,1:2:0:0:
428,37,107324,2,0,P|493:100|406:119,1,209.999993591309,2|0,1:2|0:0,0:0:0:0:
478,174,107658,1,2,1:2:0:0:
438,253,107824,1,2,3:2:0:0:
235,193,107991,5,8,3:2:0:0:
195,272,108157,1,2,3:2:0:0:
259,331,108324,1,2,1:2:0:0:
334,167,108491,1,2,3:2:0:0:
330,153,108574,1,2,1:2:0:0:
326,139,108658,5,2,3:2:0:0:
299,55,108824,1,2,3:2:0:0:
235,193,108991,5,2,3:2:0:0:
191,331,109157,1,2,3:2:0:0:
65,183,109324,5,10,3:2:0:0:
10,10,109491,1,10,3:2:0:0:
217,17,109658,5,10,3:2:0:0:
145,241,109824,1,10,3:2:0:0:
358,345,109991,6,0,B|401:318|393:280|321:224|298:261|295:269|293:273|266:315|211:292,1,240,6|4,3:2|3:3,0:0:0:0:
74,307,111324,5,14,3:2:0:0:
149,344,111491,1,0,3:0:0:0:
216,294,111658,1,0,3:0:0:0:
387,205,111824,5,8,3:2:0:0:
312,168,111991,1,0,3:0:0:0:
245,218,112158,1,0,3:0:0:0:
74,307,112324,5,8,3:2:0:0:
149,344,112491,1,0,3:0:0:0:
216,294,112658,1,0,3:0:0:0:
211,140,112824,6,0,P|221:109|204:84,2,50,10|0|0,3:2|3:0|3:0,0:0:0:0:
143,43,113324,2,0,P|242:73|342:48,1,209.999993591309,10|0,3:2|0:0,0:0:0:0:
410,23,113658,2,0,B|438:42|419:74|419:74|428:45|417:15,1,104.999996795654,10|0,3:2|0:0,0:0:0:0:
360,136,113991,5,14,3:2:0:0:
345,218,114158,1,0,3:0:0:0:
329,300,114324,1,0,3:0:0:0:
144,336,114491,5,10,3:2:0:0:
128,254,114658,1,0,3:0:0:0:
113,172,114824,1,0,3:0:0:0:
360,136,114991,5,10,3:2:0:0:
345,218,115158,1,0,3:0:0:0:
329,300,115324,1,0,3:0:0:0:
144,336,115491,5,8,3:2:0:0:
128,254,115658,1,0,3:0:0:0:
113,172,115824,1,0,3:0:0:0:
313,25,115991,2,0,P|390:36|355:137,1,209.999993591309,8|0,3:2|0:0,0:0:0:0:
257,62,116324,2,0,P|239:37|242:8,1,60,8|0,3:2|0:0,0:0:0:0:
312,24,116658,5,14,3:2:0:0:
381,69,116824,1,0,3:0:0:0:
371,153,116991,1,0,3:0:0:0:
422,364,117158,5,8,3:2:0:0:
353,319,117324,1,0,3:0:0:0:
363,235,117491,1,0,3:0:0:0:
312,24,117658,5,8,3:2:0:0:
381,69,117824,1,0,3:0:0:0:
371,153,117991,1,0,3:0:0:0:
196,89,118158,6,0,P|205:112|226:125,2,50,10|0|0,3:2|3:0|3:0,0:0:0:0:
268,50,118658,2,0,B|237:24|198:44|185:80|184:85|183:89|164:136|106:140|99:116,1,209.999993591309,10|0,3:2|0:0,0:0:0:0:
13,105,118991,2,0,B|13:80|45:69|45:69|22:91|27:123,1,104.999996795654,10|0,3:2|0:0,0:0:0:0:
99,116,119324,5,14,3:2:0:0:
136,190,119491,1,0,3:0:0:0:
176,263,119658,1,0,3:0:0:0:
246,39,119824,5,10,3:2:0:0:
172,76,119991,1,0,3:0:0:0:
99,116,120158,1,0,3:0:0:0:
323,186,120324,5,10,3:2:0:0:
283,113,120491,1,0,3:0:0:0:
246,39,120658,1,0,3:0:0:0:
506,38,120824,5,10,3:2:0:0:
507,117,120991,1,8,3:3:0:0:
453,152,121158,1,8,3:3:0:0:
409,156,121324,1,0,3:0:0:0:
382,146,121491,1,0,3:0:0:0:
375,132,121658,1,4,3:3:0:0:
390,134,121991,6,0,B|384:100|362:95|362:95|375:109|375:140,1,89.9999972534181,6|0,3:2|0:0,0:0:0:0:
439,52,122324,6,0,B|419:23|382:31|364:58|362:63|359:67|334:99|286:90|285:69,1,179.999994506836,10|0,3:2|0:0,0:0:0:0:
199,26,122658,1,2,3:2:0:0:
202,29,122824,1,2,3:2:0:0:
289,171,122991,6,8,P|260:163|243:139,1,59.9999981689454,10|8,3:2|0:2,0:2:0:0:
177,173,123158,2,0,P|163:147|167:118,1,59.9999981689454,2|0,1:2|0:3,0:3:0:0:
199,26,123324,1,0,3:0:0:0:
202,29,123491,1,0,3:0:0:0:
56,39,123658,6,0,P|89:35|112:60,1,69.9999978637696,10|0,3:2|3:0,0:0:0:0:
177,173,123991,1,2,1:2:0:0:
92,169,124158,1,2,3:2:0:0:
34,229,124324,1,10,3:2:0:0:
166,344,124491,6,0,B|117:376|85:335|85:257|168:225|195:279|197:286|200:290|221:326|267:318,1,239.999992675781,2|0,1:2|3:0,0:0:0:0:
393,354,124991,2,0,B|408:340|412:315|412:315|425:342|407:367,1,89.9999972534181,10|0,3:2|0:0,0:0:0:0:
330,296,125324,1,0,3:0:0:0:
333,299,125491,1,2,3:2:0:0:
251,193,125658,1,10,3:2:0:0:
268,17,125824,6,0,B|307:-1|369:27|343:91|302:101|272:46|297:45|295:29|261:14,1,179.999994506836,2|0,1:2|0:0,0:0:0:0:
220,101,126158,1,0,3:0:0:0:
347,125,126324,2,0,P|383:105|379:55,1,69.9999978637696,8|0,3:2|3:0,0:0:0:0:
508,4,126658,6,0,P|460:37|436:159,1,179.999994506836,2|0,1:2|0:0,0:0:0:0:
462,256,126991,1,10,3:2:0:0:
435,304,127074,1,0,3:0:0:0:
401,311,127158,1,0,3:0:0:0:
387,301,127241,1,0,3:0:0:0:
345,248,127324,6,0,B|325:265|321:284|321:284|313:259|340:239,1,89.9999972534181,6|0,3:2|0:0,0:0:0:0:
339,371,127658,6,0,P|299:293|214:273,1,179.999994506836,10|0,3:2|0:0,0:0:0:0:
155,352,127991,1,2,3:2:0:0:
158,355,128158,1,2,3:2:0:0:
5,219,128324,6,8,P|34:227|51:251,1,59.9999981689454,10|8,3:2|0:2,0:2:0:0:
117,217,128491,2,0,P|131:243|127:272,1,59.9999981689454,2|0,1:2|0:3,0:3:0:0:
155,352,128658,1,0,3:0:0:0:
158,355,128824,1,0,3:0:0:0:
203,208,128991,6,0,P|219:239|214:273,2,69.9999978637696,10|0|2,3:2|3:0|1:2,0:2:0:0:
345,216,129491,1,2,3:2:0:0:
360,218,129574,1,2,1:2:0:0:
392,223,129658,1,10,3:2:0:0:
434,247,129741,1,2,1:2:0:0:
495,239,129824,1,2,1:2:0:0:
433,63,129991,5,4,3:2:0:0:
436,66,130158,1,0,1:0:0:0:
283,29,130324,2,0,P|251:77|332:60,1,179.999994506836,10|0,3:2|0:0,0:0:0:0:
433,63,130658,5,0,3:0:0:0:
436,66,130824,1,2,3:2:0:0:
352,194,130991,2,0,B|322:171|322:171|343:166|375:142,1,89.9999972534181,8|0,3:2|0:0,0:0:0:0:
435,193,131324,5,0,3:0:0:0:
438,196,131491,1,0,3:0:0:0:
391,294,131658,1,10,3:2:0:0:
290,351,131824,1,2,3:2:0:0:
103,331,131991,6,0,P|115:311|136:305,1,44.999998626709,2|0,1:2|0:0,0:0:0:0:
53,384,132324,6,0,P|69:298|14:230,1,179.999994506836,10|0,3:2|0:0,0:0:0:0:
135,305,132658,1,10,3:2:0:0:
262,265,132824,1,2,3:2:0:0:
320,138,132991,5,10,3:2:0:0:
474,198,133158,2,0,B|489:207|489:207|505:197|505:197|489:186|489:186|470:202,8,75.0000028610231,2|0|0|0|0|0|0|0|0,1:2|1:0|1:0|1:0|3:0|1:0|1:0|1:0|3:0,0:0:0:0:
320,138,133658,5,10,3:2:0:0:
172,186,133824,1,2,1:2:0:0:
75,356,133991,6,0,B|29:379|-42:344|-14:270|36:258|70:322|41:324|43:343|85:361,1,209.999993591309,2|0,3:2|0:0,0:0:0:0:
115,295,134324,1,10,3:2:0:0:
242,335,134491,1,0,3:0:0:0:
470,260,134658,5,8,3:2:0:0:
433,199,134741,1,0,3:0:0:0:
375,189,134824,1,0,3:0:0:0:
337,223,134908,1,0,3:0:0:0:
337,264,134991,1,8,3:3:0:0:
353,288,135074,1,8,3:3:0:0:
372,295,135158,1,0,3:0:0:0:
380,291,135241,1,0,3:0:0:0:
385,285,135324,6,0,P|337:271|297:300,1,89.9999972534181,2|2,3:2|1:2,0:0:0:0:
190,361,135658,1,2,1:2:0:0:
31,270,135824,2,0,P|94:253|140:298,1,134.999995880127,2|0,1:2|0:0,0:0:0:0:
45,362,136158,2,0,P|17:327|20:283,1,89.9999972534181,2|2,1:2|1:2,0:0:0:0:
64,137,136491,2,0,P|106:137|121:177,1,89.9999972534181,2|2,1:2|1:2,0:0:0:0:
47,139,136824,2,0,P|27:99|53:65,1,89.9999972534181,2|2,1:2|1:2,0:0:0:0:
132,184,137158,2,0,P|180:187|210:217,1,89.9999972534181,2|2,1:2|1:2,0:0:0:0:
225,324,137491,5,2,1:2:0:0:
281,267,137658,1,2,1:2:0:0:
357,245,137824,1,10,1:2:0:0:
436,103,137991,2,0,P|440:147|412:181,1,89.9999972534181,2|2,1:2|1:2,0:0:0:0:
433,263,138324,1,2,1:2:0:0:
427,93,138491,2,0,P|384:78|341:120,1,89.9999972534181,2|2,1:2|1:2,0:0:0:0:
239,181,138824,5,2,1:2:0:0:
183,251,138991,1,2,1:2:0:0:
6,274,139158,6,0,P|31:280|55:276,1,44.999998626709,2|0,1:2|1:0,0:0:0:0:
100,339,139324,2,0,P|118:321|125:299,3,44.999998626709,2|0|2|0,1:2|1:2|1:2|1:2,0:0:0:0:
201,290,139658,6,0,P|196:268|183:251,1,44.999998626709,2|0,1:2|1:2,0:0:0:0:
212,176,139824,2,0,P|187:168|164:173,1,44.999998626709,2|0,1:2|1:0,0:0:0:0:
16,161,139991,6,0,P|21:182|35:200,1,44.999998626709,2|0,1:2|0:0,0:0:0:0:
119,115,140158,2,0,P|103:129|94:150,1,44.999998626709,10|0,1:2|0:0,0:0:0:0:
110,230,140324,5,2,1:2:0:0:
113,233,140491,1,2,1:2:0:0:
87,53,140658,6,0,P|130:43|169:63,1,89.9999972534181,2|2,3:2|1:2,0:0:0:0:
387,125,140991,1,2,1:2:0:0:
425,53,141158,2,0,P|381:43|342:63,1,89.9999972534181,2|2,1:2|1:2,0:0:0:0:
158,172,141491,1,2,1:2:0:0:
113,233,141658,2,0,P|152:253|195:243,2,89.9999972534181,2|2|2,1:2|1:2|1:2,0:0:0:0:
399,232,142158,2,0,P|359:253|316:243,2,89.9999972534181,2|2|2,1:2|1:2|1:2,0:0:0:0:
425,53,142658,6,0,P|381:43|342:63,1,89.9999972534181,2|2,1:2|1:2,0:0:0:0:
438,60,142991,2,0,P|467:92|469:136,1,89.9999972534181,2|10,1:2|1:2,0:0:0:0:
479,268,143324,5,2,1:2:0:0:
399,304,143491,1,2,1:2:0:0:
319,340,143658,1,2,1:2:0:0:
317,357,143824,1,2,1:2:0:0:
479,268,143991,5,2,1:2:0:0:
399,232,144158,1,2,1:2:0:0:
319,196,144324,1,2,1:2:0:0:
192,312,144491,5,2,1:2:0:0:
195,316,144574,1,0,1:2:0:0:
198,320,144658,2,0,P|201:297|194:275,1,44.999998626709,2|0,1:2|1:2,0:0:0:0:
255,231,144824,2,0,P|240:213|221:202,1,44.999998626709,2|0,1:2|1:2,0:0:0:0:
187,131,144991,6,0,P|208:125|230:127,1,44.999998626709,2|0,1:2|1:2,0:0:0:0:
266,62,145158,2,0,P|284:73|298:91,1,44.999998626709,10|0,1:2|0:0,0:0:0:0:
437,146,145324,6,0,P|424:164|406:178,1,44.999998626709,2|0,1:2|0:0,0:0:0:0:
369,68,145491,2,0,P|374:91|370:113,1,44.999998626709,2|0,3:2|0:0,0:0:0:0:
310,190,145658,5,10,3:2:0:0:
310,201,145741,1,8,3:2:0:0:
319,196,145824,1,2,3:2:0:0:
417,322,145991,6,0,P|403:296|343:288,1,89.9999972534181,6|0,3:2|0:0,0:0:0:0:
347,286,146324,1,2,3:2:0:0:
474,362,146491,2,0,P|485:346|477:295,1,60,2|0,1:2|0:0,0:0:0:0:
457,366,146824,2,0,L|324:355,1,134.999995880127,2|0,1:2|0:0,0:0:0:0:
249,286,147158,5,10,1:2:0:0:
252,289,147324,1,0,3:0:0:0:
100,364,147491,1,2,1:2:0:0:
103,367,147658,1,0,3:0:0:0:
151,307,147824,2,0,P|173:326|181:354,1,60,2|0,1:2|0:0,0:0:0:0:
252,289,148158,5,2,1:2:0:0:
259,206,148324,1,2,3:2:0:0:
191,158,148491,1,2,1:2:0:0:
264,297,148658,6,0,L|398:309,1,134.999995880127,2|0,3:2|0:0,0:0:0:0:
398,309,148991,1,2,3:2:0:0:
504,237,149158,2,0,P|486:201|455:194,1,60,2|0,1:2|0:0,0:0:0:0:
387,202,149491,1,2,1:2:0:0:
502,253,149658,2,0,L|323:237,1,179.999994506836,2|0,3:2|3:0,0:0:0:0:
182,291,150158,2,0,L|242:297,1,59.9999981689454,0|0,1:0|3:0,0:0:0:0:
323,237,150491,1,2,1:2:0:0:
314,312,150658,1,2,3:2:0:0:
147,210,150824,5,10,3:3:0:0:
175,151,150991,1,10,3:3:0:0:
211,134,151158,1,2,3:3:0:0:
225,137,151324,2,0,L|295:143,1,60,6|0,3:2|0:3,0:3:0:0:
285,142,151658,1,2,3:3:0:0:
359,232,151824,2,0,L|224:219,1,134.999995880127,2|0,1:2|0:0,0:0:0:0:
140,229,152158,1,2,1:2:0:0:
66,90,152324,6,0,P|53:131|79:167,2,89.9999972534181,2|0|0,3:2|1:0|3:0,0:0:0:0:
88,294,152824,2,0,P|98:328|82:355,2,59.9999981689454,2|0|0,1:2|3:0|1:0,0:0:0:0:
189,378,153324,2,0,B|173:373|163:361|163:361|156:378|140:386,1,60,2|0,3:2|0:0,0:0:0:0:
89,349,153658,2,0,L|268:365,1,179.999994506836,2|0,3:2|3:0,0:0:0:0:
417,311,154158,1,0,1:0:0:0:
414,234,154324,1,0,3:0:0:0:
357,177,154491,1,0,1:0:0:0:
175,180,154658,2,0,L|265:189,1,89.9999972534181,0|0,3:0|1:0,0:0:0:0:
321,258,154991,5,0,3:0:0:0:
261,179,155158,1,0,1:0:0:0:
257,169,155241,1,0,1:0:0:0:
253,159,155324,5,2,3:2:0:0:
248,53,155491,1,8,3:3:0:0:
343,8,155658,1,2,3:2:0:0:
428,27,155824,1,0,3:0:0:0:
496,211,155991,5,2,3:2:0:0:
433,44,156158,1,8,3:3:0:0:
459,127,156324,1,2,3:2:0:0:
456,133,156408,1,2,3:2:0:0:
453,139,156491,1,2,3:2:0:0:
450,145,156574,1,2,1:2:0:0:
447,151,156658,5,4,3:2:0:0:
402,222,156824,1,6,1:3:0:0:
357,293,156991,1,0,3:0:0:0:
447,136,157158,6,0,P|425:118|399:130,1,60,6|0,1:3|0:0,0:0:0:0:
402,222,157491,1,6,1:3:0:0:
174,87,157658,2,0,P|112:58|144:131,1,179.999994506836,6|0,3:3|0:0,0:0:0:0:
228,129,157991,6,0,P|246:106|239:77,1,60,2|0,3:2|0:0,0:0:0:0:
218,141,158324,2,0,P|188:197|231:245,1,134.999995880127,2|0,3:2|0:0,0:0:0:0:
229,324,158658,2,0,B|254:334|274:317|274:317|256:346|219:332,1,89.9999972534181,2|0,3:2|0:0,0:0:0:0:
229,244,158991,5,2,3:2:0:0:
232,247,159158,1,2,1:2:0:0:
268,175,159324,5,2,3:2:0:0:
307,101,159491,1,6,1:3:0:0:
347,27,159658,1,0,3:0:0:0:
213,232,159824,6,0,P|192:212|189:183,1,60,6|0,1:3|0:0,0:0:0:0:
222,103,160158,1,6,1:3:0:0:
337,323,160324,2,0,B|375:377|445:282|334:220|252:295|303:364,1,209.999993591309,6|0,3:3|0:0,0:0:0:0:
150,356,160658,6,0,P|183:349|199:310,1,60,2|0,3:2|0:0,0:0:0:0:
133,351,160991,2,0,P|195:316|221:245,1,134.999995880127,2|0,3:2|0:0,0:0:0:0:
242,184,161324,2,0,B|230:141|230:141|235:166|206:189,1,89.9999972534181,2|0,3:2|0:0,0:0:0:0:
160,137,161658,5,2,3:2:0:0:
322,158,161824,1,10,3:3:0:0:
484,179,161991,1,12,3:3:0:0:
484,179,162658,5,0,1:0:0:0:
423,139,162991,2,0,P|410:159|412:184,1,50,2|2,0:2|0:2,0:0:0:0:
344,208,163158,2,0,P|350:232|369:247,1,50,2|2,0:2|0:2,0:0:0:0:
480,272,163324,5,2,3:2:0:0:
449,264,163408,1,2,0:2:0:0:
471,279,163491,5,2,0:2:0:0:
459,256,163574,1,2,0:2:0:0:
462,278,163658,5,2,0:2:0:0:
468,257,163741,1,2,0:2:0:0:
458,271,163824,5,2,0:2:0:0:
473,263,163908,1,2,0:2:0:0:
463,268,163991,5,2,1:2:0:0:
463,116,164324,1,8,3:3:0:0:
352,48,164658,5,8,3:2:0:0:
256,48,164824,1,0,3:0:0:0:
256,144,164991,1,0,3:0:0:0:
352,336,165158,5,8,3:2:0:0:
256,336,165324,1,0,3:0:0:0:
256,240,165491,1,0,3:0:0:0:
448,144,165658,5,10,3:2:0:0:
448,240,165824,1,0,3:0:0:0:
352,240,165991,1,0,3:0:0:0:
64,144,166158,5,10,3:2:0:0:
64,240,166324,1,0,3:0:0:0:
160,240,166491,1,0,3:0:0:0:
256,48,166658,6,0,P|288:64|295:90,1,60,10|0,3:2|0:0,0:0:0:0:
232,121,166991,1,8,1:2:0:0:
225,128,167074,1,8,0:2:0:0:
218,135,167158,1,8,0:2:0:0:
211,142,167241,1,8,0:2:0:0:
204,149,167324,5,0,3:0:0:0:
179,210,167491,1,0,3:0:0:0:
299,303,167658,5,0,3:0:0:0:
261,207,167824,1,0,3:0:0:0:
137,89,167991,5,8,3:2:0:0:
82,230,168158,1,8,3:2:0:0:
238,374,168324,5,8,3:2:0:0:
167,190,168491,1,8,3:2:0:0:
398,99,168658,1,8,3:3:0:0:
398,99,169991,6,0,P|347:38|227:62,1,209.999993591309,6|0,3:2|0:0,0:0:0:0:
213,59,170324,1,10,3:2:0:0:
105,224,170491,2,0,P|131:199|116:148,1,80,2|0,1:2|3:0,0:0:0:0:
28,7,170824,2,0,P|41:47|88:53,1,80,2|8,3:2|3:2,0:0:0:0:
144,87,171158,1,2,1:2:0:0:
29,220,171324,5,0,3:0:0:0:
62,285,171491,1,0,3:0:0:0:
308,367,171658,2,0,L|298:311,1,50,8|0,3:2|3:0,0:0:0:0:
240,260,171908,1,0,1:0:0:0:
227,275,171991,2,0,P|288:237|357:266,1,119.999996337891,2|0,1:2|3:0,0:0:0:0:
163,243,172324,2,0,B|151:271|156:288|156:288|138:268|121:238,1,89.9999972534181,10|0,3:2|0:0,0:0:0:0:
29,191,172658,5,2,3:2:0:0:
35,179,172824,1,2,3:2:0:0:
40,22,172991,5,10,3:2:0:0:
93,129,173158,2,0,B|112:147|112:147|199:139,1,110.000003356934,2|0,1:2|3:0,0:0:0:0:
402,44,173491,2,0,B|383:61|383:61|296:53,1,110.000003356934,2|8,3:2|3:2,0:0:0:0:
211,50,173824,1,2,1:2:0:0:
229,211,173991,5,0,3:0:0:0:
262,276,174158,1,0,3:0:0:0:
490,270,174324,2,0,P|493:316|446:343,1,89.9999972534181,8|0,3:2|3:0,0:0:0:0:
385,250,174658,1,2,1:2:0:0:
389,233,174741,1,0,1:0:0:0:
393,216,174824,1,0,3:0:0:0:
457,28,174991,5,10,3:2:0:0:
461,45,175074,1,8,3:2:0:0:
465,62,175158,1,8,3:2:0:0:
469,79,175241,1,8,3:2:0:0:
473,96,175324,5,6,3:2:0:0:
495,192,175491,1,2,1:2:0:0:
371,312,175658,5,10,3:2:0:0:
393,216,175824,2,0,P|364:202|332:215,1,60,2|0,1:2|0:0,0:0:0:0:
495,192,176158,2,0,P|434:220|439:357,1,209.999993591309,2|0,3:2|0:0,0:0:0:0:
368,384,176491,1,2,1:2:0:0:
360,281,176658,5,0,3:0:0:0:
393,216,176824,1,0,3:0:0:0:
291,337,176991,5,10,3:2:0:0:
247,235,177158,1,2,3:2:0:0:
77,171,177324,2,0,P|133:209|130:271,1,119.999996337891,0|0,1:0|3:0,0:0:0:0:
1,372,177658,5,10,3:2:0:0:
67,242,177824,1,2,1:2:0:0:
247,235,177991,5,2,3:2:0:0:
214,170,178157,1,0,3:0:0:0:
7,196,178324,5,10,3:2:0:0:
105,0,178491,2,0,P|169:51|301:1,1,209.999993591309,2|0,1:2|0:0,0:0:0:0:
230,99,178824,1,0,3:0:0:0:
31,0,178991,6,0,B|27:25|43:48|43:48|18:51|-3:17,1,104.999996795654,10|0,3:2|0:0,0:0:0:0:
31,132,179324,5,2,3:2:0:0:
137,165,179491,1,0,3:0:0:0:
285,21,179658,1,10,3:2:0:0:
488,104,179824,1,2,3:2:0:0:
284,306,179991,5,8,3:2:0:0:
270,243,180074,1,8,3:2:0:0:
302,190,180158,1,8,3:2:0:0:
355,181,180241,1,8,3:2:0:0:
394,154,180324,1,2,3:2:0:0:
408,122,180408,1,0,3:0:0:0:
404,99,180491,1,0,3:0:0:0:
395,83,180574,1,0,3:0:0:0:
383,73,180658,6,0,P|388:173|280:210,1,209.999993591309,6|0,3:2|0:0,0:0:0:0:
288,225,180991,1,10,3:2:0:0:
375,331,181158,2,0,P|414:331|443:357,1,80,2|0,1:2|3:0,0:0:0:0:
249,299,181491,2,0,P|209:299|180:325,1,80,2|8,3:2|3:2,0:0:0:0:
300,360,181824,1,2,1:2:0:0:
98,312,181991,5,0,3:0:0:0:
67,245,182158,1,0,3:0:0:0:
62,30,182324,2,0,P|84:24|102:39,1,50,8|2,3:2|3:2,0:0:0:0:
161,88,182574,1,2,1:2:0:0:
167,102,182658,2,0,P|223:120|279:102,1,119.999996337891,2|0,1:2|3:0,0:0:0:0:
103,184,182991,2,0,P|80:173|8:202,1,89.9999972534181,10|0,3:2|1:0,0:0:0:0:
61,257,183324,5,2,3:2:0:0:
67,245,183491,1,2,3:2:0:0:
213,184,183658,5,10,3:2:0:0:
266,291,183824,2,0,B|285:309|285:309|372:301,1,110.000003356934,2|0,1:2|3:0,0:0:0:0:
190,342,184158,2,0,B|171:360|171:360|84:352,1,110.000003356934,2|8,3:2|3:2,0:0:0:0:
266,291,184491,2,0,P|303:270|307:226,1,89.9999972534181,2|0,1:2|3:0,0:0:0:0:
512,82,184824,5,2,3:2:0:0:
369,161,184991,1,10,3:2:0:0:
254,156,185158,1,2,3:2:0:0:
179,119,185324,2,0,P|157:106|119:111,1,60,2|0,1:2|0:0,0:0:0:0:
71,165,185658,1,10,3:2:0:0:
49,124,185741,1,8,3:2:0:0:
54,78,185824,1,8,3:2:0:0:
31,356,185991,6,0,P|115:301|204:346,1,209.999993591309,6|0,3:2|0:0,0:0:0:0:
217,344,186324,1,2,1:2:0:0:
311,272,186491,2,0,P|356:289|404:268,1,100,2|8,3:3|3:2,0:0:0:0:
512,350,186824,1,2,3:2:0:0:
478,282,186991,1,2,1:2:0:0:
448,140,187158,1,2,3:2:0:0:
458,129,187241,1,2,1:2:0:0:
469,118,187324,6,0,P|378:119|426:44,1,209.999993591309,2|0,1:2|0:0,0:0:0:0:
358,124,187658,1,2,1:2:0:0:
318,203,187824,1,2,3:2:0:0:
112,123,187991,5,8,3:2:0:0:
72,202,188158,1,2,3:2:0:0:
136,261,188324,1,2,1:2:0:0:
211,97,188491,1,2,3:2:0:0:
215,83,188574,1,2,1:2:0:0:
219,69,188658,5,2,3:2:0:0:
246,153,188824,1,2,3:2:0:0:
102,323,188991,5,2,3:2:0:0:
146,185,189158,1,2,3:2:0:0:
346,121,189324,5,10,3:2:0:0:
401,294,189491,1,10,3:2:0:0:
174,377,189658,5,10,3:2:0:0:
246,153,189824,1,10,3:2:0:0:
493,16,189991,6,0,B|467:18|440:53|464:75|481:106|481:106|443:81|418:112|367:58,1,240,6|4,3:2|3:3,0:0:0:0:
256,48,191324,5,2,3:2:0:0:
201,112,191991,1,2,1:2:0:0:
146,176,192658,1,2,1:2:0:0:
201,112,193158,1,2,1:2:0:0:
201,240,193658,1,2,1:2:0:0:
146,176,193991,5,2,1:2:0:0:
256,304,194658,1,2,1:2:0:0:
311,368,195324,1,2,1:2:0:0:
256,304,195824,1,2,1:2:0:0:
366,304,196324,1,2,1:2:0:0:
311,368,196658,5,2,1:2:0:0:
421,240,197324,1,2,1:2:0:0:
476,176,197991,1,2,1:2:0:0:
421,240,198491,1,2,1:2:0:0:
421,112,198991,1,2,1:2:0:0:
476,176,199324,5,2,1:2:0:0:
366,48,199991,1,2,1:2:0:0:
421,112,200658,1,2,1:2:0:0:
421,112,201158,1,2,1:2:0:0:
366,48,201658,1,2,1:2:0:0:
177,109,201991,5,6,3:2:0:0:
224,299,202158,1,0,3:0:0:0:
365,162,202324,1,0,3:0:0:0:
138,247,202491,5,6,3:2:0:0:
363,262,202658,1,0,3:0:0:0:
264,61,202824,1,0,3:0:0:0:
276,333,202991,5,6,3:2:0:0:
371,100,203158,1,0,3:0:0:0:
119,136,203324,1,0,3:0:0:0:
418,218,203491,5,6,3:2:0:0:
198,33,203658,1,0,3:0:0:0:
149,318,203824,1,0,3:0:0:0:
344,20,203991,5,6,3:2:0:0:
64,198,204158,1,0,3:0:0:0:
358,351,204324,1,0,3:0:0:0:
335,109,204658,5,6,3:2:0:0:
288,299,204824,1,0,3:0:0:0:
147,162,204991,1,0,3:0:0:0:
374,247,205158,5,6,3:2:0:0:
149,262,205324,1,0,3:0:0:0:
248,61,205491,1,0,3:0:0:0:
236,333,205658,5,6,3:2:0:0:
141,100,205824,1,0,3:0:0:0:
393,136,205991,1,0,3:0:0:0:
94,218,206158,5,6,3:2:0:0:
314,33,206324,1,0,3:0:0:0:
363,318,206491,1,0,3:0:0:0:
168,20,206658,5,6,3:2:0:0:
448,198,206824,1,0,3:0:0:0:
154,351,206991,1,0,3:0:0:0:
429,113,207324,5,6,3:2:0:0:
262,209,207491,1,0,3:0:0:0:
98,303,207658,1,0,3:0:0:0:
423,208,207824,5,6,3:2:0:0:
262,209,207991,1,0,3:0:0:0:
103,207,208158,1,0,3:0:0:0:
367,268,208324,5,10,3:2:0:0:
262,209,208491,1,0,3:0:0:0:
159,148,208658,1,0,3:0:0:0:
287,298,208824,5,10,3:2:0:0:
262,209,208991,1,0,3:0:0:0:
239,118,209158,1,0,3:0:0:0:
203,284,209324,5,10,3:2:0:0:
262,209,209491,1,10,3:2:0:0:
287,298,209658,5,10,3:2:0:0:
239,118,209824,1,10,3:2:0:0:
477,268,209991,6,0,B|471:246|454:244|454:244|284:230|284:230|257:219|262:209,1,239.999992675781,4|8,3:2|3:2,0:0:0:0:
155,33,210491,1,0,1:0:0:0:
94,121,210658,5,2,3:2:0:0:
85,135,210824,1,2,3:2:0:0:
0,192,210991,5,10,3:2:0:0:
63,290,211158,1,2,1:2:0:0:
262,208,211324,5,10,3:2:0:0:
361,46,211491,1,2,3:2:0:0:
457,166,211658,5,10,3:2:0:0:
512,257,211824,1,2,3:2:0:0:
325,289,211991,5,10,3:2:0:0:
460,67,212158,1,2,3:2:0:0:
457,166,212324,5,8,3:2:0:0:
448,180,212491,1,2,1:2:0:0:
325,289,212658,5,6,3:3:0:0:
274,227,212824,1,2,3:2:0:0:
141,315,212991,5,10,3:2:0:0:
281,147,213158,2,0,L|401:158,2,119.999996337891,2|0|0,1:2|3:0|3:0,0:0:0:0:
426,43,213658,5,10,3:2:0:0:
435,29,213741,1,2,1:2:0:0:
444,15,213824,1,2,1:2:0:0:
475,122,213991,5,2,3:2:0:0:
484,136,214158,1,2,3:2:0:0:
420,271,214324,5,10,3:2:0:0:
378,335,214491,2,0,B|372:312|355:310|355:310|185:296|185:296|158:285|163:267,1,239.999992675781,2|2,3:2|3:2,0:0:0:0:
286,346,214991,5,2,3:2:0:0:
290,353,215074,1,0,3:0:0:0:
295,360,215158,1,2,3:2:0:0:
131,197,215324,5,6,3:3:0:0:
79,116,215491,2,0,L|199:127,1,119.999996337891,2|8,1:2|3:2,0:0:0:0:
352,0,215824,5,0,1:0:0:0:
284,105,215991,1,6,3:3:0:0:
216,210,216158,1,2,3:2:0:0:
443,160,216324,5,10,3:2:0:0:
423,128,216436,1,2,1:2:0:0:
403,97,216547,1,2,1:2:0:0:
324,42,216658,5,6,3:3:0:0:
304,74,216769,1,2,1:2:0:0:
284,105,216880,1,2,1:2:0:0:
256,192,216991,6,0,L|376:203,1,119.999996337891,8|2,3:2|3:2,0:0:0:0:
512,24,217324,2,0,L|392:13,1,119.999996337891,4|0,1:3|3:0,0:0:0:0:
382,101,217658,5,10,3:2:0:0:
391,115,217824,1,2,1:2:0:0:
375,340,217991,5,6,3:3:0:0:
512,123,218158,1,2,1:2:0:0:
260,19,218324,5,10,3:2:0:0:
376,203,218491,1,2,1:2:0:0:
154,355,218658,5,2,3:2:0:0:
256,192,218824,1,2,3:2:0:0:
56,54,218991,5,10,3:2:0:0:
136,181,219158,1,2,1:2:0:0:
322,296,219324,5,6,3:3:0:0:
256,192,219491,1,2,3:2:0:0:
86,261,219658,5,10,3:2:0:0:
136,181,219824,1,2,3:2:0:0:
291,137,219991,5,2,1:2:0:0:
256,192,220158,1,2,3:2:0:0:
76,175,220324,6,0,L|136:181,1,60,10|0,3:2|0:0,0:0:0:0:
256,192,220658,5,4,3:3:0:0:
256,182,220769,1,2,1:2:0:0:
264,187,220880,1,2,1:2:0:0:
242,187,220991,5,10,3:2:0:0:
267,173,221102,1,2,1:2:0:0:
266,199,221213,1,2,1:2:0:0:
246,165,221324,5,2,3:2:0:0:
283,188,221436,1,2,1:2:0:0:
247,206,221547,1,2,1:2:0:0:
274,157,221658,5,10,3:2:0:0:
273,215,221769,1,2,1:2:0:0:
228,186,221880,1,2,1:2:0:0:
322,110,221991,6,0,L|421:118,1,100,4|0,3:3|3:0,0:0:0:0:
512,248,222324,5,10,3:2:0:0:
375,31,222491,1,2,3:2:0:0:
190,313,222658,5,2,3:2:0:0:
162,243,222741,1,0,3:0:0:0:
197,182,222824,1,0,3:0:0:0:
261,173,222908,1,0,3:0:0:0:
310,206,222991,1,2,3:2:0:0:
315,255,223074,1,0,3:0:0:0:
288,285,223158,1,2,3:2:0:0:
258,284,223241,1,2,3:2:0:0:
245,268,223324,5,4,3:2:0:0:
188,206,223491,1,6,1:3:0:0:
131,145,223658,1,0,3:0:0:0:
149,5,223824,6,0,P|121:14|117:42,1,60,6|0,1:3|0:0,0:0:0:0:
182,71,224158,1,6,1:3:0:0:
11,255,224324,2,0,B|-28:232|-21:183|73:159|87:244,1,179.999994506836,6|0,3:3|0:0,0:0:0:0:
131,300,224658,6,0,P|107:285|103:256,1,60,2|0,3:2|0:0,0:0:0:0:
135,313,224991,2,0,P|182:270|239:299,1,134.999995880127,2|0,3:2|0:0,0:0:0:0:
376,341,225324,2,0,P|333:341|317:302,1,89.9999972534181,2|0,3:2|0:0,0:0:0:0:
238,298,225658,5,2,3:2:0:0:
241,302,225824,1,2,1:2:0:0:
286,231,225991,5,2,3:2:0:0:
331,160,226158,1,6,1:3:0:0:
376,89,226324,1,0,3:0:0:0:
372,307,226491,6,0,P|337:295|308:308,1,60,6|0,1:3|0:0,0:0:0:0:
241,302,226824,1,6,1:3:0:0:
376,89,226991,2,0,B|426:74|411:31|391:-15|337:3|282:43|351:90|331:104,1,209.999993591309,6|0,3:3|0:0,0:0:0:0:
400,150,227324,6,0,P|433:143|449:104,1,60,2|0,3:2|0:0,0:0:0:0:
512,76,227658,2,0,P|475:131|477:198,1,134.999995880127,2|0,3:2|0:0,0:0:0:0:
439,298,227991,2,0,B|417:260|417:260|431:281|468:277,1,89.9999972534181,2|0,3:2|0:0,0:0:0:0:
351,315,228324,5,2,3:2:0:0:
189,294,228491,1,10,3:3:0:0:
27,273,228658,1,12,3:3:0:0:
27,273,229324,5,0,1:0:0:0:
41,344,229658,2,0,P|64:339|80:319,1,50,2|2,0:2|0:2,0:0:0:0:
145,350,229824,2,0,P|157:328|154:304,1,50,2|2,0:2|0:2,0:0:0:0:
95,210,229991,5,2,3:2:0:0:
111,237,230074,1,2,0:2:0:0:
106,211,230158,5,2,0:2:0:0:
98,235,230241,1,2,0:2:0:0:
112,218,230324,5,2,0:2:0:0:
93,229,230408,1,2,0:2:0:0:
110,226,230491,5,2,0:2:0:0:
94,221,230574,1,2,0:2:0:0:
104,224,230658,5,2,1:2:0:0:
408,224,230991,1,8,3:3:0:0:
224,192,231324,5,8,3:2:0:0:
128,191,231491,1,0,3:0:0:0:
32,192,231658,1,0,3:0:0:0:
224,64,231824,5,8,3:2:0:0:
320,63,231991,1,0,3:0:0:0:
416,64,232158,1,0,3:0:0:0:
416,320,232324,5,10,3:2:0:0:
320,321,232491,1,0,3:0:0:0:
224,320,232658,1,0,3:0:0:0:
320,192,232824,5,10,3:2:0:0:
415,192,232991,1,0,3:0:0:0:
512,192,233158,1,0,3:0:0:0:
224,192,233324,6,0,L|160:192,1,60,10|0,3:2|0:0,0:0:0:0:
97,214,233658,1,8,1:2:0:0:
101,222,233741,1,8,0:2:0:0:
106,231,233824,1,8,0:2:0:0:
111,239,233908,1,8,0:2:0:0:
116,248,233991,5,0,3:0:0:0:
141,308,234158,1,0,3:0:0:0:
293,355,234324,5,0,3:0:0:0:
331,259,234491,1,0,3:0:0:0:
175,112,234658,5,8,3:2:0:0:
230,253,234824,1,8,3:2:0:0:
420,341,234991,5,8,3:2:0:0:
491,157,235158,1,8,3:2:0:0:
254,64,235324,1,8,3:3:0:0:
254,64,236658,5,6,3:2:0:0:
176,111,237991,1,2,1:2:0:0:
196,199,238491,1,2,1:2:0:0:
285,207,238991,1,2,1:2:0:0:
320,124,239324,5,2,1:2:0:0:
355,41,239991,1,2,1:2:0:0:
320,124,240658,1,2,1:2:0:0:
285,207,241158,1,2,1:2:0:0:
250,290,241658,1,2,1:2:0:0:
215,373,241991,5,2,1:2:0:0:
250,290,242658,1,2,1:2:0:0:
181,231,243324,1,2,1:2:0:0:
103,278,243824,1,2,1:2:0:0:
181,231,244658,5,2,1:2:0:0:
259,184,244991,1,2,1:2:0:0:
337,137,245324,1,2,1:2:0:0:
415,90,245658,6,0,L|442:87,1,25,2|2,1:2|1:2,0:0:0:0:
422,99,245741,2,0,L|449:96,1,25,2|2,1:2|1:2,0:0:0:0:
429,108,245824,2,0,L|456:105,1,25,2|2,1:2|1:2,0:0:0:0:
436,117,245908,2,0,L|463:114,1,25,2|2,1:2|1:2,0:0:0:0:
443,126,245991,5,0,3:0:0:0:
384,288,246158,1,0,3:0:0:0:
160,160,246324,5,8,3:2:0:0:
240,379,246491,1,0,3:0:0:0:
346,133,246658,5,8,3:2:0:0:
342,68,246741,1,8,3:2:0:0:
298,25,246824,1,8,3:2:0:0:
244,30,246908,1,8,3:2:0:0:
210,65,246991,1,0,3:0:0:0:
177,90,247074,1,0,3:0:0:0:
138,92,247158,1,0,3:0:0:0:
108,80,247241,1,0,3:0:0:0:
95,64,247324,6,0,B|177:37|198:99|200:108|200:117|219:158|303:146,1,209.999993591309,6|0,3:2|0:0,0:0:0:0:
281,157,247658,1,10,3:2:0:0:
419,227,247824,2,0,P|379:229|352:257,1,80,2|0,1:2|3:0,0:0:0:0:
355,59,248158,2,0,P|384:87|423:89,1,80,2|8,3:2|3:2,0:0:0:0:
483,160,248491,1,2,1:2:0:0:
415,298,248658,5,0,3:0:0:0:
348,329,248824,1,0,3:0:0:0:
125,333,248991,2,0,P|137:313|168:304,1,50,8|2,3:2|3:2,0:0:0:0:
216,241,249241,1,2,1:2:0:0:
229,248,249324,2,0,P|161:264|122:224,1,119.999996337891,2|0,1:2|3:0,0:0:0:0:
308,190,249658,2,0,B|296:224|296:224|286:201|259:186,1,89.9999972534181,10|0,3:2|1:0,0:0:0:0:
292,106,249991,5,2,3:2:0:0:
298,94,250158,1,2,3:2:0:0:
155,31,250324,5,10,3:2:0:0:
208,137,250491,2,0,P|163:167|112:151,1,110.000003356934,2|0,1:2|3:0,0:0:0:0:
306,29,250824,2,0,P|353:53|365:105,1,110.000003356934,2|8,3:2|3:2,0:0:0:0:
512,66,251158,2,0,P|473:102|476:156,1,110.000003356934,2|0,1:2|3:0,0:0:0:0:
385,384,251491,5,2,3:2:0:0:
270,265,251658,1,10,3:2:0:0:
246,152,251824,1,2,3:2:0:0:
263,70,251991,2,0,P|269:45|297:20,1,60,2|0,1:2|0:0,0:0:0:0:
401,21,252324,1,10,3:2:0:0:
374,59,252408,1,8,3:2:0:0:
333,77,252491,1,8,3:2:0:0:
23,29,252658,6,0,P|107:84|196:39,1,209.999993591309,6|0,3:2|0:0,0:0:0:0:
211,34,252991,1,2,1:2:0:0:
211,152,253158,2,0,P|194:196|215:244,1,100,2|8,3:3|3:2,0:0:0:0:
347,229,253491,1,2,3:2:0:0:
279,195,253658,1,2,1:2:0:0:
155,304,253824,5,2,3:2:0:0:
145,315,253908,1,2,1:2:0:0:
133,326,253991,2,0,P|53:281|133:241,1,209.999993591309,2|0,1:2|0:0,0:0:0:0:
173,164,254324,5,2,1:2:0:0:
213,243,254491,1,2,3:2:0:0:
406,170,254658,5,8,3:2:0:0:
446,91,254824,1,2,3:2:0:0:
382,32,254991,1,2,1:2:0:0:
225,66,255158,1,2,3:2:0:0:
213,73,255241,1,2,1:2:0:0:
200,80,255324,5,2,3:2:0:0:
173,164,255491,1,2,3:2:0:0:
218,337,255658,5,2,3:2:0:0:
262,199,255824,1,2,3:2:0:0:
98,67,255991,5,10,3:2:0:0:
153,240,256158,1,10,3:2:0:0:
3,384,256324,5,10,3:2:0:0:
75,160,256491,1,10,3:2:0:0:
287,12,256658,6,0,B|315:12|315:12|356:44|331:111|258:108|252:73|249:68|246:62|227:34|189:52,1,240,6|4,3:2|3:3,0:0:0:0:
192,51,257991,6,0,B|110:24|89:86|87:95|87:104|68:145|-16:133,1,209.999993591309,6|0,3:2|0:0,0:0:0:0:
6,146,258324,1,10,3:2:0:0:
162,124,258491,2,0,P|188:149|173:200,1,80,2|0,1:2|3:0,0:0:0:0:
46,329,258824,2,0,P|59:289|106:282,1,80,2|8,3:2|3:2,0:0:0:0:
98,198,259158,1,2,1:2:0:0:
217,310,259324,5,0,3:0:0:0:
282,343,259491,1,0,3:0:0:0:
462,224,259658,2,0,L|412:215,1,50,8|0,3:2|3:0,0:0:0:0:
355,266,259908,1,0,1:0:0:0:
346,252,259991,2,0,P|339:195|375:147,1,119.999996337891,2|0,1:2|3:0,0:0:0:0:
486,330,260324,2,0,P|451:302|400:339,1,89.9999972534181,10|0,3:2|0:0,0:0:0:0:
462,224,260658,5,2,3:2:0:0:
468,212,260824,1,2,3:2:0:0:
345,58,260991,5,10,3:2:0:0:
398,165,261158,2,0,B|379:183|379:183|292:175,1,110.000003356934,2|0,1:2|3:0,0:0:0:0:
81,55,261491,2,0,B|100:72|100:72|187:64,1,110.000003356934,2|8,3:2|3:2,0:0:0:0:
265,95,261824,1,2,1:2:0:0:
326,252,261991,5,0,3:0:0:0:
359,317,262158,1,0,3:0:0:0:
150,367,262324,2,0,P|108:346|108:292,1,89.9999972534181,8|0,3:2|3:0,0:0:0:0:
35,204,262658,5,2,1:2:0:0:
51,213,262741,1,0,1:0:0:0:
66,221,262824,1,0,3:0:0:0:
222,112,262991,5,10,3:2:0:0:
206,120,263074,1,8,3:2:0:0:
191,128,263158,1,8,3:2:0:0:
175,136,263241,1,8,3:2:0:0:
160,145,263324,5,6,3:2:0:0:
138,49,263491,1,2,1:2:0:0:
35,204,263658,5,10,3:2:0:0:
13,300,263824,2,0,P|42:314|74:301,1,60,2|0,1:2|0:0,0:0:0:0:
84,384,264158,2,0,P|142:302|241:319,1,209.999993591309,2|0,3:2|0:0,0:0:0:0:
306,362,264491,1,2,1:2:0:0:
248,230,264658,5,0,3:0:0:0:
215,165,264824,1,0,3:0:0:0:
306,362,264991,5,10,3:2:0:0:
350,260,265158,1,2,3:2:0:0:
497,179,265324,2,0,P|526:239|503:295,1,119.999996337891,0|0,1:0|3:0,0:0:0:0:
373,367,265658,5,10,3:2:0:0:
439,237,265824,1,2,1:2:0:0:
319,174,265991,5,2,3:2:0:0:
286,109,266158,1,0,3:0:0:0:
350,260,266324,5,10,3:2:0:0:
448,64,266491,2,0,P|384:12|252:63,1,209.999993591309,2|0,1:2|0:0,0:3:0:0:
286,109,266824,1,0,3:0:0:0:
439,134,266991,6,0,B|464:138|487:122|487:122|490:147|456:168,1,104.999996795654,10|0,3:2|0:0,0:0:0:0:
492,254,267324,5,2,3:2:0:0:
385,220,267491,1,0,3:0:0:0:
237,364,267658,1,10,3:2:0:0:
34,281,267824,1,2,3:2:0:0:
13,73,267991,5,8,3:2:0:0:
75,59,268074,1,8,3:2:0:0:
128,91,268158,1,8,3:2:0:0:
162,132,268241,1,8,3:2:0:0:
204,153,268324,1,2,3:2:0:0:
211,117,268408,1,0,3:0:0:0:
217,87,268491,1,0,3:0:0:0:
220,63,268574,1,0,3:0:0:0:
224,42,268658,1,0,3:0:0:0:
224,42,269158,5,2,3:2:0:0:
233,54,269241,1,0,3:0:0:0:
241,66,269324,1,4,3:2:0:0:
394,42,269491,2,0,P|354:42|325:68,1,80,2|8,3:2|3:2,0:0:0:0:
281,148,269824,1,2,1:2:0:0:
431,220,269991,5,0,3:0:0:0:
400,287,270158,1,0,3:0:0:0:
173,365,270324,2,0,P|167:343|182:325,1,50,8|2,3:2|3:2,0:0:0:0:
230,265,270574,1,2,1:2:0:0:
244,259,270658,2,0,P|199:233|128:267,1,119.999996337891,2|0,1:2|3:0,0:0:0:0:
348,216,270991,2,0,P|390:203|431:219,1,89.9999972534181,10|0,3:2|1:0,0:0:0:0:
484,295,271324,5,2,3:2:0:0:
478,307,271491,1,2,3:2:0:0:
512,165,271658,5,10,3:2:0:0:
453,59,271824,2,0,B|434:41|434:41|346:49,1,110.000003356934,2|0,1:2|3:0,0:0:0:0:
107,110,272158,2,0,B|126:92|126:92|213:100,1,110.000003356934,2|8,3:2|3:2,0:0:0:0:
63,54,272491,2,0,P|30:81|33:125,1,89.9999972534181,2|0,1:2|3:0,0:0:0:0:
254,19,272824,5,2,3:2:0:0:
354,144,272991,1,10,3:2:0:0:
349,259,273158,1,2,3:2:0:0:
312,334,273324,2,0,P|299:355|257:348,1,60,2|0,1:2|0:0,0:0:0:0:
213,296,273658,1,10,3:2:0:0:
187,334,273741,1,8,3:2:0:0:
188,381,273824,1,8,3:2:0:0:
502,359,273991,6,0,P|447:275|492:186,1,209.999993591309,6|0,3:2|0:0,0:0:0:0:
490,173,274324,1,2,1:2:0:0:
415,241,274491,2,0,P|370:223|325:240,1,100,2|8,3:3|3:2,0:0:0:0:
244,230,274824,1,2,3:2:0:0:
210,162,274991,1,2,1:2:0:0:
68,261,275158,5,2,3:2:0:0:
58,272,275241,1,2,1:2:0:0:
47,283,275324,2,0,P|138:282|90:357,1,209.999993591309,2|0,1:2|0:0,0:0:0:0:
166,319,275658,5,2,1:2:0:0:
206,240,275824,1,2,3:2:0:0:
398,313,275991,5,8,3:2:0:0:
436,233,276158,1,2,3:2:0:0:
374,175,276324,1,2,1:2:0:0:
206,240,276491,1,2,3:2:0:0:
192,244,276574,1,2,1:2:0:0:
178,248,276658,5,2,3:2:0:0:
142,133,276824,1,2,3:2:0:0:
62,39,276991,5,2,3:2:0:0:
18,177,277158,1,2,3:2:0:0:
225,161,277324,5,10,3:2:0:0:
280,334,277491,1,10,3:2:0:0:
436,233,277658,5,10,3:2:0:0:
508,9,277824,1,10,3:2:0:0:
224,10,277991,6,0,B|161:0|129:46|126:70|139:112|161:155|197:124|220:103|212:81,1,240,6|4,3:2|3:3,0:0:0:0:
358,97,279324,5,14,3:2:0:0:
433,60,279491,1,0,3:0:0:0:
500,110,279658,1,0,3:0:0:0:
283,134,279824,5,8,3:2:0:0:
213,85,279991,1,0,3:0:0:0:
221,2,280158,1,0,3:0:0:0:
352,180,280324,5,8,3:2:0:0:
345,263,280491,1,0,3:0:0:0:
268,295,280658,1,0,3:0:0:0:
114,359,280824,6,0,P|92:337|101:311,2,50,10|0|0,3:2|3:0|3:0,0:0:0:0:
5,359,281324,2,0,B|12:383|70:379|89:332|90:328|91:324|104:287|143:268|174:293,1,209.999993591309,10|0,3:2|0:0,0:0:0:0:
199,377,281658,2,0,B|223:365|230:339|230:339|218:357|181:362,1,104.999996795654,10|0,3:2|0:0,0:0:0:0:
174,293,281991,5,14,3:2:0:0:
254,271,282158,1,0,3:0:0:0:
333,241,282324,1,0,3:0:0:0:
300,20,282491,5,10,3:2:0:0:
284,102,282658,1,0,3:0:0:0:
269,184,282824,1,0,3:0:0:0:
477,265,282991,5,10,3:2:0:0:
414,211,283158,1,0,3:0:0:0:
350,157,283324,1,0,3:0:0:0:
174,293,283491,5,8,3:2:0:0:
254,271,283658,1,0,3:0:0:0:
333,241,283824,1,0,3:0:0:0:
367,73,283991,6,0,P|318:11|248:92,1,209.999993591309,8|0,3:2|0:0,0:0:0:0:
155,173,284324,2,0,P|184:176|208:159,1,60,8|0,3:2|0:0,0:0:0:0:
246,86,284658,5,14,3:2:0:0:
199,15,284824,1,0,3:0:0:0:
116,25,284991,1,0,3:0:0:0:
292,155,285158,5,8,3:2:0:0:
377,146,285324,1,0,3:0:0:0:
412,71,285491,1,0,3:0:0:0:
209,160,285658,5,8,3:2:0:0:
174,235,285824,1,0,3:0:0:0:
225,301,285991,1,0,3:0:0:0:
391,291,286158,6,0,P|412:276|443:291,2,50,10|0|0,3:2|3:0|3:0,0:0:0:0:
472,353,286658,2,0,P|380:308|285:344,1,209.999993591309,10|0,3:2|0:0,0:0:0:0:
207,299,286991,2,0,B|189:316|204:347|204:347|203:315|229:296,1,104.999996795654,10|0,3:2|0:0,0:0:0:0:
339,202,287324,5,14,3:2:0:0:
376,276,287491,1,0,3:0:0:0:
416,349,287658,1,0,3:0:0:0:
251,200,287824,5,10,3:2:0:0:
297,130,287991,1,0,3:0:0:0:
340,59,288158,1,0,3:0:0:0:
293,277,288324,5,10,3:2:0:0:
210,273,288491,1,0,3:0:0:0:
127,271,288658,1,0,3:0:0:0:
30,65,288824,5,10,3:2:0:0:
5,139,288991,1,8,3:3:0:0:
49,187,289158,1,8,3:3:0:0:
89,202,289324,1,2,3:2:0:0:
117,198,289491,1,0,3:0:0:0:
130,188,289658,1,4,3:3:0:0:
130,188,289991,6,0,B|128:219|157:220|157:220|158:194|138:184,1,89.9999972534181,6|0,3:2|0:0,0:0:0:0:
49,187,290324,6,0,B|55:207|104:204|121:163|122:160|122:156|134:125|167:108|194:130,1,179.999994506836,10|0,3:2|0:0,0:0:0:0:
279,130,290658,1,2,3:2:0:0:
282,133,290824,1,2,3:2:0:0:
313,305,290991,6,8,P|292:284|289:254,1,59.9999981689454,10|0,3:2|0:0,0:0:0:0:
215,251,291158,2,0,P|215:222|234:199,1,59.9999981689454,2|0,1:2|0:0,0:0:0:0:
279,130,291324,1,0,3:0:0:0:
282,133,291491,1,0,3:0:0:0:
361,254,291658,6,0,P|381:226|413:216,1,69.9999978637696,10|0,3:2|3:0,0:0:0:0:
512,291,291991,1,0,1:0:0:0:
427,288,292158,1,0,3:0:0:0:
367,347,292324,1,10,3:2:0:0:
173,287,292491,6,0,P|241:357|269:262,1,239.999992675781,2|0,1:2|3:3,0:0:0:0:
150,177,292991,2,0,P|171:156|200:150,1,60,10|0,3:2|0:0,0:0:0:0:
208,222,293324,1,0,3:0:0:0:
211,226,293491,1,2,3:2:0:0:
62,186,293658,1,10,3:2:0:0:
16,42,293824,6,0,B|41:5|108:0|119:66|87:97|35:64|55:50|46:37|6:42,1,179.999994506836,2|0,1:2|0:0,0:0:0:0:
0,123,294158,1,0,3:0:0:0:
157,71,294324,2,0,P|145:99|97:124,1,69.9999978637696,8|0,3:2|3:0,0:0:0:0:
108,3,294658,6,0,P|156:36|288:1,1,179.999994506836,2|0,1:2|0:0,0:0:0:0:
379,42,294991,1,10,3:2:0:0:
432,27,295074,1,0,3:0:0:0:
461,45,295158,1,0,3:0:0:0:
464,63,295241,1,0,3:0:0:0:
470,134,295324,6,0,B|444:135|428:125|428:125|434:150|475:143,1,89.9999972534181,6|0,3:2|0:0,0:0:0:0:
464,63,295658,6,0,P|477:147|410:202,1,179.999994506836,10|0,3:2|0:0,0:0:0:0:
360,269,295991,1,2,3:2:0:0:
363,273,296158,1,2,3:2:0:0:
169,345,296324,6,8,P|189:324|219:321,1,59.9999981689454,10|0,3:2|0:0,0:0:0:0:
223,247,296491,2,0,P|251:247|274:266,1,59.9999981689454,2|0,1:2|0:0,0:0:0:0:
360,269,296658,1,0,3:0:0:0:
363,273,296824,1,0,3:0:0:0:
239,179,296991,6,0,P|204:176|177:197,2,69.9999978637696,10|0|2,3:2|3:0|1:2,0:0:0:0:
123,250,297491,1,2,3:2:0:0:
120,238,297574,1,2,1:2:0:0:
104,207,297658,1,10,3:2:0:0:
63,184,297741,1,2,1:2:0:0:
3,204,297824,1,2,1:2:0:0:
0,17,297991,5,4,3:2:0:0:
3,21,298158,1,0,1:0:0:0:
174,53,298324,2,0,P|170:135|112:94,1,179.999994506836,10|0,3:2|0:0,0:0:0:0:
103,28,298658,1,0,3:0:0:0:
106,32,298824,1,0,3:0:0:0:
293,146,298991,2,0,B|284:136|266:115|266:115|270:135|245:159,1,89.9999972534181,8|0,3:2|0:0,0:0:0:0:
163,191,299324,5,0,3:0:0:0:
166,195,299491,1,0,3:0:0:0:
201,277,299658,1,10,3:2:0:0:
312,307,299824,1,2,3:2:0:0:
459,261,299991,2,0,P|487:280|498:313,1,69.9999978637696,2|0,1:2|3:0,0:0:0:0:
486,142,300324,6,0,P|457:224|376:256,1,179.999994506836,10|0,3:2|0:0,0:0:0:0:
312,307,300658,1,10,3:2:0:0:
272,180,300824,1,2,3:2:0:0:
124,132,300991,5,10,3:2:0:0:
64,286,301158,2,0,B|55:301|55:301|65:317|65:317|76:301|76:301|60:282,8,75.0000028610231,2|0|0|0|0|0|0|0|0,1:2|1:0|1:0|1:0|3:0|1:0|1:0|1:0|3:0,0:0:0:0:
124,132,301658,5,10,3:2:0:0:
272,180,301824,1,2,1:2:0:0:
463,172,301991,6,0,B|486:126|451:55|377:83|365:133|429:167|431:138|450:140|468:182,1,209.999993591309,2|0,3:2|0:0,0:0:0:0:
399,220,302324,1,10,3:2:0:0:
272,180,302491,1,0,3:0:0:0:
76,244,302658,5,8,3:2:0:0:
15,208,302741,1,0,3:0:0:0:
6,150,302824,1,0,3:0:0:0:
39,112,302908,1,0,3:0:0:0:
77,100,302991,1,8,3:3:0:0:
98,79,303074,1,8,3:3:0:0:
104,59,303158,1,0,3:0:0:0:
95,46,303241,1,0,3:0:0:0:
85,42,303334,6,0,L|204:49,1,120,4|0,3:2|0:0,0:0:0:0:
236,117,303686,1,0,3:0:0:0:
268,185,303863,1,0,3:0:0:0:
300,253,304039,1,0,3:0:0:0:
300,253,304392,6,0,L|419:260,1,120,0|0,3:0|0:0,0:0:0:0:
451,192,304745,1,0,3:0:0:0:
483,124,305098,1,0,3:0:0:0:
387,328,305451,1,0,3:0:0:0:
483,124,305804,1,0,3:0:0:0:
451,192,305981,1,0,3:0:0:0:
387,328,306157,6,0,L|268:321,1,120,4|0,3:2|0:0,0:0:0:0:
235,252,306510,2,0,L|294:255,1,60,0|0,3:0|0:0,0:0:0:0:
326,187,306863,1,0,3:0:0:0:
267,320,307216,1,0,3:0:0:0:
358,119,307569,1,0,3:0:0:0:
267,320,307922,5,0,3:0:0:0:
295,256,308098,1,0,3:0:0:0:
326,187,308275,2,0,L|207:180,1,120,0|0,3:0|0:0,0:0:0:0:
118,239,308628,2,0,L|177:242,1,60,0|0,3:0|0:0,0:0:0:0:
267,320,308981,6,0,L|148:313,1,120,4|0,3:2|0:0,0:0:0:0:
178,242,309334,1,0,3:0:0:0:
206,179,309510,1,0,3:0:0:0:
234,115,309686,2,0,L|353:122,1,120,0|0,3:0|0:0,0:0:0:0:
381,185,310039,1,0,3:0:0:0:
353,122,310392,5,0,3:0:0:0:
325,59,310745,1,0,3:0:0:0:
409,248,311098,1,0,3:0:0:0:
325,59,311451,1,0,3:0:0:0:
353,122,311628,1,0,3:0:0:0:
408,247,311804,6,0,L|289:240,1,120,4|0,3:2|0:0,0:0:0:0:
252,301,312157,2,0,L|311:304,1,60,0|0,3:0|0:0,0:0:0:0:
288,239,312510,1,0,3:0:0:0:
334,369,312863,1,0,3:0:0:0:
265,174,313216,6,0,L|146:167,1,120,4|0,3:2|0:0,0:0:0:0:
117,229,313569,1,0,3:0:0:0:
89,292,313745,1,0,3:0:0:0:
146,167,313922,6,0,L|265:174,1,120,4|0,3:2|0:0,0:0:0:0:
293,237,314275,1,0,3:0:0:0:
61,355,314628,6,0,L|180:362,1,120,4|0,3:2|0:0,0:0:0:0:
208,299,314981,1,0,3:0:0:0:
236,236,315157,1,0,3:0:0:0:
264,173,315334,1,0,3:0:0:0:
263,172,315686,6,0,L|144:165,1,120,0|0,3:0|0:0,0:0:0:0:
115,227,316039,1,0,3:0:0:0:
87,290,316392,1,0,3:0:0:0:
171,101,316745,1,0,3:0:0:0:
87,290,317098,1,0,3:0:0:0:
115,227,317275,1,0,3:0:0:0:
171,101,317451,6,0,L|290:108,1,120,4|0,3:2|0:0,0:0:0:0:
318,171,317804,2,0,L|377:174,1,60,0|0,3:0|0:0,0:0:0:0:
405,111,318157,1,0,3:0:0:0:
377,174,318510,1,0,3:0:0:0:
321,300,318863,5,0,3:0:0:0:
377,174,319216,1,0,3:0:0:0:
349,237,319392,1,0,3:0:0:0:
321,300,319569,2,0,L|202:293,1,120,0|0,3:0|0:0,0:0:0:0:
173,229,319922,2,0,L|232:232,1,60,0|0,3:0|0:0,0:0:0:0:
321,300,320275,6,0,L|202:293,1,120,4|0,3:2|0:0,0:0:0:0:
173,229,320628,1,0,3:0:0:0:
145,166,320804,1,0,3:0:0:0:
117,103,320981,2,0,L|236:110,1,120,0|0,3:0|0:0,0:0:0:0:
264,173,321334,1,0,3:0:0:0:
208,47,321686,5,0,3:0:0:0:
236,110,322039,1,0,3:0:0:0:
292,236,322392,1,0,3:0:0:0:
208,47,322745,1,0,3:0:0:0:
236,110,322922,1,0,3:0:0:0:
292,236,323095,6,0,L|411:243,1,120,4|0,3:2|0:0,0:0:0:0:
439,180,323447,2,0,L|380:177,1,60,0|0,3:0|0:0,0:0:0:0:
351,113,323800,1,0,3:0:0:0:
323,50,324153,1,0,3:0:0:0:
380,177,324506,6,0,L|261:170,1,120,0|0,3:0|0:0,0:0:0:0:
232,232,324878,1,0,3:0:0:0:
204,295,325065,1,0,3:0:0:0:
176,358,325251,2,0,L|57:351,1,120,0|0,3:0|0:0,0:0:0:0:
84,287,325624,1,0,3:0:0:0:
168,98,325996,6,0,L|287:105,1,120,4|0,3:2|0:0,0:0:0:0:
315,168,326396,1,0,3:0:0:0:
343,231,326596,1,0,3:0:0:0:
259,42,326788,6,0,L|140:35,1,120,0|0,3:0|0:0,0:0:0:0:
111,97,327196,2,0,L|170:100,1,60,0|0,3:0|0:0,0:0:0:0:
198,163,327596,5,4,3:2:0:0:
226,226,327990,5,0,3:0:0:0:
139,34,328411,5,0,3:0:0:0:
198,163,328896,5,0,3:0:0:0:
171,101,329510,5,6,3:2:0:0:
256,192,329660,12,0,337910,0:0:0:0:
