osu file format v14

[General]
AudioFilename: audio.mp3
AudioLeadIn: 0
PreviewTime: 65398
Countdown: 0
SampleSet: Soft
StackLeniency: 0.7
Mode: 0
LetterboxInBreaks: 0
WidescreenStoryboard: 0

[Editor]
DistanceSpacing: 1
BeatDivisor: 4
GridSize: 4
TimelineZoom: 1

[Metadata]
Title:Iro Chigai no Tsubasa
TitleUnicode:色違いの翼
Artist:Aoi(CV: Iguchi Yuka), Hinata(CV: Asumi Kana)
ArtistUnicode:あおい(CV: 井口裕香), ひなた(CV: 阿澄佳奈)
Creator:MoeAsuka
Version:Insane
Source:ヤマノススメ サードシーズン
Tags:
BeatmapID:1824596
BeatmapSetID:872845

[Difficulty]
HPDrainRate:5
CircleSize:4
OverallDifficulty:8.5
ApproachRate:9
SliderMultiplier:1.7
SliderTickRate:1

[Events]
//Background and Video events
Video,0,"video.mp4"
0,0,"bg.jpg",0,0
//Break Periods
//Storyboard Layer 0 (Background)
//Storyboard Layer 1 (Fail)
//Storyboard Layer 2 (Pass)
//Storyboard Layer 3 (Foreground)
//Storyboard Sound Samples

[TimingPoints]
571,344.827586206897,4,2,1,30,1,0
10226,-100,4,2,1,60,0,0
11605,-100,4,2,1,60,0,0
22639,-125,4,2,1,40,0,0
44708,-100,4,2,1,60,0,0
66777,-90.9090909090909,4,2,1,75,0,1
88846,-100,4,2,1,50,0,0

[Colours]
Combo1 : 230,248,7
Combo2 : 128,255,128

[HitObjects]
76,271,571,6,0,P|96:232|97:180,1,85,4|0,0:0|0:0,0:0:0:0:
164,73,915,2,0,P|167:116|194:161,1,85,2|0,0:0|0:0,0:0:0:0:
351,243,1260,1,0,0:0:0:0:
385,88,1433,1,0,0:0:0:0:
294,157,1605,1,2,0:0:0:0:
464,233,1777,2,0,P|496:180|493:126,1,85
308,81,2122,5,0,0:0:0:0:
397,150,2295,1,2,0:0:0:0:
502,72,2467,2,0,P|465:42|405:26,1,85
199,52,2812,1,0,0:0:0:0:
294,157,2984,2,0,P|309:208|290:272,1,85,2|0,0:0|0:0,0:0:0:0:
117,326,3329,6,0,P|137:287|138:235,1,85,4|0,0:0|0:0,0:0:0:0:
205,128,3673,2,0,P|208:171|235:216,1,85,2|0,0:0|0:0,0:0:0:0:
478,257,4019,1,0,0:0:0:0:
314,288,4192,1,0,0:0:0:0:
412,336,4364,1,2,0:0:0:0:
438,152,4536,2,0,P|378:135|327:153,1,85
189,210,4882,5,0,0:0:0:0:
225,307,5054,1,2,0:0:0:0:
291,228,5226,2,0,P|283:168|252:129,1,85
53,133,5571,1,0,0:0:0:0:
213,57,5743,2,0,P|256:41|299:44,1,85,2|0,0:0|0:0,0:0:0:0:
459,156,6088,6,0,L|446:255,1,85,4|0,0:0|0:0,0:0:0:0:
343,357,6433,2,0,P|353:301|351:258,1,85,2|0,0:0|0:0,0:0:0:0:
212,219,6777,1,0,0:0:0:0:
195,375,6950,1,0,0:0:0:0:
269,306,7122,1,2,0:0:0:0:
171,140,7295,2,0,P|127:182|115:230,1,85
289,172,7639,5,0,0:0:0:0:
330,86,7811,1,2,0:0:0:0:
282,6,7983,2,0,P|224:25|192:63,1,85
373,154,8329,1,0,0:0:0:0:
171,140,8502,2,0,P|119:134|61:133,1,85,2|0,0:0|0:0,0:0:0:0:
80,342,8846,6,0,P|81:278|138:308,1,127.5,12|0,0:0|0:0,0:0:0:0:
243,348,9191,2,0,P|313:338|324:261,1,127.5,8|0,0:0|0:0,0:0:0:0:
278,210,9536,5,0,0:0:0:0:
379,123,9708,1,0,0:0:0:0:
261,116,9881,1,2,0:0:0:0:
384,218,10053,1,0,0:0:0:0:
455,36,10226,5,0,0:0:0:0:
233,33,10398,1,0,0:0:0:0:
310,260,10571,1,8,0:0:0:0:
429,126,10743,5,0,0:0:0:0:
197,197,10915,1,0,0:0:0:0:
427,353,11088,1,8,0:0:0:0:
436,359,11605,6,0,L|416:237,1,85,4|0,0:0|0:0,0:0:0:0:
327,87,11950,2,0,L|319:210,1,85,2|0,0:0|0:0,0:0:0:0:
208,338,12295,1,0,0:0:0:0:
363,254,12467,1,0,0:0:0:0:
250,217,12639,1,2,0:0:0:0:
388,340,12812,2,0,P|441:298|453:257,1,85
193,139,13157,5,0,0:0:0:0:
299,122,13329,1,2,0:0:0:0:
394,177,13501,2,0,P|377:235|340:268,1,85
153,234,13846,1,0,0:0:0:0:
263,51,14019,2,0,P|314:44|361:70,1,85,2|0,0:0|0:0,0:0:0:0:
370,258,14364,6,0,L|396:166,1,85,4|0,0:0|0:0,0:0:0:0:
272,273,14708,2,0,L|284:367,1,85,2|0,0:0|0:0,0:0:0:0:
84,238,15053,1,0,0:0:0:0:
258,188,15226,1,0,0:0:0:0:
185,289,15398,1,2,0:0:0:0:
38,144,15571,2,0,P|33:94|49:60,1,85
325,97,15915,5,0,0:0:0:0:
258,188,16088,1,2,0:0:0:0:
184,83,16260,2,0,P|204:41|256:25,1,85
426,211,16605,1,0,0:0:0:0:
340,23,16777,2,0,L|251:14,1,85,2|0,0:0|0:0,0:0:0:0:
104,86,17122,6,0,P|156:72|198:96,1,85,4|0,0:0|0:0,0:0:0:0:
90,230,17467,2,0,P|112:181|158:164,1,85,2|0,0:0|0:0,0:0:0:0:
376,255,17812,1,0,0:0:0:0:
190,286,17984,1,0,0:0:0:0:
269,214,18157,1,2,0:0:0:0:
208,376,18329,2,0,P|157:374|113:339,1,85
174,145,18674,5,0,0:0:0:0:
190,286,18846,1,2,0:0:0:0:
83,155,19019,2,0,P|104:87|132:64,1,85
398,130,19364,1,0,0:0:0:0:
210,42,19536,2,0,L|100:59,1,85,2|0,0:0|0:0,0:0:0:0:
238,193,19881,6,0,L|359:197,1,85,4|0,0:0|0:0,0:0:0:0:
88,278,20226,2,0,L|199:269,1,85,2|0,0:0|0:0,0:0:0:0:
427,310,20571,1,0,0:0:0:0:
365,98,20743,1,0,0:0:0:0:
468,190,20915,1,2,0:0:0:0:
276,76,21088,2,0,P|304:29|354:10,1,85
361,191,21433,5,0,0:0:0:0:
193,140,21605,1,8,0:0:0:0:
309,338,21777,1,0,0:0:0:0:
118,224,21950,5,0,0:0:0:0:
399,167,22122,1,0,0:0:0:0:
105,120,22295,1,8,0:0:0:0:
232,384,22467,1,0,0:0:0:0:
331,313,22639,6,0,P|330:220|224:206,2,204,2|0|0,0:0|0:0|0:0,0:0:0:0:
114,213,24019,2,0,P|92:123|191:83,1,204,2|0,0:0|0:0,0:0:0:0:
211,112,24708,2,0,P|285:129|359:89,1,136
454,191,25398,6,0,P|507:266|430:339,2,204,2|0|0,0:0|0:0|0:0,0:0:0:0:
226,190,26777,2,0,P|318:181|343:285,1,204,2|0,0:0|0:0,0:0:0:0:
317,301,27467,2,0,L|166:293,1,136
42,151,28157,6,0,P|45:58|152:48,2,204,2|0|0,0:0|0:0|0:0,0:0:0:0:
262,119,29537,2,0,P|356:126|385:36,1,204,2|0,0:0|0:0,0:0:0:0:
429,39,30226,2,0,P|411:113|448:186,1,136
384,336,30916,6,0,P|355:245|260:253,1,204,2|0,0:0|0:0,0:0:0:0:
220,245,31605,2,0,P|269:206|281:134,1,136
77,181,32295,2,0,P|28:220|16:292,1,136,2|0,0:0|0:0,0:0:0:0:
47,315,32812,2,0,P|161:287|240:351,1,204
424,352,33674,6,0,P|496:289|464:199,2,204,2|0|0,0:0|0:0|0:0,0:0:0:0:
363,196,35053,2,0,P|286:209|231:153,1,136,2|0,0:0|0:0,0:0:0:0:
239,146,35571,2,0,P|325:100|282:20,1,204
85,107,36433,6,0,P|182:78|196:173,1,204,2|0,0:0|0:0,0:0:0:0:
213,186,37122,2,0,P|215:222|238:270,1,68
365,117,37467,5,2,0:0:0:0:
293,202,37639,1,0,0:0:0:0:
351,265,37812,2,0,P|374:226|368:175,1,68,2|0,0:0|0:0,0:0:0:0:
271,139,38157,2,0,P|279:183|317:218,1,68,2|0,0:0|0:0,0:0:0:0:
347,86,38502,2,0,P|273:48|206:76,1,136
137,214,39191,6,0,L|151:379,2,136,2|0|0,0:0|0:0|0:0,0:0:0:0:
215,150,40226,1,0,0:0:0:0:
303,203,40398,2,0,P|345:211|376:202,2,68
340,131,40915,2,0,P|316:91|316:53,1,68,2|0,0:0|0:0,0:0:0:0:
241,21,41260,2,0,P|182:18|137:54,1,102,2|0,0:0|0:0,0:0:0:0:
125,80,41605,1,0,0:0:0:0:
209,233,41777,1,0,0:0:0:0:
130,307,41950,5,4,0:0:0:0:
289,177,42295,1,2,0:0:0:0:
218,360,42639,1,0,0:0:0:0:
47,160,42984,1,2,0:0:0:0:
119,44,43329,5,2,0:0:0:0:
174,106,43502,1,0,0:0:0:0:
131,184,43674,1,2,0:0:0:0:
288,67,44019,2,0,P|224:61|181:101,1,102,8|0,0:0|0:0,0:0:0:0:
174,106,44364,1,2,0:0:0:0:
361,182,44536,1,0,0:0:0:0:
205,324,44708,5,4,0:0:0:0:
468,45,45053,1,0,0:0:0:0:
292,308,45398,2,0,P|268:222|330:185,1,170,2|0,0:0|0:0,0:0:0:0:
137,120,46088,5,4,0:0:0:0:
458,185,46433,1,0,0:0:0:0:
136,195,46777,2,0,P|66:147|82:68,1,170,2|0,0:0|0:0,0:0:0:0:
311,29,47467,5,4,0:0:0:0:
195,360,47812,1,0,0:0:0:0:
336,108,48157,2,0,B|386:82|394:24|394:24|387:59|410:120,1,170,2|0,0:0|0:0,0:0:0:0:
442,282,48846,5,4,0:0:0:0:
57,234,49191,1,0,0:0:0:0:
377,179,49536,1,2,0:0:0:0:
167,323,50226,6,0,P|179:258|85:284,1,170,4|0,0:0|0:0,0:0:0:0:
52,63,50915,2,0,P|39:105|140:99,1,170,8|0,0:0|0:0,0:0:0:0:
312,95,51605,2,0,B|372:80|413:124|488:99,1,170,2|0,0:0|0:0,0:0:0:0:
270,166,52295,2,0,B|341:186|400:145|431:77,1,170,8|0,0:0|0:0,0:0:0:0:
226,91,52984,6,0,P|187:178|232:243,1,170,4|0,0:0|0:0,0:0:0:0:
299,295,53502,2,0,L|385:283,2,85,2|0|0,0:0|0:0|0:0,0:0:0:0:
189,338,54019,2,0,L|74:321,3,85,2|0|0|0,0:0|0:0|0:0|0:0,0:0:0:0:
37,232,54708,2,0,P|76:195|85:141,1,85,2|0,0:0|0:0,0:0:0:0:
141,57,55053,2,0,P|156:95|189:122,1,85
319,121,55398,2,0,L|429:107,1,85,2|0,0:0|0:0,0:0:0:0:
499,181,55743,5,4,0:0:0:0:
218,359,56088,1,0,0:0:0:0:
330,32,56433,2,0,P|407:34|383:121,1,170,2|0,0:0|0:0,0:0:0:0:
93,119,57122,5,4,0:0:0:0:
412,261,57467,1,0,0:0:0:0:
129,328,57812,2,0,P|52:326|76:239,1,170,2|0,0:0|0:0,0:0:0:0:
222,40,58502,5,4,0:0:0:0:
278,341,58846,1,0,0:0:0:0:
261,142,59191,2,0,B|228:101|222:40|222:40|228:83|185:124,1,170,2|0,0:0|0:0,0:0:0:0:
77,251,59881,5,4,0:0:0:0:
440,276,60226,1,0,0:0:0:0:
144,168,60571,1,2,0:0:0:0:
447,155,61260,6,0,P|389:75|363:116,1,170,4|0,0:0|0:0,0:0:0:0:
287,263,61950,2,0,P|317:169|269:172,1,170,8|0,0:0|0:0,0:0:0:0:
178,244,62639,2,0,L|0:280,1,170,2|0,0:0|0:0,0:0:0:0:
2,237,63329,2,0,L|180:273,1,170,8|0,0:0|0:0,0:0:0:0:
333,347,64019,6,0,P|361:296|271:309,1,170,4|0,0:0|0:0,0:0:0:0:
248,304,64536,2,0,P|282:262|192:236,1,170,8|0,0:0|0:0,0:0:0:0:
174,235,65053,2,0,P|195:183|142:137,1,127.5,2|0,0:0|0:0,0:0:0:0:
110,133,65398,2,0,B|175:151|236:107|236:107|304:87|360:136,1,255,8|0,0:0|0:0,0:0:0:0:
434,103,66260,6,0,B|366:162|303:69|221:117,1,212.5
202,120,66777,5,4,0:0:0:0:
214,222,66950,1,0,0:0:0:0:
281,58,67122,1,8,0:0:0:0:
108,109,67295,1,0,0:0:0:0:
300,161,67467,1,0,0:0:0:0:
158,45,67639,2,0,P|96:30|45:61,1,93.5000028533936,0|8,0:0|0:0,0:0:0:0:
113,230,67984,6,0,L|126:334,1,93.5000028533936,0|2,0:0|0:0,0:0:0:0:
201,203,68329,1,0,0:0:0:0:
31,268,68502,1,8,0:0:0:0:
208,295,68674,1,0,0:0:0:0:
109,134,68846,2,0,P|79:100|21:130,2,93.5000028533936,0|0|8,0:0|0:0|0:0,0:0:0:0:
128,350,69364,1,0,0:0:0:0:
347,301,69536,5,4,0:0:0:0:
212,264,69708,1,0,0:0:0:0:
398,219,69881,1,8,0:0:0:0:
404,361,70053,1,0,0:0:0:0:
276,194,70226,1,0,0:0:0:0:
274,349,70398,2,0,P|320:307|320:267,1,93.5000028533936,0|8,0:0|0:0,0:0:0:0:
158,163,70743,6,0,P|215:194|263:178,1,93.5000028533936,0|2,0:0|0:0,0:0:0:0:
323,94,71088,1,0,0:0:0:0:
95,95,71260,1,8,0:0:0:0:
78,221,71433,1,0,0:0:0:0:
220,115,71605,2,0,P|221:62|198:20,2,93.5000028533936,0|0|8,0:0|0:0|0:0,0:0:0:0:
193,244,72122,1,0,0:0:0:0:
347,172,72295,6,0,P|422:167|478:264,1,187.000005706787,4|2,0:0|0:0,0:0:0:0:
327,295,72812,2,0,P|335:227|334:175,2,93.5000028533936,0|2|0,0:0|0:0|0:0,0:0:0:0:
255,156,73329,2,0,P|250:215|242:268,1,93.5000028533936,2|0,0:0|0:0,0:0:0:0:
88,282,73674,6,0,P|36:269|5:233,1,93.5000028533936,4|0,0:0|0:0,0:0:0:0:
121,180,74019,2,0,P|173:193|204:229,1,93.5000028533936,8|0,0:0|0:0,0:0:0:0:
347,361,74364,2,0,P|295:348|264:312,1,93.5000028533936,2|0,0:0|0:0,0:0:0:0:
380,259,74709,2,0,P|432:272|463:308,1,93.5000028533936,8|0,0:0|0:0,0:0:0:0:
495,197,75053,6,0,P|459:101|493:28,1,187.000005706787,4|0,0:0|0:0,0:0:0:0:
336,121,75743,2,0,P|372:217|338:290,1,187.000005706787,8|0,0:0|0:0,0:0:0:0:
235,322,76260,1,0,0:0:0:0:
91,103,76433,5,4,0:0:0:0:
255,157,76605,1,0,0:0:0:0:
64,210,76777,1,8,0:0:0:0:
201,66,76950,1,0,0:0:0:0:
139,291,77122,1,0,0:0:0:0:
304,235,77295,1,0,0:0:0:0:
49,219,77467,2,0,P|103:206|164:216,1,93.5000028533936,8|0,0:0|0:0,0:0:0:0:
336,343,77812,5,4,0:0:0:0:
392,161,77984,1,0,0:0:0:0:
429,300,78157,1,8,0:0:0:0:
274,150,78329,1,0,0:0:0:0:
488,53,78502,1,0,0:0:0:0:
265,64,78674,2,0,P|213:88|191:126,1,93.5000028533936,0|8,0:0|0:0,0:0:0:0:
204,301,79019,6,0,P|221:246|209:204,1,93.5000028533936,0|2,3:0|0:0,3:0:0:0:
46,136,79364,1,0,0:0:0:0:
141,359,79536,1,8,0:0:0:0:
370,206,79708,1,0,0:0:0:0:
140,246,79881,2,0,P|79:263|39:299,2,93.5000028533936,0|0|8,0:0|0:0|0:0,0:0:0:0:
357,325,80398,1,0,0:0:0:0:
314,64,80571,5,4,0:0:0:0:
430,237,80743,1,0,0:0:0:0:
394,22,80915,1,8,0:0:0:0:
304,223,81088,1,0,0:0:0:0:
103,66,81260,1,0,0:0:0:0:
363,153,81433,2,0,P|434:182|466:230,1,93.5000028533936,0|8,0:0|0:0,0:0:0:0:
329,337,81777,6,0,P|331:290|314:247,1,93.5000028533936,0|2,0:0|0:0,0:0:0:0:
137,164,82122,1,0,0:0:0:0:
202,315,82295,1,8,0:0:0:0:
252,125,82467,1,0,0:0:0:0:
93,270,82639,2,0,P|86:336|102:383,2,93.5000028533936,0|0|8,0:0|0:0|0:0,0:0:0:0:
246,223,83157,1,0,0:0:0:0:
150,38,83329,6,0,L|38:60,1,93.5000028533936,4|0,0:0|0:0,0:0:0:0:
203,119,83674,2,0,L|315:141,1,93.5000028533936,8|0,0:0|0:0,0:0:0:0:
112,152,84019,1,0,0:0:0:0:
263,32,84191,2,0,L|362:27,1,93.5000028533936,0|8,0:0|0:0,0:0:0:0:
460,166,84536,6,0,P|442:234|412:258,1,93.5000028533936,8|0,0:0|0:0,0:0:0:0:
171,279,84881,1,2,0:0:0:0:
285,156,85053,2,0,L|416:186,1,93.5000028533936,8|0,0:0|0:0,0:0:0:0:
263,341,85398,1,2,0:0:0:0:
148,180,85571,1,0,0:0:0:0:
269,45,85743,2,0,P|307:103|305:142,1,93.5000028533936,8|0,0:0|0:0,0:0:0:0:
64,267,86088,5,4,0:0:0:0:
312,226,86260,1,0,0:0:0:0:
134,184,86433,1,8,0:0:0:0:
274,344,86605,2,0,P|335:350|385:323,1,93.5000028533936,0|2,0:0|0:0,0:0:0:0:
430,212,86950,1,0,0:0:0:0:
244,37,87122,1,8,0:0:0:0:
224,286,87295,2,0,L|250:401,1,93.5000028533936
319,156,87639,5,0,0:0:0:0:
82,258,87812,1,8,0:0:0:0:
391,276,87984,1,0,0:0:0:0:
112,130,88157,1,0,0:0:0:0:
459,111,88329,1,8,0:0:0:0:
222,373,88502,1,0,0:0:0:0:
302,30,88674,1,8,0:0:0:0:
