osu file format v14

[General]
AudioFilename: audio.mp3
AudioLeadIn: 0
PreviewTime: 85829
Countdown: 0
SampleSet: Normal
StackLeniency: 0.7
Mode: 1
LetterboxInBreaks: 0
WidescreenStoryboard: 0

[Editor]
Bookmarks: 26192,37829,52374,64010,87283
DistanceSpacing: 0.6
BeatDivisor: 6
GridSize: 32
TimelineZoom: 2.1

[Metadata]
Title:Hacktivism
TitleUnicode:Hacktivism
Artist:Aoi vs. siqlo
ArtistUnicode:Aoi vs. siqlo
Creator:Faputa
Version:Inner Oni
Source:
Tags:第一回チュウニズム公募楽曲 Daiikkai CHUNITHM Koubo Gakkyoku レグルス Regurusu Regulus Electronic Instrumental
BeatmapID:3053867
BeatmapSetID:1488148

[Difficulty]
HPDrainRate:6
CircleSize:2
OverallDifficulty:6.5
ApproachRate:10
SliderMultiplier:1.4
SliderTickRate:1

[Events]
//Background and Video events
0,0,"Hacktivism.jpg",0,0
//Break Periods
//Storyboard Layer 0 (Background)
//Storyboard Layer 1 (Fail)
//Storyboard Layer 2 (Pass)
//Storyboard Layer 3 (Foreground)
//Storyboard Layer 4 (Overlay)
//Storyboard Sound Samples

[TimingPoints]
2920,363.636363636364,4,1,0,70,1,0
2920,-111.111111111111,4,1,0,70,0,0
14465,-102.564102564103,4,1,0,80,0,0
26010,-95.2380952380952,4,1,0,80,0,0
52556,-105.263157894737,4,1,0,80,0,0
64056,-106.382978723404,4,1,0,60,0,0
65283,-107.52688172043,4,1,0,50,0,0
66738,-108.695652173913,4,1,0,40,0,0
68192,-109.89010989011,4,1,0,30,0,0
69647,-111.111111111111,4,1,0,20,0,0
74920,-111.111111111111,4,1,0,30,0,0
75010,-111.111111111111,4,1,0,40,0,0
75101,-111.111111111111,4,1,0,50,0,0
75192,-111.111111111111,4,1,0,60,0,0
75283,-111.111111111111,4,1,0,70,0,0
75465,-100,4,1,0,80,0,0
86738,-93.0232558139535,4,1,0,90,0,0
87283,-93.0232558139535,4,1,0,90,0,1
98920,-93.0232558139535,4,1,0,90,0,0
99283,-93.0232558139535,4,1,0,90,0,1
110556,-93.0232558139535,4,1,0,90,0,0
113465,-86.9565217391304,4,1,0,90,0,1
125101,-86.9565217391304,4,1,0,90,0,0
125465,-86.9565217391304,4,1,0,90,0,1
136738,-86.9565217391304,4,1,0,90,0,0
136829,-90.9090909090909,4,1,0,90,0,0
146920,-90.9090909090909,4,1,0,90,0,0
147010,-91.4285714285714,4,1,0,90,0,0
147101,-91.9540229885058,4,1,0,90,0,0
147192,-92.485549132948,4,1,0,90,0,0
147283,-93.0232558139535,4,1,0,90,0,0
147465,-94.1176470588235,4,1,0,90,0,0
147556,-94.6745562130178,4,1,0,90,0,0
147647,-95.2380952380952,4,1,0,90,0,0
147738,-95.8083832335329,4,1,0,90,0,0
147829,-96.3855421686747,4,1,0,90,0,0
147920,-96.969696969697,4,1,0,90,0,0
148010,-97.5609756097561,4,1,0,90,0,0
148101,-98.159509202454,4,1,0,90,0,0
148192,-98.7654320987654,4,1,0,90,0,0
148374,-100,4,1,0,90,0,0
148465,-90.9090909090909,4,1,0,90,0,0

[HitObjects]
256,192,2920,5,4,0:0:0:0:
256,192,3283,1,0,0:0:0:0:
256,192,3647,1,8,0:0:0:0:
256,192,3829,1,0,0:0:0:0:
256,192,4010,1,0,0:0:0:0:
256,192,4192,1,8,0:0:0:0:
256,192,4647,1,0,0:0:0:0:
256,192,4738,1,8,0:0:0:0:
256,192,5283,1,0,0:0:0:0:
256,192,5465,1,8,0:0:0:0:
256,192,5738,1,0,0:0:0:0:
256,192,5829,1,0,0:0:0:0:
256,192,6101,1,0,0:0:0:0:
256,192,6374,1,0,0:0:0:0:
256,192,6556,1,8,0:0:0:0:
256,192,6738,1,0,0:0:0:0:
256,192,6920,1,0,0:0:0:0:
256,192,7101,1,8,0:0:0:0:
256,192,7556,1,0,0:0:0:0:
256,192,7647,1,8,0:0:0:0:
256,192,8010,1,8,0:0:0:0:
256,192,8283,1,0,0:0:0:0:
256,192,8374,1,8,0:0:0:0:
256,192,8556,1,0,0:0:0:0:
256,192,8738,1,0,0:0:0:0:
256,192,9101,1,0,0:0:0:0:
256,192,9465,1,8,0:0:0:0:
256,192,9647,1,0,0:0:0:0:
256,192,9829,1,0,0:0:0:0:
256,192,10010,1,8,0:0:0:0:
256,192,10192,1,0,0:0:0:0:
256,192,10465,1,0,0:0:0:0:
256,192,10556,1,8,0:0:0:0:
256,192,11101,1,0,0:0:0:0:
256,192,11283,1,8,0:0:0:0:
256,192,11556,1,0,0:0:0:0:
256,192,11647,1,0,0:0:0:0:
256,192,11920,1,0,0:0:0:0:
256,192,12010,1,0,0:0:0:0:
256,192,12192,1,0,0:0:0:0:
256,192,12374,1,8,0:0:0:0:
256,192,12556,1,0,0:0:0:0:
256,192,12738,1,0,0:0:0:0:
256,192,12920,1,8,0:0:0:0:
256,192,13101,1,0,0:0:0:0:
256,192,13374,1,0,0:0:0:0:
256,192,13465,1,8,0:0:0:0:
256,192,13829,1,8,0:0:0:0:
256,192,14101,1,0,0:0:0:0:
256,192,14192,1,8,0:0:0:0:
256,192,14374,1,0,0:0:0:0:
256,192,14556,1,12,0:0:0:0:
256,192,14738,1,8,0:0:0:0:
256,192,14829,1,0,0:0:0:0:
256,192,15010,1,8,0:0:0:0:
256,192,15101,1,0,0:0:0:0:
256,192,15283,1,0,0:0:0:0:
256,192,15465,1,8,0:0:0:0:
256,192,15647,1,0,0:0:0:0:
256,192,15829,1,0,0:0:0:0:
256,192,16010,1,8,0:0:0:0:
256,192,16101,1,8,0:0:0:0:
256,192,16192,1,0,0:0:0:0:
256,192,16283,1,8,0:0:0:0:
256,192,16374,1,8,0:0:0:0:
256,192,16465,1,0,0:0:0:0:
256,192,16556,1,0,0:0:0:0:
256,192,16647,1,0,0:0:0:0:
256,192,16738,1,8,0:0:0:0:
256,192,16920,1,8,0:0:0:0:
256,192,17101,1,0,0:0:0:0:
256,192,17192,1,0,0:0:0:0:
256,192,17283,1,8,0:0:0:0:
256,192,17465,1,0,0:0:0:0:
256,192,17647,1,8,0:0:0:0:
256,192,17738,1,0,0:0:0:0:
256,192,17920,1,8,0:0:0:0:
256,192,18010,1,0,0:0:0:0:
256,192,18192,1,0,0:0:0:0:
256,192,18374,1,8,0:0:0:0:
256,192,18556,1,0,0:0:0:0:
256,192,18647,1,0,0:0:0:0:
256,192,18738,1,8,0:0:0:0:
256,192,18920,1,0,0:0:0:0:
256,192,19010,1,8,0:0:0:0:
256,192,19192,1,8,0:0:0:0:
256,192,19283,1,0,0:0:0:0:
256,192,19374,1,0,0:0:0:0:
256,192,19465,1,8,0:0:0:0:
256,192,19647,1,0,0:0:0:0:
256,192,19768,1,0,0:0:0:0:
256,192,19889,1,0,0:0:0:0:
256,192,20010,1,8,0:0:0:0:
256,192,20101,1,8,0:0:0:0:
256,192,20192,1,0,0:0:0:0:
256,192,20374,1,8,0:0:0:0:
256,192,20556,1,8,0:0:0:0:
256,192,20738,1,0,0:0:0:0:
256,192,20920,1,0,0:0:0:0:
256,192,21101,1,8,0:0:0:0:
256,192,21192,1,0,0:0:0:0:
256,192,21283,1,8,0:0:0:0:
256,192,21374,1,8,0:0:0:0:
256,192,21465,1,0,0:0:0:0:
256,192,21647,1,0,0:0:0:0:
256,192,21829,1,8,0:0:0:0:
256,192,22010,1,8,0:0:0:0:
256,192,22192,1,0,0:0:0:0:
256,192,22374,1,8,0:0:0:0:
256,192,22556,1,0,0:0:0:0:
256,192,22647,1,0,0:0:0:0:
256,192,22738,1,8,0:0:0:0:
256,192,22829,1,0,0:0:0:0:
256,192,22920,1,8,0:0:0:0:
256,192,23101,1,0,0:0:0:0:
256,192,23283,1,8,0:0:0:0:
256,192,23374,1,8,0:0:0:0:
256,192,23465,1,0,0:0:0:0:
256,192,23556,1,8,0:0:0:0:
256,192,23647,1,0,0:0:0:0:
256,192,23829,1,8,0:0:0:0:
256,192,23920,1,8,0:0:0:0:
256,192,24010,1,0,0:0:0:0:
256,192,24101,1,8,0:0:0:0:
256,192,24192,1,0,0:0:0:0:
256,192,24283,1,0,0:0:0:0:
256,192,24374,1,8,0:0:0:0:
256,192,24556,1,8,0:0:0:0:
256,192,24738,1,4,0:0:0:0:
256,192,25101,1,4,0:0:0:0:
256,192,25465,1,4,0:0:0:0:
256,192,26192,1,12,0:0:0:0:
256,192,26465,1,0,0:0:0:0:
256,192,26556,1,8,0:0:0:0:
256,192,26738,1,0,0:0:0:0:
256,192,26829,1,8,0:0:0:0:
256,192,26920,1,0,0:0:0:0:
256,192,27101,1,8,0:0:0:0:
256,192,27192,1,0,0:0:0:0:
256,192,27283,1,8,0:0:0:0:
256,192,27374,1,0,0:0:0:0:
256,192,27465,1,8,0:0:0:0:
256,192,27647,1,0,0:0:0:0:
256,192,27829,1,0,0:0:0:0:
256,192,27920,1,8,0:0:0:0:
256,192,28010,1,0,0:0:0:0:
256,192,28192,1,8,0:0:0:0:
256,192,28283,1,8,0:0:0:0:
256,192,28374,1,0,0:0:0:0:
256,192,28465,1,0,0:0:0:0:
256,192,28556,1,0,0:0:0:0:
256,192,28647,1,0,0:0:0:0:
256,192,28738,1,8,0:0:0:0:
256,192,28920,1,8,0:0:0:0:
256,192,29101,1,0,0:0:0:0:
256,192,29192,1,0,0:0:0:0:
256,192,29283,1,8,0:0:0:0:
256,192,29374,1,8,0:0:0:0:
256,192,29465,1,0,0:0:0:0:
256,192,29647,1,8,0:0:0:0:
256,192,29738,1,8,0:0:0:0:
256,192,29829,1,0,0:0:0:0:
256,192,29920,1,0,0:0:0:0:
256,192,30010,1,8,0:0:0:0:
256,192,30101,1,0,0:0:0:0:
256,192,30192,1,8,0:0:0:0:
256,192,30374,1,8,0:0:0:0:
256,192,30556,1,0,0:0:0:0:
256,192,30738,1,8,0:0:0:0:
256,192,30829,1,0,0:0:0:0:
256,192,30920,1,8,0:0:0:0:
256,192,31101,1,8,0:0:0:0:
256,192,31283,1,4,0:0:0:0:
256,192,31465,1,8,0:0:0:0:
256,192,31556,1,0,0:0:0:0:
256,192,31738,1,8,0:0:0:0:
256,192,31829,1,8,0:0:0:0:
256,192,32010,1,4,0:0:0:0:
256,192,32283,1,0,0:0:0:0:
256,192,32374,1,8,0:0:0:0:
256,192,32556,1,8,0:0:0:0:
256,192,32647,1,8,0:0:0:0:
256,192,32738,1,0,0:0:0:0:
256,192,32829,1,8,0:0:0:0:
256,192,32920,1,0,0:0:0:0:
256,192,33101,1,8,0:0:0:0:
256,192,33283,1,0,0:0:0:0:
256,192,33374,1,8,0:0:0:0:
256,192,33465,1,0,0:0:0:0:
256,192,33647,1,8,0:0:0:0:
256,192,33738,1,8,0:0:0:0:
256,192,33829,1,0,0:0:0:0:
256,192,33920,1,0,0:0:0:0:
256,192,34010,1,8,0:0:0:0:
256,192,34192,1,0,0:0:0:0:
256,192,34283,1,0,0:0:0:0:
256,192,34374,1,8,0:0:0:0:
256,192,34465,1,8,0:0:0:0:
256,192,34556,1,0,0:0:0:0:
256,192,34647,1,0,0:0:0:0:
256,192,34738,1,8,0:0:0:0:
256,192,34920,1,0,0:0:0:0:
256,192,35010,1,8,0:0:0:0:
256,192,35192,1,8,0:0:0:0:
256,192,35283,1,0,0:0:0:0:
256,192,35465,1,8,0:0:0:0:
256,192,35556,1,8,0:0:0:0:
256,192,35647,1,0,0:0:0:0:
256,192,35738,1,8,0:0:0:0:
256,192,35920,1,8,0:0:0:0:
256,192,36010,1,0,0:0:0:0:
256,192,36192,1,8,0:0:0:0:
256,192,36374,1,4,0:0:0:0:
256,192,36647,1,0,0:0:0:0:
256,192,36829,1,0,0:0:0:0:
256,192,36920,1,8,0:0:0:0:
256,192,37101,1,0,0:0:0:0:
256,192,37192,1,8,0:0:0:0:
256,192,37283,1,0,0:0:0:0:
256,192,37374,1,0,0:0:0:0:
256,192,37465,1,8,0:0:0:0:
256,192,37647,1,8,0:0:0:0:
256,192,37829,1,12,0:0:0:0:
256,192,38101,1,0,0:0:0:0:
256,192,38192,1,8,0:0:0:0:
256,192,38374,1,8,0:0:0:0:
256,192,38556,1,0,0:0:0:0:
256,192,38647,1,0,0:0:0:0:
256,192,38738,1,8,0:0:0:0:
256,192,38829,1,0,0:0:0:0:
256,192,38920,1,8,0:0:0:0:
256,192,39101,1,8,0:0:0:0:
256,192,39283,1,0,0:0:0:0:
256,192,39374,1,8,0:0:0:0:
256,192,39556,1,8,0:0:0:0:
256,192,39647,1,0,0:0:0:0:
256,192,39738,1,0,0:0:0:0:
256,192,39829,1,8,0:0:0:0:
256,192,39920,1,8,0:0:0:0:
256,192,40010,1,0,0:0:0:0:
256,192,40192,1,0,0:0:0:0:
256,192,40374,1,12,0:0:0:0:
256,192,40738,1,4,0:0:0:0:
256,192,41010,1,8,0:0:0:0:
256,192,41101,1,0,0:0:0:0:
256,192,41192,1,0,0:0:0:0:
256,192,41374,1,8,0:0:0:0:
256,192,41556,1,0,0:0:0:0:
256,192,41738,1,8,0:0:0:0:
256,192,41829,1,0,0:0:0:0:
256,192,42010,1,8,0:0:0:0:
256,192,42192,1,0,0:0:0:0:
256,192,42374,1,8,0:0:0:0:
256,192,42465,1,8,0:0:0:0:
256,192,42556,1,0,0:0:0:0:
256,192,42738,1,0,0:0:0:0:
256,192,42920,1,8,0:0:0:0:
256,192,43010,1,0,0:0:0:0:
256,192,43101,1,8,0:0:0:0:
256,192,43192,1,8,0:0:0:0:
256,192,43283,1,8,0:0:0:0:
256,192,43374,1,8,0:0:0:0:
256,192,43465,1,0,0:0:0:0:
256,192,43647,1,8,0:0:0:0:
256,192,43738,1,8,0:0:0:0:
256,192,43829,1,8,0:0:0:0:
256,192,44010,1,4,0:0:0:0:
256,192,44192,1,0,0:0:0:0:
256,192,44283,1,8,0:0:0:0:
256,192,44465,1,0,0:0:0:0:
256,192,44647,1,0,0:0:0:0:
256,192,44738,1,8,0:0:0:0:
256,192,44829,1,8,0:0:0:0:
256,192,44920,1,0,0:0:0:0:
256,192,45010,1,0,0:0:0:0:
256,192,45101,1,8,0:0:0:0:
256,192,45192,1,0,0:0:0:0:
256,192,45374,1,8,0:0:0:0:
256,192,45465,1,0,0:0:0:0:
256,192,45647,1,0,0:0:0:0:
256,192,45738,1,8,0:0:0:0:
256,192,45920,1,8,0:0:0:0:
256,192,46010,1,0,0:0:0:0:
256,192,46101,1,0,0:0:0:0:
256,192,46192,1,8,0:0:0:0:
256,192,46283,1,8,0:0:0:0:
256,192,46374,1,0,0:0:0:0:
256,192,46556,1,8,0:0:0:0:
256,192,46647,1,8,0:0:0:0:
256,192,46738,1,0,0:0:0:0:
256,192,46829,1,0,0:0:0:0:
256,192,46920,1,8,0:0:0:0:
256,192,47101,1,0,0:0:0:0:
256,192,47283,1,8,0:0:0:0:
256,192,47374,1,8,0:0:0:0:
256,192,47465,1,0,0:0:0:0:
256,192,47556,1,0,0:0:0:0:
256,192,47647,1,8,0:0:0:0:
256,192,47738,1,0,0:0:0:0:
256,192,47829,1,8,0:0:0:0:
256,192,48010,1,4,0:0:0:0:
256,192,48192,2,4,L|283:142,12,36.749998878479
256,192,49465,1,8,0:0:0:0:
256,192,49647,1,0,0:0:0:0:
256,192,49738,1,8,0:0:0:0:
256,192,49920,1,0,0:0:0:0:
256,192,50010,1,8,0:0:0:0:
256,192,50101,1,0,0:0:0:0:
256,192,50192,1,8,0:0:0:0:
256,192,50374,1,0,0:0:0:0:
256,192,50465,1,8,0:0:0:0:
256,192,50556,1,8,0:0:0:0:
256,192,50647,1,0,0:0:0:0:
256,192,50738,1,8,0:0:0:0:
256,192,50920,1,8,0:0:0:0:
256,192,51101,1,0,0:0:0:0:
256,192,51192,1,8,0:0:0:0:
256,192,51374,1,0,0:0:0:0:
256,192,51465,1,8,0:0:0:0:
256,192,51556,1,0,0:0:0:0:
256,192,51647,1,8,0:0:0:0:
256,192,51738,1,8,0:0:0:0:
256,192,51829,1,8,0:0:0:0:
256,192,52010,1,4,0:0:0:0:
256,192,52374,1,12,0:0:0:0:
256,192,52738,1,8,0:0:0:0:
256,192,52829,1,8,0:0:0:0:
256,192,52920,1,8,0:0:0:0:
256,192,53010,1,8,0:0:0:0:
256,192,53101,1,0,0:0:0:0:
256,192,53192,1,0,0:0:0:0:
256,192,53283,1,8,0:0:0:0:
256,192,53374,1,8,0:0:0:0:
256,192,53465,1,0,0:0:0:0:
256,192,53647,1,0,0:0:0:0:
256,192,53829,1,0,0:0:0:0:
256,192,54010,1,8,0:0:0:0:
256,192,54192,1,0,0:0:0:0:
256,192,54374,1,8,0:0:0:0:
256,192,54556,1,0,0:0:0:0:
256,192,54738,1,8,0:0:0:0:
256,192,54920,1,0,0:0:0:0:
256,192,55101,1,8,0:0:0:0:
256,192,55283,1,4,0:0:0:0:
256,192,55647,1,8,0:0:0:0:
256,192,55738,1,8,0:0:0:0:
256,192,55829,1,8,0:0:0:0:
256,192,55920,1,8,0:0:0:0:
256,192,56010,1,0,0:0:0:0:
256,192,56101,1,0,0:0:0:0:
256,192,56192,1,8,0:0:0:0:
256,192,56283,1,0,0:0:0:0:
256,192,56374,1,8,0:0:0:0:
256,192,56556,1,4,0:0:0:0:
256,192,56920,1,8,0:0:0:0:
256,192,57101,1,0,0:0:0:0:
256,192,57192,1,0,0:0:0:0:
256,192,57283,1,8,0:0:0:0:
256,192,57374,1,0,0:0:0:0:
256,192,57465,1,8,0:0:0:0:
256,192,57556,1,8,0:0:0:0:
256,192,57647,1,0,0:0:0:0:
256,192,57829,1,8,0:0:0:0:
256,192,58010,1,8,0:0:0:0:
256,192,58192,1,4,0:0:0:0:
256,192,58374,1,0,0:0:0:0:
256,192,58465,1,0,0:0:0:0:
256,192,58556,1,8,0:0:0:0:
256,192,58647,1,8,0:0:0:0:
256,192,58738,1,0,0:0:0:0:
256,192,58920,1,8,0:0:0:0:
256,192,59010,1,8,0:0:0:0:
256,192,59101,1,0,0:0:0:0:
256,192,59192,1,0,0:0:0:0:
256,192,59283,1,8,0:0:0:0:
256,192,59465,1,4,0:0:0:0:
256,192,59829,1,8,0:0:0:0:
256,192,60010,1,0,0:0:0:0:
256,192,60101,1,0,0:0:0:0:
256,192,60192,1,0,0:0:0:0:
256,192,60283,1,0,0:0:0:0:
256,192,60374,1,8,0:0:0:0:
256,192,60738,1,8,0:0:0:0:
256,192,60920,1,8,0:0:0:0:
256,192,61101,1,4,0:0:0:0:
256,192,61283,1,0,0:0:0:0:
256,192,61374,1,0,0:0:0:0:
256,192,61465,1,8,0:0:0:0:
256,192,61556,1,8,0:0:0:0:
256,192,61647,1,0,0:0:0:0:
256,192,61738,1,0,0:0:0:0:
256,192,61829,1,8,0:0:0:0:
256,192,62010,1,8,0:0:0:0:
256,192,62101,1,8,0:0:0:0:
256,192,62192,1,0,0:0:0:0:
256,192,62374,1,12,0:0:0:0:
256,192,62556,1,0,0:0:0:0:
256,192,62647,1,8,0:0:0:0:
256,192,62738,1,0,0:0:0:0:
256,192,62829,1,8,0:0:0:0:
256,192,62920,1,0,0:0:0:0:
256,192,63101,1,0,0:0:0:0:
256,192,63192,1,0,0:0:0:0:
256,192,63283,1,8,0:0:0:0:
256,192,63374,1,8,0:0:0:0:
256,192,63465,1,0,0:0:0:0:
256,192,63647,1,8,0:0:0:0:
256,192,63829,1,8,0:0:0:0:
256,192,64010,1,4,0:0:0:0:
256,192,64192,12,0,69829,0:0:0:0:
256,192,74192,12,0,75283,0:0:0:0:
256,192,75647,5,4,0:0:0:0:
256,192,76192,1,4,0:0:0:0:
256,192,76920,1,12,0:0:0:0:
256,192,77283,1,12,0:0:0:0:
256,192,77647,1,4,0:0:0:0:
256,192,78010,1,0,0:0:0:0:
256,192,78192,1,12,0:0:0:0:
256,192,78556,1,4,0:0:0:0:
256,192,79101,1,4,0:0:0:0:
256,192,79829,1,12,0:0:0:0:
256,192,80192,1,12,0:0:0:0:
256,192,80556,1,4,0:0:0:0:
256,192,80738,1,4,0:0:0:0:
256,192,80920,1,0,0:0:0:0:
256,192,81101,1,12,0:0:0:0:
256,192,81465,1,12,0:0:0:0:
256,192,81647,1,0,0:0:0:0:
256,192,81738,1,8,0:0:0:0:
256,192,81829,1,0,0:0:0:0:
256,192,82010,1,8,0:0:0:0:
256,192,82192,1,0,0:0:0:0:
256,192,82374,1,0,0:0:0:0:
256,192,82556,1,8,0:0:0:0:
256,192,82738,1,0,0:0:0:0:
256,192,82920,1,12,0:0:0:0:
256,192,83101,1,0,0:0:0:0:
256,192,83192,1,0,0:0:0:0:
256,192,83283,1,8,0:0:0:0:
256,192,83465,1,0,0:0:0:0:
256,192,83556,1,8,0:0:0:0:
256,192,83647,1,0,0:0:0:0:
256,192,83829,1,0,0:0:0:0:
256,192,84010,1,8,0:0:0:0:
256,192,84192,1,0,0:0:0:0:
256,192,84374,1,8,0:0:0:0:
256,192,84465,1,8,0:0:0:0:
256,192,84556,1,0,0:0:0:0:
256,192,84647,1,8,0:0:0:0:
256,192,84738,1,0,0:0:0:0:
256,192,84920,1,8,0:0:0:0:
256,192,85010,1,8,0:0:0:0:
256,192,85101,1,0,0:0:0:0:
256,192,85192,1,8,0:0:0:0:
256,192,85283,1,0,0:0:0:0:
256,192,85374,1,0,0:0:0:0:
256,192,85465,1,8,0:0:0:0:
256,192,85647,1,0,0:0:0:0:
256,192,85829,1,12,0:0:0:0:
256,192,86920,1,4,0:0:0:0:
256,192,87283,1,12,0:0:0:0:
256,192,87465,1,0,0:0:0:0:
256,192,87647,1,8,0:0:0:0:
256,192,87738,1,8,0:0:0:0:
256,192,87829,1,0,0:0:0:0:
256,192,87920,1,0,0:0:0:0:
256,192,88101,1,8,0:0:0:0:
256,192,88192,1,8,0:0:0:0:
256,192,88283,1,0,0:0:0:0:
256,192,88374,1,8,0:0:0:0:
256,192,88435,1,8,0:0:0:0:
256,192,88495,1,8,0:0:0:0:
256,192,88556,1,0,0:0:0:0:
256,192,88738,1,8,0:0:0:0:
256,192,88829,1,8,0:0:0:0:
256,192,88920,1,0,0:0:0:0:
256,192,89010,1,0,0:0:0:0:
256,192,89192,1,8,0:0:0:0:
256,192,89283,1,8,0:0:0:0:
256,192,89374,1,0,0:0:0:0:
256,192,89465,1,0,0:0:0:0:
256,192,89556,1,8,0:0:0:0:
256,192,89647,1,8,0:0:0:0:
256,192,89738,1,0,0:0:0:0:
256,192,89920,1,0,0:0:0:0:
256,192,90010,1,8,0:0:0:0:
256,192,90101,1,0,0:0:0:0:
256,192,90192,1,8,0:0:0:0:
256,192,90374,1,0,0:0:0:0:
256,192,90465,1,8,0:0:0:0:
256,192,90556,1,0,0:0:0:0:
256,192,90647,1,0,0:0:0:0:
256,192,90738,1,8,0:0:0:0:
256,192,90829,1,8,0:0:0:0:
256,192,90920,1,0,0:0:0:0:
256,192,91101,1,8,0:0:0:0:
256,192,91192,1,0,0:0:0:0:
256,192,91283,1,8,0:0:0:0:
256,192,91465,1,8,0:0:0:0:
256,192,91556,1,8,0:0:0:0:
256,192,91647,1,0,0:0:0:0:
256,192,91738,1,0,0:0:0:0:
256,192,91829,1,8,0:0:0:0:
256,192,91920,1,0,0:0:0:0:
256,192,92010,1,8,0:0:0:0:
256,192,92192,1,8,0:0:0:0:
256,192,92283,1,8,0:0:0:0:
256,192,92374,1,0,0:0:0:0:
256,192,92465,1,0,0:0:0:0:
256,192,92556,1,8,0:0:0:0:
256,192,92647,1,0,0:0:0:0:
256,192,92738,1,8,0:0:0:0:
256,192,92829,1,8,0:0:0:0:
256,192,92920,1,0,0:0:0:0:
256,192,93101,1,12,0:0:0:0:
256,192,93283,1,0,0:0:0:0:
256,192,93465,1,0,0:0:0:0:
256,192,93556,1,8,0:0:0:0:
256,192,93647,1,0,0:0:0:0:
256,192,93738,1,8,0:0:0:0:
256,192,93920,1,0,0:0:0:0:
256,192,94010,1,8,0:0:0:0:
256,192,94101,1,0,0:0:0:0:
256,192,94192,1,8,0:0:0:0:
256,192,94253,1,8,0:0:0:0:
256,192,94313,1,8,0:0:0:0:
256,192,94374,1,0,0:0:0:0:
256,192,94556,1,8,0:0:0:0:
256,192,94738,1,0,0:0:0:0:
256,192,94829,1,0,0:0:0:0:
256,192,94920,1,8,0:0:0:0:
256,192,95010,1,8,0:0:0:0:
256,192,95101,1,8,0:0:0:0:
256,192,95283,1,0,0:0:0:0:
256,192,95374,1,8,0:0:0:0:
256,192,95465,1,0,0:0:0:0:
256,192,95556,1,8,0:0:0:0:
256,192,95738,1,8,0:0:0:0:
256,192,95829,1,8,0:0:0:0:
256,192,95920,1,0,0:0:0:0:
256,192,96010,1,0,0:0:0:0:
256,192,96101,1,8,0:0:0:0:
256,192,96192,1,0,0:0:0:0:
256,192,96283,1,8,0:0:0:0:
256,192,96465,1,0,0:0:0:0:
256,192,96556,1,0,0:0:0:0:
256,192,96647,1,8,0:0:0:0:
256,192,96829,1,8,0:0:0:0:
256,192,96920,1,0,0:0:0:0:
256,192,97010,1,8,0:0:0:0:
256,192,97101,1,0,0:0:0:0:
256,192,97192,1,0,0:0:0:0:
256,192,97283,1,0,0:0:0:0:
256,192,97374,1,8,0:0:0:0:
256,192,97465,1,8,0:0:0:0:
256,192,97556,1,0,0:0:0:0:
256,192,97647,1,8,0:0:0:0:
256,192,97738,1,8,0:0:0:0:
256,192,97829,1,0,0:0:0:0:
256,192,97920,1,8,0:0:0:0:
256,192,98010,1,0,0:0:0:0:
256,192,98101,1,0,0:0:0:0:
256,192,98192,1,8,0:0:0:0:
256,192,98374,1,8,0:0:0:0:
256,192,98465,1,8,0:0:0:0:
256,192,98556,1,0,0:0:0:0:
256,192,98647,1,0,0:0:0:0:
256,192,98738,1,8,0:0:0:0:
256,192,98829,1,0,0:0:0:0:
256,192,98920,1,8,0:0:0:0:
256,192,99010,1,8,0:0:0:0:
256,192,99101,1,8,0:0:0:0:
256,192,99283,1,12,0:0:0:0:
256,192,99465,1,0,0:0:0:0:
256,192,99556,1,8,0:0:0:0:
256,192,99738,1,8,0:0:0:0:
256,192,99829,1,0,0:0:0:0:
256,192,99920,1,8,0:0:0:0:
256,192,100010,1,8,0:0:0:0:
256,192,100101,1,8,0:0:0:0:
256,192,100192,1,0,0:0:0:0:
256,192,100283,1,0,0:0:0:0:
256,192,100374,1,8,0:0:0:0:
256,192,100465,1,0,0:0:0:0:
256,192,100556,1,8,0:0:0:0:
256,192,100647,1,8,0:0:0:0:
256,192,100738,1,0,0:0:0:0:
256,192,100920,1,8,0:0:0:0:
256,192,101010,1,8,0:0:0:0:
256,192,101101,1,0,0:0:0:0:
256,192,101192,1,8,0:0:0:0:
256,192,101283,1,0,0:0:0:0:
256,192,101374,1,0,0:0:0:0:
256,192,101465,1,8,0:0:0:0:
256,192,101647,1,8,0:0:0:0:
256,192,101738,1,0,0:0:0:0:
256,192,101829,1,8,0:0:0:0:
256,192,101920,1,8,0:0:0:0:
256,192,102010,1,0,0:0:0:0:
256,192,102192,1,8,0:0:0:0:
256,192,102374,1,0,0:0:0:0:
256,192,102465,1,0,0:0:0:0:
256,192,102556,1,8,0:0:0:0:
256,192,102647,1,8,0:0:0:0:
256,192,102738,1,0,0:0:0:0:
256,192,102829,1,8,0:0:0:0:
256,192,102920,1,0,0:0:0:0:
256,192,103101,1,8,0:0:0:0:
256,192,103192,1,8,0:0:0:0:
256,192,103283,1,0,0:0:0:0:
256,192,103374,1,0,0:0:0:0:
256,192,103465,1,8,0:0:0:0:
256,192,103647,1,0,0:0:0:0:
256,192,103738,1,8,0:0:0:0:
256,192,103829,1,0,0:0:0:0:
256,192,104010,1,8,0:0:0:0:
256,192,104101,1,8,0:0:0:0:
256,192,104192,1,0,0:0:0:0:
256,192,104283,1,0,0:0:0:0:
256,192,104374,1,8,0:0:0:0:
256,192,104556,1,0,0:0:0:0:
256,192,104738,1,12,0:0:0:0:
256,192,104920,1,0,0:0:0:0:
256,192,105010,1,8,0:0:0:0:
256,192,105101,1,0,0:0:0:0:
256,192,105192,1,8,0:0:0:0:
256,192,105374,1,0,0:0:0:0:
256,192,105465,1,0,0:0:0:0:
256,192,105556,1,8,0:0:0:0:
256,192,105647,1,8,0:0:0:0:
256,192,105738,1,0,0:0:0:0:
256,192,105829,1,8,0:0:0:0:
256,192,105889,1,8,0:0:0:0:
256,192,105950,1,8,0:0:0:0:
256,192,106010,1,0,0:0:0:0:
256,192,106192,1,0,0:0:0:0:
256,192,106374,1,8,0:0:0:0:
256,192,106465,1,0,0:0:0:0:
256,192,106556,1,8,0:0:0:0:
256,192,106647,1,0,0:0:0:0:
256,192,106829,1,8,0:0:0:0:
256,192,106920,1,0,0:0:0:0:
256,192,107010,1,0,0:0:0:0:
256,192,107101,1,8,0:0:0:0:
256,192,107192,1,8,0:0:0:0:
256,192,107283,1,0,0:0:0:0:
256,192,107465,1,0,0:0:0:0:
256,192,107647,1,8,0:0:0:0:
256,192,107738,1,0,0:0:0:0:
256,192,107829,1,8,0:0:0:0:
256,192,107920,1,8,0:0:0:0:
256,192,108010,1,0,0:0:0:0:
256,192,108192,1,8,0:0:0:0:
256,192,108283,1,0,0:0:0:0:
256,192,108374,1,8,0:0:0:0:
256,192,108465,1,8,0:0:0:0:
256,192,108556,1,0,0:0:0:0:
256,192,108647,1,0,0:0:0:0:
256,192,108738,1,8,0:0:0:0:
256,192,108920,1,8,0:0:0:0:
256,192,109010,1,0,0:0:0:0:
256,192,109101,1,8,0:0:0:0:
256,192,109192,1,8,0:0:0:0:
256,192,109283,1,0,0:0:0:0:
256,192,109374,1,8,0:0:0:0:
256,192,109465,1,0,0:0:0:0:
256,192,109556,1,0,0:0:0:0:
256,192,109647,1,8,0:0:0:0:
256,192,109738,1,0,0:0:0:0:
256,192,109829,1,8,0:0:0:0:
256,192,109920,1,8,0:0:0:0:
256,192,110010,1,0,0:0:0:0:
256,192,110101,1,0,0:0:0:0:
256,192,110192,1,8,0:0:0:0:
256,192,110283,1,8,0:0:0:0:
256,192,110374,1,0,0:0:0:0:
256,192,110556,1,12,0:0:0:0:
256,192,111283,1,8,0:0:0:0:
256,192,111465,1,0,0:0:0:0:
256,192,111556,1,8,0:0:0:0:
256,192,111647,1,0,0:0:0:0:
256,192,111829,1,8,0:0:0:0:
256,192,111920,1,8,0:0:0:0:
256,192,112010,1,0,0:0:0:0:
256,192,112101,1,0,0:0:0:0:
256,192,112192,1,8,0:0:0:0:
256,192,112283,1,8,0:0:0:0:
256,192,112374,1,0,0:0:0:0:
256,192,112556,1,0,0:0:0:0:
256,192,112647,1,0,0:0:0:0:
256,192,112738,1,8,0:0:0:0:
256,192,112829,1,0,0:0:0:0:
256,192,112920,1,8,0:0:0:0:
256,192,113010,1,0,0:0:0:0:
256,192,113101,1,8,0:0:0:0:
256,192,113192,1,8,0:0:0:0:
256,192,113283,1,0,0:0:0:0:
256,192,113465,1,12,0:0:0:0:
256,192,113647,1,0,0:0:0:0:
256,192,113738,1,0,0:0:0:0:
256,192,113829,1,8,0:0:0:0:
256,192,113920,1,8,0:0:0:0:
256,192,114010,1,0,0:0:0:0:
256,192,114101,1,8,0:0:0:0:
256,192,114283,1,0,0:0:0:0:
256,192,114374,1,8,0:0:0:0:
256,192,114465,1,0,0:0:0:0:
256,192,114556,1,8,0:0:0:0:
256,192,114616,1,8,0:0:0:0:
256,192,114677,1,8,0:0:0:0:
256,192,114738,1,0,0:0:0:0:
256,192,114920,1,8,0:0:0:0:
256,192,115010,1,8,0:0:0:0:
256,192,115101,1,0,0:0:0:0:
256,192,115192,1,0,0:0:0:0:
256,192,115283,1,8,0:0:0:0:
256,192,115374,1,8,0:0:0:0:
256,192,115465,1,0,0:0:0:0:
256,192,115556,1,8,0:0:0:0:
256,192,115647,1,8,0:0:0:0:
256,192,115738,1,0,0:0:0:0:
256,192,115829,1,8,0:0:0:0:
256,192,116010,1,0,0:0:0:0:
256,192,116101,1,0,0:0:0:0:
256,192,116192,1,8,0:0:0:0:
256,192,116283,1,0,0:0:0:0:
256,192,116374,1,8,0:0:0:0:
256,192,116465,1,8,0:0:0:0:
256,192,116556,1,0,0:0:0:0:
256,192,116647,1,0,0:0:0:0:
256,192,116738,1,8,0:0:0:0:
256,192,116920,1,8,0:0:0:0:
256,192,117010,1,0,0:0:0:0:
256,192,117101,1,8,0:0:0:0:
256,192,117192,1,8,0:0:0:0:
256,192,117283,1,0,0:0:0:0:
256,192,117374,1,0,0:0:0:0:
256,192,117465,1,8,0:0:0:0:
256,192,117647,1,8,0:0:0:0:
256,192,117738,1,8,0:0:0:0:
256,192,117829,1,0,0:0:0:0:
256,192,117920,1,0,0:0:0:0:
256,192,118010,1,8,0:0:0:0:
256,192,118101,1,0,0:0:0:0:
256,192,118192,1,8,0:0:0:0:
256,192,118374,1,0,0:0:0:0:
256,192,118465,1,0,0:0:0:0:
256,192,118556,1,8,0:0:0:0:
256,192,118647,1,8,0:0:0:0:
256,192,118738,1,0,0:0:0:0:
256,192,118829,1,0,0:0:0:0:
256,192,118920,1,8,0:0:0:0:
256,192,119010,1,0,0:0:0:0:
256,192,119101,1,8,0:0:0:0:
256,192,119283,1,12,0:0:0:0:
256,192,119465,1,0,0:0:0:0:
256,192,119556,1,0,0:0:0:0:
256,192,119647,1,8,0:0:0:0:
256,192,119738,1,0,0:0:0:0:
256,192,119829,1,8,0:0:0:0:
256,192,119920,1,8,0:0:0:0:
256,192,120101,1,8,0:0:0:0:
256,192,120192,1,0,0:0:0:0:
256,192,120283,1,0,0:0:0:0:
256,192,120374,1,8,0:0:0:0:
256,192,120435,1,8,0:0:0:0:
256,192,120495,1,8,0:0:0:0:
256,192,120556,1,0,0:0:0:0:
256,192,120738,1,8,0:0:0:0:
256,192,120829,1,0,0:0:0:0:
256,192,120920,1,8,0:0:0:0:
256,192,121010,1,8,0:0:0:0:
256,192,121192,1,8,0:0:0:0:
256,192,121283,1,0,0:0:0:0:
256,192,121374,1,0,0:0:0:0:
256,192,121465,1,8,0:0:0:0:
256,192,121556,1,8,0:0:0:0:
256,192,121647,1,0,0:0:0:0:
256,192,121738,1,0,0:0:0:0:
256,192,121829,1,8,0:0:0:0:
256,192,122010,1,8,0:0:0:0:
256,192,122101,1,8,0:0:0:0:
256,192,122192,1,0,0:0:0:0:
256,192,122283,1,8,0:0:0:0:
256,192,122374,1,0,0:0:0:0:
256,192,122465,1,8,0:0:0:0:
256,192,122647,1,0,0:0:0:0:
256,192,122738,1,0,0:0:0:0:
256,192,122829,1,8,0:0:0:0:
256,192,123010,1,8,0:0:0:0:
256,192,123101,1,0,0:0:0:0:
256,192,123192,1,8,0:0:0:0:
256,192,123283,1,0,0:0:0:0:
256,192,123374,1,0,0:0:0:0:
256,192,123465,1,0,0:0:0:0:
256,192,123556,1,8,0:0:0:0:
256,192,123647,1,8,0:0:0:0:
256,192,123738,1,0,0:0:0:0:
256,192,123829,1,8,0:0:0:0:
256,192,123920,1,8,0:0:0:0:
256,192,124010,1,0,0:0:0:0:
256,192,124101,1,8,0:0:0:0:
256,192,124192,1,0,0:0:0:0:
256,192,124283,1,0,0:0:0:0:
256,192,124374,1,8,0:0:0:0:
256,192,124465,1,0,0:0:0:0:
256,192,124556,1,8,0:0:0:0:
256,192,124647,1,0,0:0:0:0:
256,192,124738,1,8,0:0:0:0:
256,192,124829,1,8,0:0:0:0:
256,192,124920,1,0,0:0:0:0:
256,192,125010,1,0,0:0:0:0:
256,192,125101,1,8,0:0:0:0:
256,192,125465,1,4,0:0:0:0:
256,192,125647,1,8,0:0:0:0:
256,192,125738,1,0,0:0:0:0:
256,192,125829,1,8,0:0:0:0:
256,192,125920,1,8,0:0:0:0:
256,192,126010,1,8,0:0:0:0:
256,192,126101,1,0,0:0:0:0:
256,192,126192,1,8,0:0:0:0:
256,192,126253,1,8,0:0:0:0:
256,192,126313,1,8,0:0:0:0:
256,192,126374,1,0,0:0:0:0:
256,192,126556,1,8,0:0:0:0:
256,192,126647,1,8,0:0:0:0:
256,192,126738,1,0,0:0:0:0:
256,192,126829,1,0,0:0:0:0:
256,192,126920,1,8,0:0:0:0:
256,192,127010,1,0,0:0:0:0:
256,192,127101,1,8,0:0:0:0:
256,192,127192,1,8,0:0:0:0:
256,192,127283,1,0,0:0:0:0:
256,192,127465,1,8,0:0:0:0:
256,192,127556,1,0,0:0:0:0:
256,192,127647,1,8,0:0:0:0:
256,192,127738,1,8,0:0:0:0:
256,192,127829,1,0,0:0:0:0:
256,192,128010,1,8,0:0:0:0:
256,192,128192,1,8,0:0:0:0:
256,192,128283,1,0,0:0:0:0:
256,192,128374,1,8,0:0:0:0:
256,192,128556,1,0,0:0:0:0:
256,192,128647,1,8,0:0:0:0:
256,192,128738,1,8,0:0:0:0:
256,192,128829,1,0,0:0:0:0:
256,192,128920,1,8,0:0:0:0:
256,192,129101,1,0,0:0:0:0:
256,192,129192,1,8,0:0:0:0:
256,192,129283,1,8,0:0:0:0:
256,192,129374,1,0,0:0:0:0:
256,192,129465,1,8,0:0:0:0:
256,192,129556,1,0,0:0:0:0:
256,192,129647,1,0,0:0:0:0:
256,192,129738,1,8,0:0:0:0:
256,192,129920,1,0,0:0:0:0:
256,192,130010,1,8,0:0:0:0:
256,192,130101,1,0,0:0:0:0:
256,192,130192,1,8,0:0:0:0:
256,192,130283,1,0,0:0:0:0:
256,192,130374,1,0,0:0:0:0:
256,192,130465,1,0,0:0:0:0:
256,192,130556,1,8,0:0:0:0:
256,192,130647,1,0,0:0:0:0:
256,192,130738,1,8,0:0:0:0:
256,192,130920,1,4,0:0:0:0:
256,192,131101,1,8,0:0:0:0:
256,192,131192,1,8,0:0:0:0:
256,192,131283,1,0,0:0:0:0:
256,192,131374,1,0,0:0:0:0:
256,192,131465,1,8,0:0:0:0:
256,192,131556,1,8,0:0:0:0:
256,192,131738,1,8,0:0:0:0:
256,192,131829,1,0,0:0:0:0:
256,192,131920,1,0,0:0:0:0:
256,192,132010,1,8,0:0:0:0:
256,192,132071,1,8,0:0:0:0:
256,192,132132,1,8,0:0:0:0:
256,192,132192,1,0,0:0:0:0:
256,192,132374,1,0,0:0:0:0:
256,192,132465,1,0,0:0:0:0:
256,192,132556,1,8,0:0:0:0:
256,192,132647,1,8,0:0:0:0:
256,192,132738,1,0,0:0:0:0:
256,192,132829,1,8,0:0:0:0:
256,192,132920,1,0,0:0:0:0:
256,192,133010,1,0,0:0:0:0:
256,192,133101,1,8,0:0:0:0:
256,192,133283,1,8,0:0:0:0:
256,192,133374,1,8,0:0:0:0:
256,192,133465,1,0,0:0:0:0:
256,192,133556,1,8,0:0:0:0:
256,192,133647,1,0,0:0:0:0:
256,192,133829,1,8,0:0:0:0:
256,192,133920,1,8,0:0:0:0:
256,192,134010,1,0,0:0:0:0:
256,192,134101,1,0,0:0:0:0:
256,192,134192,1,8,0:0:0:0:
256,192,134374,1,8,0:0:0:0:
256,192,134465,1,0,0:0:0:0:
256,192,134556,1,8,0:0:0:0:
256,192,134647,1,8,0:0:0:0:
256,192,134738,1,8,0:0:0:0:
256,192,134829,1,0,0:0:0:0:
256,192,134920,1,8,0:0:0:0:
256,192,135101,1,8,0:0:0:0:
256,192,135192,1,8,0:0:0:0:
256,192,135283,1,0,0:0:0:0:
256,192,135374,1,0,0:0:0:0:
256,192,135465,1,8,0:0:0:0:
256,192,135556,1,0,0:0:0:0:
256,192,135647,1,8,0:0:0:0:
256,192,135738,1,8,0:0:0:0:
256,192,135829,1,8,0:0:0:0:
256,192,135920,1,8,0:0:0:0:
256,192,136010,1,0,0:0:0:0:
256,192,136101,1,0,0:0:0:0:
256,192,136192,1,8,0:0:0:0:
256,192,136283,1,0,0:0:0:0:
256,192,136374,1,8,0:0:0:0:
256,192,136465,1,8,0:0:0:0:
256,192,136556,1,0,0:0:0:0:
256,192,136738,1,12,0:0:0:0:
256,192,136920,1,0,0:0:0:0:
256,192,137010,1,0,0:0:0:0:
256,192,137101,1,8,0:0:0:0:
256,192,137283,1,8,0:0:0:0:
256,192,137374,1,8,0:0:0:0:
256,192,137465,1,0,0:0:0:0:
256,192,137556,1,8,0:0:0:0:
256,192,137647,1,0,0:0:0:0:
256,192,137829,1,8,0:0:0:0:
256,192,137920,1,8,0:0:0:0:
256,192,138010,1,0,0:0:0:0:
256,192,138101,1,0,0:0:0:0:
256,192,138192,1,8,0:0:0:0:
256,192,138374,1,0,0:0:0:0:
256,192,138465,1,8,0:0:0:0:
256,192,138556,1,8,0:0:0:0:
256,192,138647,1,8,0:0:0:0:
256,192,138738,1,0,0:0:0:0:
256,192,138920,1,8,0:0:0:0:
256,192,139010,1,0,0:0:0:0:
256,192,139101,1,8,0:0:0:0:
256,192,139283,1,0,0:0:0:0:
256,192,139647,1,12,0:0:0:0:
256,192,139829,1,0,0:0:0:0:
256,192,139920,1,8,0:0:0:0:
256,192,140101,1,8,0:0:0:0:
256,192,140192,1,0,0:0:0:0:
256,192,140283,1,8,0:0:0:0:
256,192,140465,1,0,0:0:0:0:
256,192,140556,1,8,0:0:0:0:
256,192,140647,1,0,0:0:0:0:
256,192,140738,1,8,0:0:0:0:
256,192,140829,1,8,0:0:0:0:
256,192,140920,1,0,0:0:0:0:
256,192,141101,1,8,0:0:0:0:
256,192,141192,1,8,0:0:0:0:
256,192,141283,1,8,0:0:0:0:
256,192,141374,1,0,0:0:0:0:
256,192,141465,1,8,0:0:0:0:
256,192,141647,1,0,0:0:0:0:
256,192,141738,1,0,0:0:0:0:
256,192,141829,1,8,0:0:0:0:
256,192,141920,1,8,0:0:0:0:
256,192,142010,1,0,0:0:0:0:
256,192,142101,1,0,0:0:0:0:
256,192,142192,1,8,0:0:0:0:
256,192,142374,1,8,0:0:0:0:
256,192,142556,1,4,0:0:0:0:
256,192,142920,1,12,0:0:0:0:
256,192,143101,1,0,0:0:0:0:
256,192,143192,1,0,0:0:0:0:
256,192,143283,1,8,0:0:0:0:
256,192,143374,1,0,0:0:0:0:
256,192,143465,1,8,0:0:0:0:
256,192,143647,1,8,0:0:0:0:
256,192,143738,1,8,0:0:0:0:
256,192,143829,1,0,0:0:0:0:
256,192,143920,1,0,0:0:0:0:
256,192,144010,1,8,0:0:0:0:
256,192,144192,1,8,0:0:0:0:
256,192,144283,1,8,0:0:0:0:
256,192,144374,1,0,0:0:0:0:
256,192,144465,1,0,0:0:0:0:
256,192,144556,1,8,0:0:0:0:
256,192,144647,1,8,0:0:0:0:
256,192,144738,1,0,0:0:0:0:
256,192,144829,1,8,0:0:0:0:
256,192,145010,1,0,0:0:0:0:
256,192,145101,1,8,0:0:0:0:
256,192,145192,1,8,0:0:0:0:
256,192,145283,1,0,0:0:0:0:
256,192,145374,1,0,0:0:0:0:
256,192,145465,1,8,0:0:0:0:
256,192,145556,1,8,0:0:0:0:
256,192,145647,1,0,0:0:0:0:
256,192,145738,1,0,0:0:0:0:
256,192,145829,1,8,0:0:0:0:
256,192,146010,1,8,0:0:0:0:
256,192,146101,1,0,0:0:0:0:
256,192,146192,1,8,0:0:0:0:
256,192,146283,1,8,0:0:0:0:
256,192,146374,1,0,0:0:0:0:
256,192,146465,1,0,0:0:0:0:
256,192,146556,1,8,0:0:0:0:
256,192,146647,1,0,0:0:0:0:
256,192,146738,1,8,0:0:0:0:
256,192,146920,1,8,0:0:0:0:
256,192,147010,1,8,0:0:0:0:
256,192,147101,1,0,0:0:0:0:
256,192,147192,1,0,0:0:0:0:
256,192,147283,1,8,0:0:0:0:
256,192,147465,1,8,0:0:0:0:
256,192,147556,1,8,0:0:0:0:
256,192,147647,1,0,0:0:0:0:
256,192,147738,1,0,0:0:0:0:
256,192,147829,1,8,0:0:0:0:
256,192,147920,1,8,0:0:0:0:
256,192,148010,1,0,0:0:0:0:
256,192,148101,1,8,0:0:0:0:
256,192,148192,1,0,0:0:0:0:
256,192,148374,1,0,0:0:0:0:
256,192,148556,2,4,L|349:190,1,77.0000023498536
