osu file format v14

[General]
AudioFilename: audio.mp3
AudioLeadIn: 0
PreviewTime: 85829
Countdown: 0
SampleSet: Normal
StackLeniency: 0.7
Mode: 1
LetterboxInBreaks: 0
WidescreenStoryboard: 0

[Editor]
Bookmarks: 26192,37829,52374,64010,87283
DistanceSpacing: 0.6
BeatDivisor: 6
GridSize: 32
TimelineZoom: 2.1

[Metadata]
Title:Hacktivism
TitleUnicode:Hacktivism
Artist:Aoi vs. siqlo
ArtistUnicode:Aoi vs. siqlo
Creator:Faputa
Version:Activism
Source:
Tags:第一回チュウニズム公募楽曲 Daiikkai CHUNITHM Koubo Gakkyoku レグルス Regurusu Regulus Electronic Instrumental
BeatmapID:3050826
BeatmapSetID:1488148

[Difficulty]
HPDrainRate:7
CircleSize:2
OverallDifficulty:8
ApproachRate:10
SliderMultiplier:1.4
SliderTickRate:1

[Events]
//Background and Video events
0,0,"Hacktivism.jpg",0,0
//Break Periods
//Storyboard Layer 0 (Background)
//Storyboard Layer 1 (Fail)
//Storyboard Layer 2 (Pass)
//Storyboard Layer 3 (Foreground)
//Storyboard Layer 4 (Overlay)
//Storyboard Sound Samples

[TimingPoints]
2920,363.636363636364,4,1,0,70,1,0
2920,-86.9565217391304,4,1,0,70,0,0
14465,-76.9230769230769,4,1,0,80,0,0
20374,-76.9230769230769,4,1,0,80,0,0
20556,-76.4236191780487,4,1,0,80,0,0
20738,-75.9306631556328,4,1,0,80,0,0
20920,-75.4439688959605,4,1,0,80,0,0
21101,-74.963530242537,4,1,0,80,0,0
21192,-74.7255703429156,4,1,0,80,0,0
21283,-74.4891163952035,4,1,0,80,0,0
21374,-74.2541541486538,4,1,0,80,0,0
21465,-74.0207243223958,4,1,0,80,0,0
21556,-73.7887030971332,4,1,0,80,0,0
21647,-73.5581318882593,4,1,0,80,0,0
21738,-73.3289971453021,4,1,0,80,0,0
21829,-73.1012854861053,4,1,0,80,0,0
22010,-72.650131496738,4,1,0,80,0,0
22101,-72.4266101159695,4,1,0,80,0,0
22192,-72.2044599250806,4,1,0,80,0,0
22374,-71.7642744524207,4,1,0,80,0,0
22465,-71.546162657339,4,1,0,80,0,0
22556,-71.3293726510346,4,1,0,80,0,0
22647,-71.1138924544604,4,1,0,80,0,0
22738,-70.899760500609,4,1,0,80,0,0
22829,-70.6868642600146,4,1,0,80,0,0
22920,-70.4752427519737,4,1,0,80,0,0
23010,-70.2648845618211,4,1,0,80,0,0
23101,-70.0557784107707,4,1,0,80,0,0
23192,-69.8479619412425,4,1,0,80,0,0
23283,-69.6413262772742,4,1,0,80,0,0
23374,-69.4359096138877,4,1,0,80,0,0
23465,-69.2317011959776,4,1,0,80,0,0
23556,-69.0286903945887,4,1,0,80,0,0
23647,-68.8269140764805,4,1,0,80,0,0
23738,-68.6262668408859,4,1,0,80,0,0
23829,-68.4267860759702,4,1,0,80,0,0
23920,-68.2284616392297,4,1,0,80,0,0
24010,-68.0312835054071,4,1,0,80,0,0
24101,-67.8352877810331,4,1,0,80,0,0
24192,-67.640372373778,4,1,0,80,0,0
24283,-67.4465738826632,4,1,0,80,0,0
24374,-67.253882734785,4,1,0,80,0,0
24465,-67.0623344398619,4,1,0,80,0,0
24556,-66.8718294393867,4,1,0,80,0,0
24647,-66.6824037139432,4,1,0,80,0,0
24738,-64.5161290322581,4,1,0,80,0,0
25101,-64.1025641025641,4,1,0,80,0,0
25465,-63.6942675159236,4,1,0,80,0,0
26192,-60.6060606060606,4,1,0,80,0,0
26374,-66.6666666666667,4,1,0,80,0,0
31283,-64.5161290322581,4,1,0,80,0,0
31465,-63.4920634920635,4,1,0,80,0,0
31510,-63.2411067193676,4,1,0,80,0,0
31556,-62.992125984252,4,1,0,80,0,0
31738,-62.015503875969,4,1,0,80,0,0
31829,-61.5384615384615,4,1,0,80,0,0
31920,-61.0687022900763,4,1,0,80,0,0
32010,-60.6060606060606,4,1,0,80,0,0
32192,-66.6666666666667,4,1,0,80,0,0
36283,-64.5161290322581,4,1,0,80,0,0
36647,-66.6666666666667,4,1,0,80,0,0
36829,-67.9012471422063,4,1,0,80,0,0
36920,-68.5358212750267,4,1,0,80,0,0
37010,-69.1823681816452,4,1,0,80,0,0
37101,-69.8412787100037,4,1,0,80,0,0
37192,-70.5128114727165,4,1,0,80,0,0
37283,-71.197434044477,4,1,0,80,0,0
37374,-71.895429535649,4,1,0,80,0,0
37465,-72.6072463484001,4,1,0,80,0,0
37647,-74.0740740740741,4,1,0,80,0,0
37829,-60.6060606060606,4,1,0,80,0,0
38010,-66.6666666666667,4,1,0,80,0,0
40283,-64.5161290322581,4,1,0,80,0,0
40556,-60.6060606060606,4,1,0,80,0,0
40920,-67.1140939597315,4,1,0,80,0,0
41010,-66.6666666666667,4,1,0,80,0,0
41101,-66.5284206086419,4,1,0,80,0,0
41192,-66.3907467232847,4,1,0,80,0,0
41374,-66.1171013204907,4,1,0,80,0,0
41556,-65.8457458051321,4,1,0,80,0,0
41738,-65.576565558532,4,1,0,80,0,0
41829,-65.4427990670475,4,1,0,80,0,0
41920,-65.3095771923282,4,1,0,80,0,0
42010,-65.176896615103,4,1,0,80,0,0
42192,-64.9131883475634,4,1,0,80,0,0
42374,-64.6515636303922,4,1,0,80,0,0
42465,-64.5215405163014,4,1,0,80,0,0
42556,-64.3920393409604,4,1,0,80,0,0
42647,-64.2630569679148,4,1,0,80,0,0
42738,-64.1345902857902,4,1,0,80,0,0
42920,-63.8791916727086,4,1,0,80,0,0
43010,-63.7522942856906,4,1,0,80,0,0
43101,-63.625859585363,4,1,0,80,0,0
43192,-63.4999253875877,4,1,0,80,0,0
43283,-63.3744887263122,4,1,0,80,0,0
43374,-63.2495466588743,4,1,0,80,0,0
43465,-63.1250962657718,4,1,0,80,0,0
43556,-63.0011346504351,4,1,0,80,0,0
43647,-62.8776589390024,4,1,0,80,0,0
43692,-62.8161221346426,4,1,0,80,0,0
43738,-62.754705661604,4,1,0,80,0,0
43829,-62.6321930725037,4,1,0,80,0,0
43920,-62.5101579006589,4,1,0,80,0,0
44010,-60.6060606060606,4,1,0,80,0,0
44192,-66.6666666666667,4,1,0,80,0,0
44283,-66.5586641409872,4,1,0,80,0,0
44465,-66.3437055082525,4,1,0,80,0,0
44556,-66.23674602712,4,1,0,80,0,0
44647,-66.130130871529,4,1,0,80,0,0
44738,-66.0238583814647,4,1,0,80,0,0
44783,-65.970806598664,4,1,0,80,0,0
44829,-65.9178834558637,4,1,0,80,0,0
44874,-65.865045157075,4,1,0,80,0,0
44920,-65.812291498434,4,1,0,80,0,0
45010,-65.7070372894007,4,1,0,80,0,0
45101,-65.602119210859,4,1,0,80,0,0
45192,-65.497535655221,4,1,0,80,0,0
45374,-65.2893657333987,4,1,0,80,0,0
45465,-65.1857762028894,4,1,0,80,0,0
45647,-64.9795801669325,4,1,0,80,0,0
45738,-64.8769705568844,4,1,0,80,0,0
45920,-64.6727204644536,4,1,0,80,0,0
46010,-64.5710352415796,4,1,0,80,0,0
46101,-64.4697108404529,4,1,0,80,0,0
46192,-64.3687039361462,4,1,0,80,0,0
46238,-64.3183190793219,4,1,0,80,0,0
46283,-64.2680130386945,4,1,0,80,0,0
46329,-64.2177856294724,4,1,0,80,0,0
46374,-64.167636667441,4,1,0,80,0,0
46465,-64.0675733509647,4,1,0,80,0,0
46556,-63.9678216270088,4,1,0,80,0,0
46601,-63.9180621577587,4,1,0,80,0,0
46647,-63.8683800424086,4,1,0,80,0,0
46692,-63.818775100722,4,1,0,80,0,0
46738,-63.769247153022,4,1,0,80,0,0
46829,-63.6704215236587,4,1,0,80,0,0
46920,-63.5719017280114,4,1,0,80,0,0
47010,-63.4736863485873,4,1,0,80,0,0
47101,-63.3757739766397,4,1,0,80,0,0
47192,-63.2781231708668,4,1,0,80,0,0
47283,-63.180812745339,4,1,0,80,0,0
47329,-63.1322696808537,4,1,0,80,0,0
47374,-63.0838011522887,4,1,0,80,0,0
47420,-63.0354069881052,4,1,0,80,0,0
47465,-62.9870870172906,4,1,0,80,0,0
47556,-62.890668974335,4,1,0,80,0,0
47647,-62.7945456657635,4,1,0,80,0,0
47738,-62.6987157422055,4,1,0,80,0,0
47829,-62.6031778625147,4,1,0,80,0,0
47920,-62.5079306937068,4,1,0,80,0,0
48010,-60.6060606060606,4,1,0,80,0,0
49465,-60.6060606060606,4,1,0,80,0,0
49556,-61.0156791990838,4,1,0,80,0,0
49647,-61.4308724535368,4,1,0,80,0,0
49738,-61.8517549507691,4,1,0,80,0,0
49829,-62.2784444339263,4,1,0,80,0,0
49920,-62.711061917767,4,1,0,80,0,0
50010,-63.149731803089,4,1,0,80,0,0
50101,-63.5945415533094,4,1,0,80,0,0
50192,-64.0457030136706,4,1,0,80,0,0
50283,-64.5033116000175,4,1,0,80,0,0
50374,-64.9675065016232,4,1,0,80,0,0
50465,-65.4384309434782,4,1,0,80,0,0
50556,-65.9162323336258,4,1,0,80,0,0
50647,-66.4010624169987,4,1,0,80,0,0
50738,-66.8930774360954,4,1,0,80,0,0
50829,-67.3924382988531,4,1,0,80,0,0
50920,-67.8993107540965,4,1,0,80,0,0
51010,-68.4138655749638,4,1,0,80,0,0
51101,-68.9362787507368,4,1,0,80,0,0
51192,-69.4667316875275,4,1,0,80,0,0
51283,-70.0053624107607,4,1,0,80,0,0
51374,-70.5524610462224,4,1,0,80,0,0
51465,-71.1081782938019,4,1,0,80,0,0
51556,-71.6727194278223,4,1,0,80,0,0
51647,-72.2462962936205,4,1,0,80,0,0
51738,-72.8291275725979,4,1,0,80,0,0
51829,-73.4214390602056,4,1,0,80,0,0
51920,-74.0234639576053,4,1,0,80,0,0
52010,-71.4285714285714,4,1,0,80,0,0
52374,-66.6666666666667,4,1,0,80,0,0
52556,-74.0740740740741,4,1,0,80,0,0
53829,-74.0740740740741,4,1,0,80,0,0
53874,-73.8177351537771,4,1,0,80,0,0
54010,-73.0593607305936,4,1,0,80,0,0
54056,-72.8099848700851,4,1,0,80,0,0
54192,-72.0720720720721,4,1,0,80,0,0
54238,-71.8293793654305,4,1,0,80,0,0
54374,-71.1111111111111,4,1,0,80,0,0
54420,-70.8748364563149,4,1,0,80,0,0
54556,-70.1754385964912,4,1,0,80,0,0
54601,-69.9453307295018,4,1,0,80,0,0
54738,-69.2640692640693,4,1,0,80,0,0
54783,-69.0398898675677,4,1,0,80,0,0
54920,-68.3760683760684,4,1,0,80,0,0
54965,-68.1575912561989,4,1,0,80,0,0
55101,-67.5105485232068,4,1,0,80,0,0
55147,-67.2975588483503,4,1,0,80,0,0
55283,-66.6666666666667,4,1,0,80,0,0
55647,-74.0740740740741,4,1,0,80,0,0
55738,-73.2600732600733,4,1,0,80,0,0
55829,-72.463768115942,4,1,0,80,0,0
55920,-71.6845878136201,4,1,0,80,0,0
56010,-70.9219858156028,4,1,0,80,0,0
56101,-70.1754385964912,4,1,0,80,0,0
56192,-69.4444444444444,4,1,0,80,0,0
56283,-68.7285223367698,4,1,0,80,0,0
56374,-68.0272108843538,4,1,0,80,0,0
56556,-66.6666666666667,4,1,0,80,0,0
56738,-70.1754385964912,4,1,0,80,0,0
56920,-74.0740740740741,4,1,0,80,0,0
57101,-72.9166438802155,4,1,0,80,0,0
57192,-72.3514137104482,4,1,0,80,0,0
57283,-71.7948791584491,4,1,0,80,0,0
57374,-71.246841093183,4,1,0,80,0,0
57465,-70.7070564228169,4,1,0,80,0,0
57556,-70.1754385964912,4,1,0,80,0,0
57647,-69.6517551545781,4,1,0,80,0,0
57829,-68.6274442522113,4,1,0,80,0,0
58010,-67.6328698452763,4,1,0,80,0,0
58101,-67.1462700918427,4,1,0,80,0,0
58192,-66.6666666666667,4,1,0,80,0,0
58374,-74.0740740740741,4,1,0,80,0,0
58465,-73.3991283119522,4,1,0,80,0,0
58556,-72.7363713860934,4,1,0,80,0,0
58647,-72.0855280373057,4,1,0,80,0,0
58738,-71.4461778081027,4,1,0,80,0,0
58829,-70.8180690886918,4,1,0,80,0,0
58920,-70.2009079785438,4,1,0,80,0,0
59010,-69.5944107336852,4,1,0,80,0,0
59101,-68.9983509394125,4,1,0,80,0,0
59192,-68.4123678615115,4,1,0,80,0,0
59283,-67.8362541363156,4,1,0,80,0,0
59465,-66.7126539227708,4,1,0,80,0,0
59647,-70.1754385964912,4,1,0,80,0,0
59829,-74.0740740740741,4,1,0,80,0,0
59874,-73.7812989492805,4,1,0,80,0,0
60010,-72.9166438802155,4,1,0,80,0,0
60101,-72.3514137104482,4,1,0,80,0,0
60192,-71.7948791584491,4,1,0,80,0,0
60283,-71.246841093183,4,1,0,80,0,0
60374,-70.7070564228169,4,1,0,80,0,0
60420,-70.4402444840006,4,1,0,80,0,0
60738,-68.6274442522113,4,1,0,80,0,0
60783,-68.3760683760684,4,1,0,80,0,0
60920,-67.6328698452763,4,1,0,80,0,0
60965,-67.388668864885,4,1,0,80,0,0
61101,-66.6666666666667,4,1,0,80,0,0
61283,-74.0740740740741,4,1,0,80,0,0
61374,-73.3991283119522,4,1,0,80,0,0
61465,-72.7363713860934,4,1,0,80,0,0
61556,-72.0855280373057,4,1,0,80,0,0
61647,-71.4461778081027,4,1,0,80,0,0
61738,-70.8180690886918,4,1,0,80,0,0
61829,-70.2009079785438,4,1,0,80,0,0
61920,-69.5944107336852,4,1,0,80,0,0
62010,-68.9983509394125,4,1,0,80,0,0
62101,-68.4123678615115,4,1,0,80,0,0
62192,-67.8362541363156,4,1,0,80,0,0
62283,-67.2697625108304,4,1,0,80,0,0
62374,-66.7126539227708,4,1,0,80,0,0
62556,-74.0740740740741,4,1,0,80,0,0
62647,-73.5632183908046,4,1,0,80,0,0
62738,-73.0593607305936,4,1,0,80,0,0
62829,-72.562358276644,4,1,0,80,0,0
62920,-72.0720720720721,4,1,0,80,0,0
63010,-71.5883668903803,4,1,0,80,0,0
63101,-71.1111111111111,4,1,0,80,0,0
63192,-70.6401766004415,4,1,0,80,0,0
63283,-70.1754385964912,4,1,0,80,0,0
63374,-69.7167755991285,4,1,0,80,0,0
63465,-69.2640692640693,4,1,0,80,0,0
63556,-68.8172043010753,4,1,0,80,0,0
63647,-68.3760683760684,4,1,0,80,0,0
63829,-67.5105485232068,4,1,0,80,0,0
64010,-66.6666666666667,4,1,0,80,0,0
64056,-66.6666666666667,4,1,0,60,0,0
65283,-71.4285714285714,4,1,0,50,0,0
66738,-76.9230769230769,4,1,0,40,0,0
68192,-83.3333333333333,4,1,0,30,0,0
69647,-90.9090909090909,4,1,0,20,0,0
71101,-100,4,1,0,20,0,0
74920,-100,4,1,0,30,0,0
75010,-100,4,1,0,40,0,0
75101,-100,4,1,0,50,0,0
75192,-100,4,1,0,60,0,0
75283,-100,4,1,0,70,0,0
75465,-86.9565217391304,4,1,0,80,0,0
81465,-86.9565217391304,4,1,0,80,0,0
81647,-87.6712328767123,4,1,0,80,0,0
81738,-88.0330511287158,4,1,0,80,0,0
81829,-88.3977900552486,4,1,0,80,0,0
82010,-89.1364902506964,4,1,0,80,0,0
82192,-89.8876404494382,4,1,0,80,0,0
82374,-90.6515580736544,4,1,0,80,0,0
82556,-91.4285714285714,4,1,0,80,0,0
82738,-92.2190201729107,4,1,0,80,0,0
82920,-93.0232558139535,4,1,0,80,0,0
83101,-93.841642228739,4,1,0,80,0,0
83192,-94.2563036259457,4,1,0,80,0,0
83283,-94.6745562130178,4,1,0,80,0,0
83465,-95.5223880597015,4,1,0,80,0,0
83556,-95.9520700219826,4,1,0,80,0,0
83647,-96.3855421686747,4,1,0,80,0,0
83738,-96.823042334907,4,1,0,80,0,0
83829,-97.2644376899696,4,1,0,80,0,0
84010,-98.159509202454,4,1,0,80,0,0
84192,-99.0712074303406,4,1,0,80,0,0
84374,-100,4,1,0,80,0,0
84465,-98.3695251211175,4,1,0,80,0,0
84556,-96.7914598959105,4,1,0,80,0,0
84647,-95.2631358338001,4,1,0,80,0,0
84738,-93.7824135466821,4,1,0,80,0,0
84829,-92.3469326504586,4,1,0,80,0,0
84920,-90.954733648158,4,1,0,80,0,0
85010,-89.6039683805516,4,1,0,80,0,0
85101,-88.2926583771633,4,1,0,80,0,0
85192,-87.0192512689582,4,1,0,80,0,0
85283,-85.7819799510357,4,1,0,80,0,0
85374,-84.5794708708302,4,1,0,80,0,0
85465,-83.4101401707405,4,1,0,80,0,0
85556,-82.2727010950497,4,1,0,80,0,0
85647,-81.1659323855317,4,1,0,80,0,0
85738,-80.0884817546425,4,1,0,80,0,0
85829,-76.9230769230769,4,1,0,80,0,0
86738,-55.5555555555556,4,1,0,90,0,0
87283,-55.5555555555556,4,1,0,90,0,1
87374,-62.5,4,1,0,90,0,1
91647,-62.5,4,1,0,90,0,1
91738,-62.111801242236,4,1,0,90,0,1
91829,-61.7283950617284,4,1,0,90,0,1
91874,-61.5384615384615,4,1,0,90,0,1
91920,-61.3496932515337,4,1,0,90,0,1
92010,-60.9756097560976,4,1,0,90,0,1
92101,-60.6060606060606,4,1,0,90,0,1
92192,-60.2409638554217,4,1,0,90,0,1
92283,-59.8802395209581,4,1,0,90,0,1
92374,-59.5238095238095,4,1,0,90,0,1
92420,-59.3471810089021,4,1,0,90,0,1
92465,-59.1715976331361,4,1,0,90,0,1
92510,-58.9970501474926,4,1,0,90,0,1
92556,-58.8235294117647,4,1,0,90,0,1
92647,-58.4795321637427,4,1,0,90,0,1
92738,-58.1395348837209,4,1,0,90,0,1
92829,-57.8034682080925,4,1,0,90,0,1
92920,-57.4712643678161,4,1,0,90,0,1
93010,-57.1428571428571,4,1,0,90,0,1
93101,-55.5555555555556,4,1,0,90,0,1
93192,-62.5,4,1,0,90,0,1
97465,-62.5,4,1,0,90,0,1
97556,-62.1761786893635,4,1,0,90,0,1
97647,-61.855657349349,4,1,0,90,0,1
97692,-61.6966707859477,4,1,0,90,0,1
97738,-61.5384615384615,4,1,0,90,0,1
97829,-61.2245022907148,4,1,0,90,0,1
97920,-60.9136932154938,4,1,0,90,0,1
97965,-60.7595059766088,4,1,0,90,0,1
98010,-60.6060606060606,4,1,0,90,0,1
98101,-60.3015196585969,4,1,0,90,0,1
98192,-59.9999880000024,4,1,0,90,0,1
98238,-59.8503860050645,4,1,0,90,0,1
98283,-59.7014925373134,4,1,0,90,0,1
98329,-59.5533380539279,4,1,0,90,0,1
98374,-59.4059523576143,4,1,0,90,0,1
98465,-59.1132888446721,4,1,0,90,0,1
98556,-58.8235294117647,4,1,0,90,0,1
98647,-58.5365967876286,4,1,0,90,0,1
98738,-58.2524158733173,4,1,0,90,0,1
98829,-57.9710144927536,4,1,0,90,0,1
98920,-57.6923187869844,4,1,0,90,0,0
98965,-57.5539568345324,4,1,0,90,0,0
99010,-57.4162569538264,4,1,0,90,0,0
99056,-57.2792472132214,4,1,0,90,0,0
99101,-57.1428571428571,4,1,0,90,0,0
99283,-55.5555555555556,4,1,0,90,0,1
99374,-62.5,4,1,0,90,0,1
103283,-62.5,4,1,0,90,0,1
103374,-62.1139231464429,4,1,0,90,0,1
103465,-61.7325867805839,4,1,0,90,0,1
103510,-61.5436880178132,4,1,0,90,0,1
103556,-61.355941770757,4,1,0,90,0,1
103738,-60.6162000431587,4,1,0,90,0,1
103829,-60.2529781540777,4,1,0,90,0,1
103874,-60.0730127396838,4,1,0,90,0,1
103920,-59.8941191761205,4,1,0,90,0,1
104010,-59.5394740759176,4,1,0,90,0,1
104101,-59.1890041035737,4,1,0,90,0,1
104192,-58.8426359617946,4,1,0,90,0,1
104238,-58.6709848511517,4,1,0,90,0,1
104283,-58.5003322818874,4,1,0,90,0,1
104374,-58.1619542881936,4,1,0,90,0,1
104465,-57.8274682787423,4,1,0,90,0,1
104556,-57.4968074897641,4,1,0,90,0,1
104601,-57.33290754094,4,1,0,90,0,1
104647,-57.1699393598453,4,1,0,90,0,1
104738,-55.5555555555556,4,1,0,90,0,1
104829,-62.5,4,1,0,90,0,1
107647,-62.5,4,1,0,90,0,1
107738,-62.3115465165042,4,1,0,90,0,1
107829,-62.1242646816722,4,1,0,90,0,1
107920,-61.9380668881572,4,1,0,90,0,1
108010,-61.7529818971134,4,1,0,90,0,1
108101,-61.5689997623437,4,1,0,90,0,1
108192,-61.3861483383997,4,1,0,90,0,1
108283,-61.2043423256793,4,1,0,90,0,1
108374,-61.0236100347224,4,1,0,90,0,1
108465,-60.843979001526,4,1,0,90,0,1
108556,-60.6653655967925,4,1,0,90,0,1
108647,-60.4877977965505,4,1,0,90,0,1
108738,-60.3112664461285,4,1,0,90,0,1
108829,-60.1357986605352,4,1,0,90,0,1
108920,-59.9613129608776,4,1,0,90,0,1
109010,-59.7878368820404,4,1,0,90,0,1
109101,-59.615397226334,4,1,0,90,0,1
109192,-59.4439140726333,4,1,0,90,0,1
109283,-59.2734146287973,4,1,0,90,0,1
109374,-59.1039253872046,4,1,0,90,0,1
109465,-58.9353679393956,4,1,0,90,0,1
109556,-58.7677691696055,4,1,0,90,0,1
109647,-58.601120922241,4,1,0,90,0,1
109738,-58.4354492809518,4,1,0,90,0,1
109829,-58.2706777870428,4,1,0,90,0,1
109920,-58.1068328986942,4,1,0,90,0,1
110010,-57.9439403965452,4,1,0,90,0,1
110101,-57.7819252359669,4,1,0,90,0,1
110192,-57.6208135597908,4,1,0,90,0,1
110238,-57.5406107245341,4,1,0,90,0,1
110283,-57.460597831552,4,1,0,90,0,1
110329,-57.3808400784511,4,1,0,90,0,1
110374,-57.3013034327492,4,1,0,90,0,1
110465,-57.1428571428571,4,1,0,90,0,1
110556,-55.5555555555556,4,1,0,90,0,0
111283,-66.6666666666667,4,1,0,90,0,0
111374,-65.8113386355335,4,1,0,90,0,0
111465,-64.9777223878793,4,1,0,90,0,0
111556,-64.1649192420326,4,1,0,90,0,0
111647,-63.3722396636708,4,1,0,90,0,0
111738,-62.5988670857035,4,1,0,90,0,0
111829,-61.8441428649176,4,1,0,90,0,0
111920,-61.1074378751233,4,1,0,90,0,0
112010,-60.3880414769224,4,1,0,90,0,0
112101,-59.6854220147292,4,1,0,90,0,0
112192,-58.9989297594142,4,1,0,90,0,0
112283,-58.3280838057908,4,1,0,90,0,0
112374,-57.6722887536153,4,1,0,90,0,0
112465,-57.0310762334396,4,1,0,90,0,0
112556,-56.4039970128443,4,1,0,90,0,0
112647,-55.7905266569926,4,1,0,90,0,0
112738,-55.1902878339081,4,1,0,90,0,0
112829,-54.6027974105169,4,1,0,90,0,0
112920,-54.0276827040639,4,1,0,90,0,0
112965,-53.7446591244995,4,1,0,90,0,0
113010,-53.464585326003,4,1,0,90,0,0
113056,-53.1874154320095,4,1,0,90,0,0
113101,-52.9130765144252,4,1,0,90,0,0
113192,-52.3728570336223,4,1,0,90,0,0
113283,-51.8435300052206,4,1,0,90,0,0
113374,-51.3248219670238,4,1,0,90,0,0
113465,-50,4,1,0,90,0,1
113556,-57.1428571428571,4,1,0,90,0,1
117829,-57.1428571428571,4,1,0,90,0,1
117920,-56.7107857676344,4,1,0,90,0,1
118010,-56.2851676763288,4,1,0,90,0,1
118056,-56.0747768364069,4,1,0,90,0,1
118101,-55.8659217877095,4,1,0,90,0,1
118192,-55.4528753147644,4,1,0,90,0,1
118283,-55.045861459475,4,1,0,90,0,1
118374,-54.6448087431694,4,1,0,90,0,1
118420,-54.4464510986477,4,1,0,90,0,1
118465,-54.2495577304806,4,1,0,90,0,1
118556,-53.8599544237066,4,1,0,90,0,1
118601,-53.667272570174,4,1,0,90,0,1
118647,-53.475935828877,4,1,0,90,0,1
118692,-53.2859585637729,4,1,0,90,0,1
118738,-53.0973545305052,4,1,0,90,0,1
118829,-52.7240680625539,4,1,0,90,0,1
118920,-52.3560209424084,4,1,0,90,0,1
118965,-52.1739039697558,4,1,0,90,0,1
119010,-51.9930766019197,4,1,0,90,0,1
119101,-51.6351029887947,4,1,0,90,0,1
119147,-51.4579848126904,4,1,0,90,0,1
119192,-51.2820512820513,4,1,0,90,0,1
119283,-50,4,1,0,90,0,1
119465,-57.1428571428571,4,1,0,90,0,1
123647,-57.1428571428571,4,1,0,90,0,1
123738,-56.7375886524823,4,1,0,90,0,1
123829,-56.3380281690141,4,1,0,90,0,1
123874,-56.140350877193,4,1,0,90,0,1
123920,-55.9440559440559,4,1,0,90,0,1
124010,-55.5555555555556,4,1,0,90,0,1
124101,-55.1724137931034,4,1,0,90,0,1
124147,-54.9828178694158,4,1,0,90,0,1
124192,-54.7945205479452,4,1,0,90,0,1
124283,-54.421768707483,4,1,0,90,0,1
124374,-54.054054054054,4,1,0,90,0,1
124420,-53.8720538720539,4,1,0,90,0,1
124465,-53.6912751677852,4,1,0,90,0,1
124510,-53.5117056856187,4,1,0,90,0,1
124556,-53.3333333333333,4,1,0,90,0,1
124647,-52.9801324503311,4,1,0,90,0,1
124738,-52.6315789473684,4,1,0,90,0,1
124829,-52.2875816993464,4,1,0,90,0,1
124920,-51.9480519480519,4,1,0,90,0,1
125010,-51.6129032258064,4,1,0,90,0,1
125101,-51.2820512820513,4,1,0,90,0,0
125465,-50,4,1,0,90,0,1
125647,-57.1428571428571,4,1,0,90,0,1
128010,-57.1428571428571,4,1,0,90,0,1
128056,-57.038004993107,4,1,0,90,0,1
128101,-56.9335369276614,4,1,0,90,0,1
128147,-56.8294508399677,4,1,0,90,0,1
128192,-56.7257124607671,4,1,0,90,0,1
128283,-56.519431663203,4,1,0,90,0,1
128374,-56.3146456935909,4,1,0,90,0,1
128420,-56.2128082007742,4,1,0,90,0,1
128465,-56.1113068772262,4,1,0,90,0,1
128556,-55.9094624528823,4,1,0,90,0,1
128647,-55.7090649790534,4,1,0,90,0,1
128692,-55.6094039950908,4,1,0,90,0,1
128738,-55.5100681386086,4,1,0,90,0,1
128829,-55.3125184951234,4,1,0,90,0,1
128920,-55.1163699476891,4,1,0,90,0,1
128965,-55.0188164352208,4,1,0,90,0,1
129010,-54.9216076433303,4,1,0,90,0,1
129101,-54.7281869865128,4,1,0,90,0,1
129192,-54.5361536523407,4,1,0,90,0,1
129238,-54.4406414631902,4,1,0,90,0,1
129283,-54.3454632407287,4,1,0,90,0,1
129374,-54.1560723850064,4,1,0,90,0,1
129465,-53.9680261032549,4,1,0,90,0,1
129510,-53.8744918288558,4,1,0,90,0,1
129556,-53.7812812099498,4,1,0,90,0,1
129647,-53.5957955170333,4,1,0,90,0,1
129738,-53.4116133939235,4,1,0,90,0,1
129783,-53.3199962249443,4,1,0,90,0,1
129829,-53.2286928204075,4,1,0,90,0,1
129920,-53.0469927394581,4,1,0,90,0,1
130010,-52.8665568804502,4,1,0,90,0,1
130056,-52.7767984749616,4,1,0,90,0,1
130101,-52.6873443418271,4,1,0,90,0,1
130147,-52.5981929364835,4,1,0,90,0,1
130192,-52.5093151525081,4,1,0,90,0,1
130283,-52.3325124106553,4,1,0,90,0,1
130374,-52.1568962891411,4,1,0,90,0,1
130465,-51.9824278600862,4,1,0,90,0,1
130556,-51.8091495994376,4,1,0,90,0,1
130647,-51.6370227125444,4,1,0,90,0,1
130738,-51.4660357616896,4,1,0,90,0,1
130829,-51.2961511471871,4,1,0,90,0,1
130920,-50,4,1,0,90,0,1
131101,-57.1428571428571,4,1,0,90,0,1
133829,-57.1428571428571,4,1,0,90,0,1
133920,-56.9329534766677,4,1,0,90,0,1
134010,-56.724618427673,4,1,0,90,0,1
134101,-56.5177706000209,4,1,0,90,0,1
134192,-56.3124575544851,4,1,0,90,0,1
134283,-56.1085993161484,4,1,0,90,0,1
134374,-55.9062117391863,4,1,0,90,0,1
134465,-55.7053099972649,4,1,0,90,0,1
134556,-55.5058161769481,4,1,0,90,0,1
134647,-55.3077461263837,4,1,0,90,0,1
134738,-55.1111150301237,4,1,0,90,0,1
134829,-54.9158469561244,4,1,0,90,0,1
134920,-54.7219876777028,4,1,0,90,0,1
135010,-54.5294625412584,4,1,0,90,0,1
135101,-54.3382873549915,4,1,0,90,0,1
135192,-54.1484772906701,4,1,0,90,0,1
135283,-53.9599595516143,4,1,0,90,0,1
135374,-53.7727788212684,4,1,0,90,0,1
135465,-53.5868635019337,4,1,0,90,0,1
135556,-53.4022293294656,4,1,0,90,0,1
135647,-53.218891429204,4,1,0,90,0,1
135738,-53.0367799461571,4,1,0,90,0,1
135829,-52.85593849683,4,1,0,90,0,1
135920,-52.6762983522327,4,1,0,90,0,1
136010,-52.4978751485034,4,1,0,90,0,1
136101,-52.3206839359804,4,1,0,90,0,1
136192,-52.1446576233925,4,1,0,90,0,1
136283,-51.9698117757357,4,1,0,90,0,1
136374,-51.7961613864796,4,1,0,90,0,1
136465,-51.6236409431226,4,1,0,90,0,1
136556,-51.4522924054358,4,1,0,90,0,1
136647,-51.2820512820513,4,1,0,90,0,1
136738,-50,4,1,0,90,0,0
136829,-53.3333333333333,4,1,0,90,0,0
139647,-50,4,1,0,90,0,0
139829,-53.3333333333333,4,1,0,90,0,0
142556,-51.2820512820513,4,1,0,90,0,0
142920,-50,4,1,0,90,0,0
143101,-53.3333333333333,4,1,0,90,0,0
146920,-53.3333333333333,4,1,0,90,0,0
147010,-54.0084534031267,4,1,0,90,0,0
147101,-54.7008547008547,4,1,0,90,0,0
147192,-55.4112400592235,4,1,0,90,0,0
147283,-56.140350877193,4,1,0,90,0,0
147374,-56.8889050706219,4,1,0,90,0,0
147465,-57.6576576576577,4,1,0,90,0,0
147556,-58.4474715039353,4,1,0,90,0,0
147647,-59.2592592592593,4,1,0,90,0,0
147738,-60.0939147700026,4,1,0,90,0,0
147829,-60.9523809523809,4,1,0,90,0,0
147920,-61.8357296739773,4,1,0,90,0,0
148010,-62.7450980392157,4,1,0,90,0,0
148101,-63.6816123165333,4,1,0,90,0,0
148192,-64.6464646464647,4,1,0,90,0,0
148283,-65.6410040973115,4,1,0,90,0,0
148374,-66.6666666666667,4,1,0,90,0,0
148556,-50,4,1,0,90,0,0

[HitObjects]
256,192,2920,5,4,0:0:0:0:
256,192,3101,1,8,0:0:0:0:
256,192,3283,1,0,0:0:0:0:
256,192,3465,1,0,0:0:0:0:
256,192,3647,1,8,0:0:0:0:
256,192,3829,1,0,0:0:0:0:
256,192,4010,1,0,0:0:0:0:
256,192,4192,1,8,0:0:0:0:
256,192,4647,1,0,0:0:0:0:
256,192,4738,1,8,0:0:0:0:
256,192,4920,1,0,0:0:0:0:
256,192,5101,1,0,0:0:0:0:
256,192,5283,1,0,0:0:0:0:
256,192,5465,1,8,0:0:0:0:
256,192,5738,1,0,0:0:0:0:
256,192,5829,1,0,0:0:0:0:
256,192,6101,1,0,0:0:0:0:
256,192,6192,1,0,0:0:0:0:
256,192,6374,1,0,0:0:0:0:
256,192,6556,1,8,0:0:0:0:
256,192,6738,1,0,0:0:0:0:
256,192,6920,1,0,0:0:0:0:
256,192,7101,1,8,0:0:0:0:
256,192,7465,1,0,0:0:0:0:
256,192,7556,1,0,0:0:0:0:
256,192,7647,1,8,0:0:0:0:
256,192,7829,1,0,0:0:0:0:
256,192,8010,1,8,0:0:0:0:
256,192,8192,1,0,0:0:0:0:
256,192,8283,1,0,0:0:0:0:
256,192,8374,1,8,0:0:0:0:
256,192,8556,1,0,0:0:0:0:
256,192,8738,1,0,0:0:0:0:
256,192,9101,1,0,0:0:0:0:
256,192,9283,1,0,0:0:0:0:
256,192,9465,1,8,0:0:0:0:
256,192,9647,1,0,0:0:0:0:
256,192,9738,1,0,0:0:0:0:
256,192,9829,1,0,0:0:0:0:
256,192,10010,1,8,0:0:0:0:
256,192,10192,1,0,0:0:0:0:
256,192,10465,1,0,0:0:0:0:
256,192,10556,1,8,0:0:0:0:
256,192,10738,1,0,0:0:0:0:
256,192,10920,1,0,0:0:0:0:
256,192,11101,1,0,0:0:0:0:
256,192,11283,1,8,0:0:0:0:
256,192,11465,1,0,0:0:0:0:
256,192,11556,1,0,0:0:0:0:
256,192,11647,1,0,0:0:0:0:
256,192,11920,1,0,0:0:0:0:
256,192,12010,1,0,0:0:0:0:
256,192,12192,1,0,0:0:0:0:
256,192,12374,1,8,0:0:0:0:
256,192,12556,1,0,0:0:0:0:
256,192,12738,1,0,0:0:0:0:
256,192,12920,1,8,0:0:0:0:
256,192,13101,1,0,0:0:0:0:
256,192,13283,1,8,0:0:0:0:
256,192,13374,1,0,0:0:0:0:
256,192,13465,1,8,0:0:0:0:
256,192,13647,1,0,0:0:0:0:
256,192,13829,1,8,0:0:0:0:
256,192,14010,1,0,0:0:0:0:
256,192,14101,1,0,0:0:0:0:
256,192,14192,1,8,0:0:0:0:
256,192,14374,1,0,0:0:0:0:
256,192,14556,1,12,0:0:0:0:
256,192,14738,1,8,0:0:0:0:
256,192,14783,1,8,0:0:0:0:
256,192,14829,1,0,0:0:0:0:
256,192,14920,1,0,0:0:0:0:
256,192,15010,1,8,0:0:0:0:
256,192,15056,1,8,0:0:0:0:
256,192,15101,1,0,0:0:0:0:
256,192,15283,1,0,0:0:0:0:
256,192,15465,1,8,0:0:0:0:
256,192,15647,1,0,0:0:0:0:
256,192,15829,1,0,0:0:0:0:
256,192,16010,1,8,0:0:0:0:
256,192,16101,1,8,0:0:0:0:
256,192,16192,1,0,0:0:0:0:
256,192,16283,1,8,0:0:0:0:
256,192,16329,1,8,0:0:0:0:
256,192,16374,1,8,0:0:0:0:
256,192,16420,1,8,0:0:0:0:
256,192,16465,1,0,0:0:0:0:
256,192,16556,1,0,0:0:0:0:
256,192,16647,1,0,0:0:0:0:
256,192,16738,1,8,0:0:0:0:
256,192,16829,1,8,0:0:0:0:
256,192,16920,1,8,0:0:0:0:
256,192,17010,1,0,0:0:0:0:
256,192,17101,1,8,0:0:0:0:
256,192,17192,1,0,0:0:0:0:
256,192,17283,1,0,0:0:0:0:
256,192,17374,1,0,0:0:0:0:
256,192,17465,1,8,0:0:0:0:
256,192,17556,1,0,0:0:0:0:
256,192,17647,1,8,0:0:0:0:
256,192,17692,1,8,0:0:0:0:
256,192,17738,1,0,0:0:0:0:
256,192,17829,1,0,0:0:0:0:
256,192,17920,1,8,0:0:0:0:
256,192,17965,1,8,0:0:0:0:
256,192,18010,1,0,0:0:0:0:
256,192,18192,1,0,0:0:0:0:
256,192,18374,1,8,0:0:0:0:
256,192,18556,1,0,0:0:0:0:
256,192,18647,1,0,0:0:0:0:
256,192,18738,1,8,0:0:0:0:
256,192,18829,1,8,0:0:0:0:
256,192,18920,1,0,0:0:0:0:
256,192,19010,1,8,0:0:0:0:
256,192,19101,1,0,0:0:0:0:
256,192,19192,1,8,0:0:0:0:
256,192,19283,1,8,0:0:0:0:
256,192,19374,1,8,0:0:0:0:
256,192,19465,1,8,0:0:0:0:
256,192,19556,1,8,0:0:0:0:
256,192,19647,1,0,0:0:0:0:
256,192,19768,1,0,0:0:0:0:
256,192,19889,1,0,0:0:0:0:
256,192,20010,1,8,0:0:0:0:
256,192,20056,1,8,0:0:0:0:
256,192,20101,1,8,0:0:0:0:
256,192,20147,1,8,0:0:0:0:
256,192,20192,1,0,0:0:0:0:
256,192,20283,1,0,0:0:0:0:
256,192,20374,1,8,0:0:0:0:
256,192,20556,1,8,0:0:0:0:
256,192,20738,1,0,0:0:0:0:
256,192,20920,1,0,0:0:0:0:
256,192,21101,1,8,0:0:0:0:
256,192,21192,1,0,0:0:0:0:
256,192,21283,1,8,0:0:0:0:
256,192,21374,1,8,0:0:0:0:
256,192,21465,1,0,0:0:0:0:
256,192,21556,1,8,0:0:0:0:
256,192,21647,1,0,0:0:0:0:
256,192,21738,1,0,0:0:0:0:
256,192,21829,1,8,0:0:0:0:
256,192,22010,1,8,0:0:0:0:
256,192,22101,1,8,0:0:0:0:
256,192,22192,1,0,0:0:0:0:
256,192,22374,1,0,0:0:0:0:
256,192,22465,1,8,0:0:0:0:
256,192,22556,1,0,0:0:0:0:
256,192,22647,1,0,0:0:0:0:
256,192,22738,1,8,0:0:0:0:
256,192,22829,1,0,0:0:0:0:
256,192,22920,1,8,0:0:0:0:
256,192,23010,1,8,0:0:0:0:
256,192,23101,1,0,0:0:0:0:
256,192,23192,1,0,0:0:0:0:
256,192,23283,1,8,0:0:0:0:
256,192,23374,1,8,0:0:0:0:
256,192,23465,1,0,0:0:0:0:
256,192,23556,1,8,0:0:0:0:
256,192,23647,1,0,0:0:0:0:
256,192,23738,1,0,0:0:0:0:
256,192,23829,1,8,0:0:0:0:
256,192,23920,1,8,0:0:0:0:
256,192,24010,1,0,0:0:0:0:
256,192,24101,1,8,0:0:0:0:
256,192,24192,1,0,0:0:0:0:
256,192,24283,1,0,0:0:0:0:
256,192,24374,1,8,0:0:0:0:
256,192,24465,1,8,0:0:0:0:
256,192,24556,1,0,0:0:0:0:
256,192,24647,1,8,0:0:0:0:
256,192,24738,1,4,0:0:0:0:
256,192,25101,1,4,0:0:0:0:
256,192,25465,1,4,0:0:0:0:
256,192,26192,1,12,0:0:0:0:
256,192,26465,1,0,0:0:0:0:
256,192,26556,1,8,0:0:0:0:
256,192,26647,1,0,0:0:0:0:
256,192,26738,1,0,0:0:0:0:
256,192,26829,1,8,0:0:0:0:
256,192,26920,1,0,0:0:0:0:
256,192,26965,1,0,0:0:0:0:
256,192,27010,1,0,0:0:0:0:
256,192,27101,1,8,0:0:0:0:
256,192,27192,1,0,0:0:0:0:
256,192,27283,1,8,0:0:0:0:
256,192,27329,1,8,0:0:0:0:
256,192,27374,1,0,0:0:0:0:
256,192,27465,1,8,0:0:0:0:
256,192,27510,1,8,0:0:0:0:
256,192,27556,1,8,0:0:0:0:
256,192,27647,1,0,0:0:0:0:
256,192,27829,1,0,0:0:0:0:
256,192,27920,1,8,0:0:0:0:
256,192,28010,1,0,0:0:0:0:
256,192,28101,1,8,0:0:0:0:
256,192,28192,1,8,0:0:0:0:
256,192,28283,1,8,0:0:0:0:
256,192,28374,1,0,0:0:0:0:
256,192,28465,1,0,0:0:0:0:
256,192,28556,1,0,0:0:0:0:
256,192,28647,1,0,0:0:0:0:
256,192,28738,1,8,0:0:0:0:
256,192,28829,1,0,0:0:0:0:
256,192,28920,1,8,0:0:0:0:
256,192,29010,1,0,0:0:0:0:
256,192,29101,1,8,0:0:0:0:
256,192,29147,1,8,0:0:0:0:
256,192,29192,1,0,0:0:0:0:
256,192,29238,1,0,0:0:0:0:
256,192,29283,1,8,0:0:0:0:
256,192,29374,1,8,0:0:0:0:
256,192,29465,1,0,0:0:0:0:
256,192,29556,1,8,0:0:0:0:
256,192,29647,1,8,0:0:0:0:
256,192,29738,1,8,0:0:0:0:
256,192,29829,1,0,0:0:0:0:
256,192,29874,1,0,0:0:0:0:
256,192,29920,1,0,0:0:0:0:
256,192,30010,1,8,0:0:0:0:
256,192,30101,1,0,0:0:0:0:
256,192,30192,1,8,0:0:0:0:
256,192,30283,1,0,0:0:0:0:
256,192,30329,1,0,0:0:0:0:
256,192,30374,1,8,0:0:0:0:
256,192,30465,1,8,0:0:0:0:
256,192,30556,1,0,0:0:0:0:
256,192,30738,1,8,0:0:0:0:
256,192,30829,1,0,0:0:0:0:
256,192,30920,1,8,0:0:0:0:
256,192,31010,1,0,0:0:0:0:
256,192,31101,1,8,0:0:0:0:
256,192,31192,1,8,0:0:0:0:
256,192,31283,1,4,0:0:0:0:
256,192,31465,1,8,0:0:0:0:
256,192,31510,1,8,0:0:0:0:
256,192,31556,1,0,0:0:0:0:
256,192,31738,1,8,0:0:0:0:
256,192,31829,1,8,0:0:0:0:
256,192,31920,1,8,0:0:0:0:
256,192,32010,1,4,0:0:0:0:
256,192,32283,1,0,0:0:0:0:
256,192,32374,1,8,0:0:0:0:
256,192,32465,1,0,0:0:0:0:
256,192,32556,1,8,0:0:0:0:
256,192,32647,1,8,0:0:0:0:
256,192,32738,1,0,0:0:0:0:
256,192,32829,1,8,0:0:0:0:
256,192,32874,1,8,0:0:0:0:
256,192,32920,1,0,0:0:0:0:
256,192,33010,1,0,0:0:0:0:
256,192,33101,1,8,0:0:0:0:
256,192,33192,1,8,0:0:0:0:
256,192,33283,1,0,0:0:0:0:
256,192,33374,1,8,0:0:0:0:
256,192,33465,1,0,0:0:0:0:
256,192,33510,1,0,0:0:0:0:
256,192,33556,1,0,0:0:0:0:
256,192,33601,1,0,0:0:0:0:
256,192,33647,1,8,0:0:0:0:
256,192,33738,1,8,0:0:0:0:
256,192,33829,1,0,0:0:0:0:
256,192,33920,1,8,0:0:0:0:
256,192,34010,1,0,0:0:0:0:
256,192,34056,1,0,0:0:0:0:
256,192,34101,1,0,0:0:0:0:
256,192,34192,1,8,0:0:0:0:
256,192,34238,1,8,0:0:0:0:
256,192,34283,1,8,0:0:0:0:
256,192,34329,1,8,0:0:0:0:
256,192,34374,1,0,0:0:0:0:
256,192,34465,1,0,0:0:0:0:
256,192,34556,1,8,0:0:0:0:
256,192,34647,1,0,0:0:0:0:
256,192,34738,1,8,0:0:0:0:
256,192,34829,1,8,0:0:0:0:
256,192,34920,1,0,0:0:0:0:
256,192,35010,1,8,0:0:0:0:
256,192,35192,1,8,0:0:0:0:
256,192,35283,1,0,0:0:0:0:
256,192,35374,1,0,0:0:0:0:
256,192,35465,1,8,0:0:0:0:
256,192,35556,1,8,0:0:0:0:
256,192,35647,1,0,0:0:0:0:
256,192,35738,1,0,0:0:0:0:
256,192,35829,1,8,0:0:0:0:
256,192,35920,1,0,0:0:0:0:
256,192,36010,1,8,0:0:0:0:
256,192,36192,1,8,0:0:0:0:
256,192,36374,1,4,0:0:0:0:
256,192,36647,1,0,0:0:0:0:
256,192,36829,1,0,0:0:0:0:
256,192,36920,1,8,0:0:0:0:
256,192,37010,1,8,0:0:0:0:
256,192,37101,1,0,0:0:0:0:
256,192,37192,1,8,0:0:0:0:
256,192,37283,1,0,0:0:0:0:
256,192,37374,1,0,0:0:0:0:
256,192,37465,1,8,0:0:0:0:
256,192,37647,1,8,0:0:0:0:
256,192,37829,1,12,0:0:0:0:
256,192,38101,1,0,0:0:0:0:
256,192,38192,1,8,0:0:0:0:
256,192,38283,1,0,0:0:0:0:
256,192,38374,1,8,0:0:0:0:
256,192,38556,1,0,0:0:0:0:
256,192,38647,1,0,0:0:0:0:
256,192,38738,1,8,0:0:0:0:
256,192,38829,1,0,0:0:0:0:
256,192,38920,1,8,0:0:0:0:
256,192,39010,1,8,0:0:0:0:
256,192,39101,1,8,0:0:0:0:
256,192,39283,1,0,0:0:0:0:
256,192,39374,1,8,0:0:0:0:
256,192,39465,1,8,0:0:0:0:
256,192,39556,1,0,0:0:0:0:
256,192,39647,1,8,0:0:0:0:
256,192,39738,1,0,0:0:0:0:
256,192,39829,1,0,0:0:0:0:
256,192,39920,1,8,0:0:0:0:
256,192,40010,1,0,0:0:0:0:
256,192,40192,1,0,0:0:0:0:
256,192,40374,1,12,0:0:0:0:
256,192,40738,1,4,0:0:0:0:
256,192,40920,1,8,0:0:0:0:
256,192,41010,1,8,0:0:0:0:
256,192,41101,1,0,0:0:0:0:
256,192,41192,1,0,0:0:0:0:
256,192,41374,1,8,0:0:0:0:
256,192,41556,1,0,0:0:0:0:
256,192,41738,1,8,0:0:0:0:
256,192,41829,1,0,0:0:0:0:
256,192,41920,1,0,0:0:0:0:
256,192,42010,1,8,0:0:0:0:
256,192,42192,1,0,0:0:0:0:
256,192,42374,1,8,0:0:0:0:
256,192,42465,1,8,0:0:0:0:
256,192,42556,1,0,0:0:0:0:
256,192,42647,1,8,0:0:0:0:
256,192,42738,1,0,0:0:0:0:
256,192,42920,1,8,0:0:0:0:
256,192,43010,1,0,0:0:0:0:
256,192,43101,1,8,0:0:0:0:
256,192,43192,1,8,0:0:0:0:
256,192,43283,1,8,0:0:0:0:
256,192,43374,1,0,0:0:0:0:
256,192,43465,1,0,0:0:0:0:
256,192,43556,1,0,0:0:0:0:
256,192,43647,1,8,0:0:0:0:
256,192,43692,1,8,0:0:0:0:
256,192,43738,1,8,0:0:0:0:
256,192,43829,1,8,0:0:0:0:
256,192,43920,1,8,0:0:0:0:
256,192,44010,1,4,0:0:0:0:
256,192,44192,1,0,0:0:0:0:
256,192,44283,1,8,0:0:0:0:
256,192,44465,1,0,0:0:0:0:
256,192,44556,1,8,0:0:0:0:
256,192,44647,1,0,0:0:0:0:
256,192,44738,1,8,0:0:0:0:
256,192,44783,1,8,0:0:0:0:
256,192,44829,1,8,0:0:0:0:
256,192,44874,1,8,0:0:0:0:
256,192,44920,1,0,0:0:0:0:
256,192,45010,1,0,0:0:0:0:
256,192,45101,1,0,0:0:0:0:
256,192,45192,1,8,0:0:0:0:
256,192,45374,1,8,0:0:0:0:
256,192,45465,1,0,0:0:0:0:
256,192,45647,1,8,0:0:0:0:
256,192,45738,1,8,0:0:0:0:
256,192,45920,1,0,0:0:0:0:
256,192,46010,1,8,0:0:0:0:
256,192,46101,1,0,0:0:0:0:
256,192,46192,1,8,0:0:0:0:
256,192,46238,1,8,0:0:0:0:
256,192,46283,1,8,0:0:0:0:
256,192,46329,1,8,0:0:0:0:
256,192,46374,1,0,0:0:0:0:
256,192,46465,1,0,0:0:0:0:
256,192,46556,1,8,0:0:0:0:
256,192,46601,1,8,0:0:0:0:
256,192,46647,1,8,0:0:0:0:
256,192,46692,1,8,0:0:0:0:
256,192,46738,1,0,0:0:0:0:
256,192,46829,1,0,0:0:0:0:
256,192,46920,1,8,0:0:0:0:
256,192,47010,1,0,0:0:0:0:
256,192,47101,1,8,0:0:0:0:
256,192,47192,1,0,0:0:0:0:
256,192,47283,1,8,0:0:0:0:
256,192,47329,1,8,0:0:0:0:
256,192,47374,1,8,0:0:0:0:
256,192,47420,1,8,0:0:0:0:
256,192,47465,1,0,0:0:0:0:
256,192,47556,1,8,0:0:0:0:
256,192,47647,1,0,0:0:0:0:
256,192,47738,1,0,0:0:0:0:
256,192,47829,1,8,0:0:0:0:
256,192,47920,1,8,0:0:0:0:
256,192,48010,1,4,0:0:0:0:
256,192,48192,2,4,L|288:128,12,57.7500005507469
256,192,49465,1,8,0:0:0:0:
256,192,49556,1,0,0:0:0:0:
256,192,49647,1,0,0:0:0:0:
256,192,49738,1,8,0:0:0:0:
256,192,49829,1,0,0:0:0:0:
256,192,49920,1,0,0:0:0:0:
256,192,50010,1,8,0:0:0:0:
256,192,50101,1,0,0:0:0:0:
256,192,50192,1,8,0:0:0:0:
256,192,50283,1,0,0:0:0:0:
256,192,50374,1,0,0:0:0:0:
256,192,50465,1,8,0:0:0:0:
256,192,50556,1,8,0:0:0:0:
256,192,50647,1,0,0:0:0:0:
256,192,50738,1,8,0:0:0:0:
256,192,50829,1,0,0:0:0:0:
256,192,50920,1,8,0:0:0:0:
256,192,51010,1,0,0:0:0:0:
256,192,51101,1,0,0:0:0:0:
256,192,51192,1,8,0:0:0:0:
256,192,51283,1,0,0:0:0:0:
256,192,51374,1,0,0:0:0:0:
256,192,51465,1,8,0:0:0:0:
256,192,51556,1,0,0:0:0:0:
256,192,51647,1,8,0:0:0:0:
256,192,51738,1,8,0:0:0:0:
256,192,51829,1,8,0:0:0:0:
256,192,51920,1,8,0:0:0:0:
256,192,52010,1,4,0:0:0:0:
256,192,52374,1,12,0:0:0:0:
256,192,52738,1,8,0:0:0:0:
256,192,52829,1,8,0:0:0:0:
256,192,52920,1,8,0:0:0:0:
256,192,53010,1,8,0:0:0:0:
256,192,53101,1,0,0:0:0:0:
256,192,53192,1,0,0:0:0:0:
256,192,53283,1,8,0:0:0:0:
256,192,53374,1,8,0:0:0:0:
256,192,53465,1,0,0:0:0:0:
256,192,53510,1,0,0:0:0:0:
256,192,53647,1,0,0:0:0:0:
256,192,53692,1,0,0:0:0:0:
256,192,53829,1,0,0:0:0:0:
256,192,53874,1,0,0:0:0:0:
256,192,54010,1,8,0:0:0:0:
256,192,54056,1,8,0:0:0:0:
256,192,54192,1,0,0:0:0:0:
256,192,54238,1,8,0:0:0:0:
256,192,54374,1,0,0:0:0:0:
256,192,54420,1,8,0:0:0:0:
256,192,54556,1,8,0:0:0:0:
256,192,54601,1,8,0:0:0:0:
256,192,54738,1,8,0:0:0:0:
256,192,54783,1,8,0:0:0:0:
256,192,54920,1,0,0:0:0:0:
256,192,54965,1,8,0:0:0:0:
256,192,55101,1,0,0:0:0:0:
256,192,55147,1,8,0:0:0:0:
256,192,55283,1,4,0:0:0:0:
256,192,55647,1,8,0:0:0:0:
256,192,55738,1,8,0:0:0:0:
256,192,55829,1,8,0:0:0:0:
256,192,55920,1,8,0:0:0:0:
256,192,56010,1,0,0:0:0:0:
256,192,56101,1,0,0:0:0:0:
256,192,56192,1,8,0:0:0:0:
256,192,56283,1,0,0:0:0:0:
256,192,56374,1,8,0:0:0:0:
256,192,56556,1,4,0:0:0:0:
256,192,56920,1,8,0:0:0:0:
256,192,57101,1,0,0:0:0:0:
256,192,57192,1,0,0:0:0:0:
256,192,57283,1,8,0:0:0:0:
256,192,57374,1,0,0:0:0:0:
256,192,57465,1,8,0:0:0:0:
256,192,57556,1,8,0:0:0:0:
256,192,57647,1,0,0:0:0:0:
256,192,57829,1,8,0:0:0:0:
256,192,58010,1,0,0:0:0:0:
256,192,58101,1,8,0:0:0:0:
256,192,58192,1,4,0:0:0:0:
256,192,58374,1,0,0:0:0:0:
256,192,58465,1,0,0:0:0:0:
256,192,58556,1,8,0:0:0:0:
256,192,58647,1,8,0:0:0:0:
256,192,58738,1,8,0:0:0:0:
256,192,58829,1,0,0:0:0:0:
256,192,58920,1,8,0:0:0:0:
256,192,59010,1,8,0:0:0:0:
256,192,59101,1,0,0:0:0:0:
256,192,59192,1,0,0:0:0:0:
256,192,59283,1,8,0:0:0:0:
256,192,59465,1,4,0:0:0:0:
256,192,59829,1,0,0:0:0:0:
256,192,59874,1,8,0:0:0:0:
256,192,60010,1,8,0:0:0:0:
256,192,60101,1,8,0:0:0:0:
256,192,60192,1,8,0:0:0:0:
256,192,60283,1,0,0:0:0:0:
256,192,60374,1,8,0:0:0:0:
256,192,60420,1,8,0:0:0:0:
256,192,60738,1,0,0:0:0:0:
256,192,60783,1,8,0:0:0:0:
256,192,60920,1,0,0:0:0:0:
256,192,60965,1,8,0:0:0:0:
256,192,61101,1,4,0:0:0:0:
256,192,61283,1,0,0:0:0:0:
256,192,61374,1,0,0:0:0:0:
256,192,61465,1,8,0:0:0:0:
256,192,61556,1,8,0:0:0:0:
256,192,61647,1,0,0:0:0:0:
256,192,61738,1,0,0:0:0:0:
256,192,61829,1,8,0:0:0:0:
256,192,61920,1,0,0:0:0:0:
256,192,62010,1,8,0:0:0:0:
256,192,62101,1,8,0:0:0:0:
256,192,62192,1,0,0:0:0:0:
256,192,62283,1,0,0:0:0:0:
256,192,62374,1,12,0:0:0:0:
256,192,62556,1,0,0:0:0:0:
256,192,62647,1,8,0:0:0:0:
256,192,62738,1,0,0:0:0:0:
256,192,62829,1,8,0:0:0:0:
256,192,62920,1,0,0:0:0:0:
256,192,63010,1,0,0:0:0:0:
256,192,63101,1,8,0:0:0:0:
256,192,63192,1,0,0:0:0:0:
256,192,63283,1,8,0:0:0:0:
256,192,63374,1,8,0:0:0:0:
256,192,63465,1,0,0:0:0:0:
256,192,63556,1,0,0:0:0:0:
256,192,63647,1,8,0:0:0:0:
256,192,63829,1,8,0:0:0:0:
256,192,64010,1,4,0:0:0:0:
256,192,64192,12,0,69829,0:0:0:0:
256,192,74192,12,0,75283,0:0:0:0:
256,192,75647,5,4,0:0:0:0:
256,192,76192,1,4,0:0:0:0:
256,192,76920,1,12,0:0:0:0:
256,192,77283,1,12,0:0:0:0:
256,192,77647,1,4,0:0:0:0:
256,192,78010,1,0,0:0:0:0:
256,192,78192,1,12,0:0:0:0:
256,192,78556,1,4,0:0:0:0:
256,192,79101,1,4,0:0:0:0:
256,192,79829,1,12,0:0:0:0:
256,192,80192,1,12,0:0:0:0:
256,192,80556,1,4,0:0:0:0:
256,192,80738,1,4,0:0:0:0:
256,192,80920,1,0,0:0:0:0:
256,192,80965,1,0,0:0:0:0:
256,192,81010,1,0,0:0:0:0:
256,192,81101,1,12,0:0:0:0:
256,192,81465,1,12,0:0:0:0:
256,192,81647,1,0,0:0:0:0:
256,192,81738,1,8,0:0:0:0:
256,192,81829,1,0,0:0:0:0:
256,192,82010,1,8,0:0:0:0:
256,192,82192,1,0,0:0:0:0:
256,192,82374,1,0,0:0:0:0:
256,192,82556,1,8,0:0:0:0:
256,192,82738,1,0,0:0:0:0:
256,192,82920,1,12,0:0:0:0:
256,192,83101,1,0,0:0:0:0:
256,192,83192,1,0,0:0:0:0:
256,192,83283,1,8,0:0:0:0:
256,192,83465,1,0,0:0:0:0:
256,192,83556,1,8,0:0:0:0:
256,192,83647,1,0,0:0:0:0:
256,192,83738,1,8,0:0:0:0:
256,192,83829,1,0,0:0:0:0:
256,192,84010,1,8,0:0:0:0:
256,192,84192,1,0,0:0:0:0:
256,192,84374,1,8,0:0:0:0:
256,192,84465,1,8,0:0:0:0:
256,192,84556,1,0,0:0:0:0:
256,192,84647,1,8,0:0:0:0:
256,192,84738,1,0,0:0:0:0:
256,192,84829,1,0,0:0:0:0:
256,192,84920,1,8,0:0:0:0:
256,192,85010,1,8,0:0:0:0:
256,192,85101,1,0,0:0:0:0:
256,192,85192,1,8,0:0:0:0:
256,192,85283,1,0,0:0:0:0:
256,192,85374,1,0,0:0:0:0:
256,192,85465,1,8,0:0:0:0:
256,192,85556,1,8,0:0:0:0:
256,192,85647,1,0,0:0:0:0:
256,192,85738,1,0,0:0:0:0:
256,192,85829,1,12,0:0:0:0:
256,192,86920,1,4,0:0:0:0:
256,192,87283,1,12,0:0:0:0:
256,192,87465,1,0,0:0:0:0:
256,192,87556,1,0,0:0:0:0:
256,192,87647,1,8,0:0:0:0:
256,192,87738,1,8,0:0:0:0:
256,192,87829,1,0,0:0:0:0:
256,192,87874,1,0,0:0:0:0:
256,192,87920,1,0,0:0:0:0:
256,192,88101,1,8,0:0:0:0:
256,192,88192,1,0,0:0:0:0:
256,192,88283,1,8,0:0:0:0:
256,192,88374,1,0,0:0:0:0:
256,192,88435,1,8,0:0:0:0:
256,192,88495,1,8,0:0:0:0:
256,192,88556,1,0,0:0:0:0:
256,192,88647,1,0,0:0:0:0:
256,192,88738,1,8,0:0:0:0:
256,192,88829,1,8,0:0:0:0:
256,192,88920,1,0,0:0:0:0:
256,192,88965,1,0,0:0:0:0:
256,192,89010,1,0,0:0:0:0:
256,192,89192,1,8,0:0:0:0:
256,192,89283,1,0,0:0:0:0:
256,192,89329,1,0,0:0:0:0:
256,192,89374,1,8,0:0:0:0:
256,192,89465,1,0,0:0:0:0:
256,192,89556,1,8,0:0:0:0:
256,192,89647,1,0,0:0:0:0:
256,192,89692,1,0,0:0:0:0:
256,192,89738,1,0,0:0:0:0:
256,192,89920,1,0,0:0:0:0:
256,192,90010,1,8,0:0:0:0:
256,192,90101,1,0,0:0:0:0:
256,192,90192,1,8,0:0:0:0:
256,192,90238,1,8,0:0:0:0:
256,192,90283,1,0,0:0:0:0:
256,192,90329,1,0,0:0:0:0:
256,192,90374,1,8,0:0:0:0:
256,192,90465,1,8,0:0:0:0:
256,192,90556,1,0,0:0:0:0:
256,192,90647,1,0,0:0:0:0:
256,192,90738,1,8,0:0:0:0:
256,192,90783,1,8,0:0:0:0:
256,192,90829,1,0,0:0:0:0:
256,192,90920,1,8,0:0:0:0:
256,192,91010,1,0,0:0:0:0:
256,192,91101,1,8,0:0:0:0:
256,192,91147,1,8,0:0:0:0:
256,192,91192,1,8,0:0:0:0:
256,192,91283,1,0,0:0:0:0:
256,192,91465,1,8,0:0:0:0:
256,192,91510,1,8,0:0:0:0:
256,192,91556,1,8,0:0:0:0:
256,192,91647,1,0,0:0:0:0:
256,192,91738,1,0,0:0:0:0:
256,192,91829,1,8,0:0:0:0:
256,192,91874,1,8,0:0:0:0:
256,192,91920,1,0,0:0:0:0:
256,192,92010,1,8,0:0:0:0:
256,192,92101,1,0,0:0:0:0:
256,192,92192,1,8,0:0:0:0:
256,192,92283,1,8,0:0:0:0:
256,192,92374,1,0,0:0:0:0:
256,192,92420,1,0,0:0:0:0:
256,192,92465,1,8,0:0:0:0:
256,192,92510,1,8,0:0:0:0:
256,192,92556,1,0,0:0:0:0:
256,192,92647,1,0,0:0:0:0:
256,192,92738,1,8,0:0:0:0:
256,192,92829,1,8,0:0:0:0:
256,192,92920,1,0,0:0:0:0:
256,192,93010,1,0,0:0:0:0:
256,192,93101,1,12,0:0:0:0:
256,192,93283,1,0,0:0:0:0:
256,192,93374,1,0,0:0:0:0:
256,192,93465,1,0,0:0:0:0:
256,192,93556,1,8,0:0:0:0:
256,192,93647,1,0,0:0:0:0:
256,192,93692,1,0,0:0:0:0:
256,192,93738,1,8,0:0:0:0:
256,192,93920,1,0,0:0:0:0:
256,192,94010,1,8,0:0:0:0:
256,192,94101,1,0,0:0:0:0:
256,192,94192,1,8,0:0:0:0:
256,192,94253,1,8,0:0:0:0:
256,192,94313,1,8,0:0:0:0:
256,192,94374,1,0,0:0:0:0:
256,192,94465,1,0,0:0:0:0:
256,192,94556,1,8,0:0:0:0:
256,192,94647,1,0,0:0:0:0:
256,192,94738,1,8,0:0:0:0:
256,192,94783,1,8,0:0:0:0:
256,192,94829,1,8,0:0:0:0:
256,192,94920,1,0,0:0:0:0:
256,192,95010,1,0,0:0:0:0:
256,192,95101,1,8,0:0:0:0:
256,192,95147,1,8,0:0:0:0:
256,192,95192,1,0,0:0:0:0:
256,192,95283,1,8,0:0:0:0:
256,192,95374,1,0,0:0:0:0:
256,192,95465,1,8,0:0:0:0:
256,192,95510,1,8,0:0:0:0:
256,192,95556,1,8,0:0:0:0:
256,192,95738,1,0,0:0:0:0:
256,192,95829,1,8,0:0:0:0:
256,192,95920,1,8,0:0:0:0:
256,192,96010,1,0,0:0:0:0:
256,192,96056,1,0,0:0:0:0:
256,192,96101,1,8,0:0:0:0:
256,192,96147,1,8,0:0:0:0:
256,192,96192,1,0,0:0:0:0:
256,192,96283,1,8,0:0:0:0:
256,192,96465,1,8,0:0:0:0:
256,192,96556,1,0,0:0:0:0:
256,192,96601,1,0,0:0:0:0:
256,192,96647,1,8,0:0:0:0:
256,192,96738,1,8,0:0:0:0:
256,192,96829,1,0,0:0:0:0:
256,192,96920,1,8,0:0:0:0:
256,192,96965,1,8,0:0:0:0:
256,192,97010,1,0,0:0:0:0:
256,192,97101,1,0,0:0:0:0:
256,192,97192,1,8,0:0:0:0:
256,192,97283,1,0,0:0:0:0:
256,192,97329,1,0,0:0:0:0:
256,192,97374,1,0,0:0:0:0:
256,192,97465,1,8,0:0:0:0:
256,192,97556,1,0,0:0:0:0:
256,192,97647,1,8,0:0:0:0:
256,192,97692,1,8,0:0:0:0:
256,192,97738,1,0,0:0:0:0:
256,192,97829,1,0,0:0:0:0:
256,192,97920,1,8,0:0:0:0:
256,192,97965,1,8,0:0:0:0:
256,192,98010,1,0,0:0:0:0:
256,192,98101,1,0,0:0:0:0:
256,192,98192,1,8,0:0:0:0:
256,192,98238,1,8,0:0:0:0:
256,192,98283,1,0,0:0:0:0:
256,192,98329,1,0,0:0:0:0:
256,192,98374,1,8,0:0:0:0:
256,192,98465,1,8,0:0:0:0:
256,192,98556,1,0,0:0:0:0:
256,192,98647,1,0,0:0:0:0:
256,192,98738,1,8,0:0:0:0:
256,192,98829,1,0,0:0:0:0:
256,192,98920,1,8,0:0:0:0:
256,192,98965,1,8,0:0:0:0:
256,192,99010,1,8,0:0:0:0:
256,192,99056,1,8,0:0:0:0:
256,192,99101,1,8,0:0:0:0:
256,192,99283,1,12,0:0:0:0:
256,192,99465,1,0,0:0:0:0:
256,192,99556,1,8,0:0:0:0:
256,192,99647,1,0,0:0:0:0:
256,192,99738,1,8,0:0:0:0:
256,192,99829,1,0,0:0:0:0:
256,192,99920,1,0,0:0:0:0:
256,192,100010,1,8,0:0:0:0:
256,192,100071,1,8,0:0:0:0:
256,192,100132,1,8,0:0:0:0:
256,192,100192,1,0,0:0:0:0:
256,192,100283,1,0,0:0:0:0:
256,192,100374,1,8,0:0:0:0:
256,192,100465,1,0,0:0:0:0:
256,192,100556,1,8,0:0:0:0:
256,192,100601,1,8,0:0:0:0:
256,192,100647,1,0,0:0:0:0:
256,192,100738,1,8,0:0:0:0:
256,192,100920,1,8,0:0:0:0:
256,192,100965,1,8,0:0:0:0:
256,192,101010,1,8,0:0:0:0:
256,192,101101,1,0,0:0:0:0:
256,192,101192,1,8,0:0:0:0:
256,192,101283,1,0,0:0:0:0:
256,192,101329,1,0,0:0:0:0:
256,192,101374,1,0,0:0:0:0:
256,192,101465,1,8,0:0:0:0:
256,192,101556,1,0,0:0:0:0:
256,192,101647,1,8,0:0:0:0:
256,192,101692,1,8,0:0:0:0:
256,192,101738,1,0,0:0:0:0:
256,192,101829,1,8,0:0:0:0:
256,192,101920,1,8,0:0:0:0:
256,192,102010,1,0,0:0:0:0:
256,192,102056,1,0,0:0:0:0:
256,192,102101,1,0,0:0:0:0:
256,192,102192,1,8,0:0:0:0:
256,192,102374,1,0,0:0:0:0:
256,192,102420,1,0,0:0:0:0:
256,192,102465,1,0,0:0:0:0:
256,192,102556,1,8,0:0:0:0:
256,192,102647,1,8,0:0:0:0:
256,192,102738,1,0,0:0:0:0:
256,192,102783,1,0,0:0:0:0:
256,192,102829,1,8,0:0:0:0:
256,192,102920,1,0,0:0:0:0:
256,192,103010,1,0,0:0:0:0:
256,192,103101,1,8,0:0:0:0:
256,192,103147,1,8,0:0:0:0:
256,192,103192,1,8,0:0:0:0:
256,192,103283,1,0,0:0:0:0:
256,192,103374,1,0,0:0:0:0:
256,192,103465,1,8,0:0:0:0:
256,192,103510,1,8,0:0:0:0:
256,192,103556,1,0,0:0:0:0:
256,192,103738,1,8,0:0:0:0:
256,192,103829,1,0,0:0:0:0:
256,192,103874,1,0,0:0:0:0:
256,192,103920,1,8,0:0:0:0:
256,192,104010,1,0,0:0:0:0:
256,192,104101,1,0,0:0:0:0:
256,192,104192,1,8,0:0:0:0:
256,192,104238,1,8,0:0:0:0:
256,192,104283,1,0,0:0:0:0:
256,192,104374,1,8,0:0:0:0:
256,192,104465,1,8,0:0:0:0:
256,192,104556,1,0,0:0:0:0:
256,192,104601,1,0,0:0:0:0:
256,192,104647,1,0,0:0:0:0:
256,192,104738,1,12,0:0:0:0:
256,192,104920,1,0,0:0:0:0:
256,192,104965,1,0,0:0:0:0:
256,192,105010,1,8,0:0:0:0:
256,192,105101,1,0,0:0:0:0:
256,192,105192,1,0,0:0:0:0:
256,192,105283,1,8,0:0:0:0:
256,192,105329,1,8,0:0:0:0:
256,192,105374,1,8,0:0:0:0:
256,192,105465,1,0,0:0:0:0:
256,192,105556,1,8,0:0:0:0:
256,192,105647,1,0,0:0:0:0:
256,192,105738,1,0,0:0:0:0:
256,192,105829,1,8,0:0:0:0:
256,192,105889,1,0,0:0:0:0:
256,192,105950,1,0,0:0:0:0:
256,192,106010,1,8,0:0:0:0:
256,192,106101,1,8,0:0:0:0:
256,192,106192,1,0,0:0:0:0:
256,192,106283,1,0,0:0:0:0:
256,192,106374,1,8,0:0:0:0:
256,192,106420,1,8,0:0:0:0:
256,192,106465,1,0,0:0:0:0:
256,192,106647,1,8,0:0:0:0:
256,192,106738,1,0,0:0:0:0:
256,192,106783,1,0,0:0:0:0:
256,192,106829,1,0,0:0:0:0:
256,192,106920,1,8,0:0:0:0:
256,192,107010,1,8,0:0:0:0:
256,192,107101,1,0,0:0:0:0:
256,192,107147,1,0,0:0:0:0:
256,192,107192,1,8,0:0:0:0:
256,192,107283,1,8,0:0:0:0:
256,192,107374,1,0,0:0:0:0:
256,192,107465,1,8,0:0:0:0:
256,192,107556,1,0,0:0:0:0:
256,192,107647,1,8,0:0:0:0:
256,192,107738,1,0,0:0:0:0:
256,192,107829,1,8,0:0:0:0:
256,192,107920,1,8,0:0:0:0:
256,192,108010,1,0,0:0:0:0:
256,192,108101,1,0,0:0:0:0:
256,192,108192,1,8,0:0:0:0:
256,192,108283,1,0,0:0:0:0:
256,192,108374,1,8,0:0:0:0:
256,192,108465,1,8,0:0:0:0:
256,192,108556,1,0,0:0:0:0:
256,192,108647,1,8,0:0:0:0:
256,192,108738,1,0,0:0:0:0:
256,192,108829,1,0,0:0:0:0:
256,192,108920,1,8,0:0:0:0:
256,192,109010,1,0,0:0:0:0:
256,192,109101,1,8,0:0:0:0:
256,192,109192,1,8,0:0:0:0:
256,192,109283,1,0,0:0:0:0:
256,192,109374,1,8,0:0:0:0:
256,192,109465,1,0,0:0:0:0:
256,192,109556,1,0,0:0:0:0:
256,192,109647,1,8,0:0:0:0:
256,192,109738,1,0,0:0:0:0:
256,192,109829,1,8,0:0:0:0:
256,192,109920,1,8,0:0:0:0:
256,192,110010,1,0,0:0:0:0:
256,192,110101,1,0,0:0:0:0:
256,192,110192,1,8,0:0:0:0:
256,192,110238,1,8,0:0:0:0:
256,192,110283,1,8,0:0:0:0:
256,192,110329,1,8,0:0:0:0:
256,192,110374,1,0,0:0:0:0:
256,192,110465,1,0,0:0:0:0:
256,192,110556,1,12,0:0:0:0:
256,192,111283,1,8,0:0:0:0:
256,192,111374,1,0,0:0:0:0:
256,192,111465,1,8,0:0:0:0:
256,192,111556,1,8,0:0:0:0:
256,192,111647,1,0,0:0:0:0:
256,192,111738,1,8,0:0:0:0:
256,192,111829,1,8,0:0:0:0:
256,192,111920,1,8,0:0:0:0:
256,192,112010,1,0,0:0:0:0:
256,192,112101,1,0,0:0:0:0:
256,192,112192,1,8,0:0:0:0:
256,192,112283,1,8,0:0:0:0:
256,192,112374,1,0,0:0:0:0:
256,192,112465,1,8,0:0:0:0:
256,192,112556,1,0,0:0:0:0:
256,192,112647,1,8,0:0:0:0:
256,192,112738,1,0,0:0:0:0:
256,192,112829,1,0,0:0:0:0:
256,192,112920,1,8,0:0:0:0:
256,192,112965,1,8,0:0:0:0:
256,192,113010,1,8,0:0:0:0:
256,192,113056,1,8,0:0:0:0:
256,192,113101,1,0,0:0:0:0:
256,192,113192,1,0,0:0:0:0:
256,192,113283,1,8,0:0:0:0:
256,192,113374,1,0,0:0:0:0:
256,192,113465,1,12,0:0:0:0:
256,192,113647,1,0,0:0:0:0:
256,192,113692,1,0,0:0:0:0:
256,192,113738,1,0,0:0:0:0:
256,192,113829,1,8,0:0:0:0:
256,192,113920,1,8,0:0:0:0:
256,192,114010,1,0,0:0:0:0:
256,192,114056,1,0,0:0:0:0:
256,192,114101,1,8,0:0:0:0:
256,192,114192,1,0,0:0:0:0:
256,192,114283,1,0,0:0:0:0:
256,192,114374,1,8,0:0:0:0:
256,192,114420,1,8,0:0:0:0:
256,192,114465,1,8,0:0:0:0:
256,192,114556,1,0,0:0:0:0:
256,192,114616,1,8,0:0:0:0:
256,192,114677,1,8,0:0:0:0:
256,192,114738,1,0,0:0:0:0:
256,192,114829,1,0,0:0:0:0:
256,192,114920,1,8,0:0:0:0:
256,192,115010,1,8,0:0:0:0:
256,192,115101,1,0,0:0:0:0:
256,192,115147,1,0,0:0:0:0:
256,192,115192,1,0,0:0:0:0:
256,192,115283,1,8,0:0:0:0:
256,192,115374,1,8,0:0:0:0:
256,192,115465,1,0,0:0:0:0:
256,192,115510,1,0,0:0:0:0:
256,192,115556,1,8,0:0:0:0:
256,192,115647,1,8,0:0:0:0:
256,192,115738,1,0,0:0:0:0:
256,192,115829,1,8,0:0:0:0:
256,192,115874,1,8,0:0:0:0:
256,192,115920,1,8,0:0:0:0:
256,192,116010,1,0,0:0:0:0:
256,192,116101,1,8,0:0:0:0:
256,192,116192,1,0,0:0:0:0:
256,192,116238,1,0,0:0:0:0:
256,192,116283,1,0,0:0:0:0:
256,192,116374,1,8,0:0:0:0:
256,192,116420,1,8,0:0:0:0:
256,192,116465,1,0,0:0:0:0:
256,192,116510,1,0,0:0:0:0:
256,192,116556,1,8,0:0:0:0:
256,192,116647,1,8,0:0:0:0:
256,192,116738,1,0,0:0:0:0:
256,192,116829,1,0,0:0:0:0:
256,192,116920,1,8,0:0:0:0:
256,192,116965,1,8,0:0:0:0:
256,192,117010,1,0,0:0:0:0:
256,192,117101,1,8,0:0:0:0:
256,192,117192,1,8,0:0:0:0:
256,192,117283,1,0,0:0:0:0:
256,192,117329,1,0,0:0:0:0:
256,192,117374,1,0,0:0:0:0:
256,192,117465,1,8,0:0:0:0:
256,192,117556,1,0,0:0:0:0:
256,192,117647,1,8,0:0:0:0:
256,192,117692,1,8,0:0:0:0:
256,192,117738,1,8,0:0:0:0:
256,192,117829,1,0,0:0:0:0:
256,192,117920,1,0,0:0:0:0:
256,192,118010,1,8,0:0:0:0:
256,192,118056,1,8,0:0:0:0:
256,192,118101,1,0,0:0:0:0:
256,192,118192,1,8,0:0:0:0:
256,192,118283,1,8,0:0:0:0:
256,192,118374,1,0,0:0:0:0:
256,192,118420,1,0,0:0:0:0:
256,192,118465,1,0,0:0:0:0:
256,192,118556,1,8,0:0:0:0:
256,192,118601,1,8,0:0:0:0:
256,192,118647,1,8,0:0:0:0:
256,192,118692,1,8,0:0:0:0:
256,192,118738,1,0,0:0:0:0:
256,192,118829,1,8,0:0:0:0:
256,192,118920,1,0,0:0:0:0:
256,192,118965,1,0,0:0:0:0:
256,192,119010,1,0,0:0:0:0:
256,192,119101,1,8,0:0:0:0:
256,192,119147,1,8,0:0:0:0:
256,192,119192,1,0,0:0:0:0:
256,192,119283,1,12,0:0:0:0:
256,192,119465,1,0,0:0:0:0:
256,192,119510,1,0,0:0:0:0:
256,192,119556,1,0,0:0:0:0:
256,192,119647,1,8,0:0:0:0:
256,192,119738,1,0,0:0:0:0:
256,192,119829,1,8,0:0:0:0:
256,192,119874,1,8,0:0:0:0:
256,192,119920,1,8,0:0:0:0:
256,192,120010,1,0,0:0:0:0:
256,192,120101,1,8,0:0:0:0:
256,192,120192,1,0,0:0:0:0:
256,192,120238,1,0,0:0:0:0:
256,192,120283,1,0,0:0:0:0:
256,192,120374,1,8,0:0:0:0:
256,192,120435,1,8,0:0:0:0:
256,192,120495,1,8,0:0:0:0:
256,192,120556,1,0,0:0:0:0:
256,192,120647,1,0,0:0:0:0:
256,192,120738,1,8,0:0:0:0:
256,192,120829,1,0,0:0:0:0:
256,192,120920,1,8,0:0:0:0:
256,192,120965,1,8,0:0:0:0:
256,192,121010,1,8,0:0:0:0:
256,192,121101,1,0,0:0:0:0:
256,192,121192,1,8,0:0:0:0:
256,192,121283,1,0,0:0:0:0:
256,192,121329,1,0,0:0:0:0:
256,192,121374,1,0,0:0:0:0:
256,192,121465,1,8,0:0:0:0:
256,192,121556,1,0,0:0:0:0:
256,192,121647,1,8,0:0:0:0:
256,192,121692,1,8,0:0:0:0:
256,192,121738,1,0,0:0:0:0:
256,192,121829,1,8,0:0:0:0:
256,192,121920,1,0,0:0:0:0:
256,192,122010,1,8,0:0:0:0:
256,192,122056,1,8,0:0:0:0:
256,192,122101,1,8,0:0:0:0:
256,192,122192,1,0,0:0:0:0:
256,192,122238,1,0,0:0:0:0:
256,192,122283,1,0,0:0:0:0:
256,192,122329,1,0,0:0:0:0:
256,192,122374,1,8,0:0:0:0:
256,192,122465,1,8,0:0:0:0:
256,192,122556,1,0,0:0:0:0:
256,192,122647,1,8,0:0:0:0:
256,192,122738,1,0,0:0:0:0:
256,192,122783,1,0,0:0:0:0:
256,192,122829,1,8,0:0:0:0:
256,192,122920,1,8,0:0:0:0:
256,192,123010,1,0,0:0:0:0:
256,192,123101,1,8,0:0:0:0:
256,192,123147,1,8,0:0:0:0:
256,192,123192,1,0,0:0:0:0:
256,192,123283,1,0,0:0:0:0:
256,192,123374,1,8,0:0:0:0:
256,192,123465,1,0,0:0:0:0:
256,192,123510,1,0,0:0:0:0:
256,192,123556,1,0,0:0:0:0:
256,192,123647,1,8,0:0:0:0:
256,192,123738,1,0,0:0:0:0:
256,192,123829,1,8,0:0:0:0:
256,192,123874,1,8,0:0:0:0:
256,192,123920,1,0,0:0:0:0:
256,192,124010,1,0,0:0:0:0:
256,192,124101,1,8,0:0:0:0:
256,192,124147,1,8,0:0:0:0:
256,192,124192,1,0,0:0:0:0:
256,192,124283,1,0,0:0:0:0:
256,192,124374,1,8,0:0:0:0:
256,192,124420,1,8,0:0:0:0:
256,192,124465,1,0,0:0:0:0:
256,192,124510,1,0,0:0:0:0:
256,192,124556,1,8,0:0:0:0:
256,192,124647,1,0,0:0:0:0:
256,192,124738,1,8,0:0:0:0:
256,192,124829,1,8,0:0:0:0:
256,192,124920,1,0,0:0:0:0:
256,192,125010,1,0,0:0:0:0:
256,192,125101,1,8,0:0:0:0:
256,192,125465,1,4,0:0:0:0:
256,192,125647,1,8,0:0:0:0:
256,192,125692,1,8,0:0:0:0:
256,192,125738,1,0,0:0:0:0:
256,192,125829,1,8,0:0:0:0:
256,192,125920,1,0,0:0:0:0:
256,192,126010,1,8,0:0:0:0:
256,192,126056,1,8,0:0:0:0:
256,192,126101,1,8,0:0:0:0:
256,192,126192,1,0,0:0:0:0:
256,192,126253,1,8,0:0:0:0:
256,192,126313,1,8,0:0:0:0:
256,192,126374,1,0,0:0:0:0:
256,192,126465,1,0,0:0:0:0:
256,192,126556,1,8,0:0:0:0:
256,192,126647,1,0,0:0:0:0:
256,192,126738,1,8,0:0:0:0:
256,192,126783,1,8,0:0:0:0:
256,192,126829,1,0,0:0:0:0:
256,192,126920,1,8,0:0:0:0:
256,192,127010,1,0,0:0:0:0:
256,192,127101,1,8,0:0:0:0:
256,192,127147,1,8,0:0:0:0:
256,192,127192,1,0,0:0:0:0:
256,192,127283,1,8,0:0:0:0:
256,192,127374,1,0,0:0:0:0:
256,192,127465,1,8,0:0:0:0:
256,192,127510,1,8,0:0:0:0:
256,192,127556,1,8,0:0:0:0:
256,192,127647,1,0,0:0:0:0:
256,192,127738,1,8,0:0:0:0:
256,192,127829,1,0,0:0:0:0:
256,192,127874,1,0,0:0:0:0:
256,192,127920,1,0,0:0:0:0:
256,192,128010,1,8,0:0:0:0:
256,192,128056,1,8,0:0:0:0:
256,192,128101,1,0,0:0:0:0:
256,192,128147,1,0,0:0:0:0:
256,192,128192,1,8,0:0:0:0:
256,192,128283,1,0,0:0:0:0:
256,192,128374,1,8,0:0:0:0:
256,192,128420,1,8,0:0:0:0:
256,192,128465,1,0,0:0:0:0:
256,192,128556,1,8,0:0:0:0:
256,192,128647,1,0,0:0:0:0:
256,192,128692,1,0,0:0:0:0:
256,192,128738,1,8,0:0:0:0:
256,192,128829,1,0,0:0:0:0:
256,192,128920,1,8,0:0:0:0:
256,192,128965,1,8,0:0:0:0:
256,192,129010,1,8,0:0:0:0:
256,192,129101,1,0,0:0:0:0:
256,192,129192,1,8,0:0:0:0:
256,192,129238,1,8,0:0:0:0:
256,192,129283,1,0,0:0:0:0:
256,192,129374,1,8,0:0:0:0:
256,192,129465,1,0,0:0:0:0:
256,192,129510,1,0,0:0:0:0:
256,192,129556,1,0,0:0:0:0:
256,192,129647,1,8,0:0:0:0:
256,192,129738,1,0,0:0:0:0:
256,192,129783,1,0,0:0:0:0:
256,192,129829,1,8,0:0:0:0:
256,192,129920,1,0,0:0:0:0:
256,192,130010,1,8,0:0:0:0:
256,192,130056,1,8,0:0:0:0:
256,192,130101,1,0,0:0:0:0:
256,192,130147,1,0,0:0:0:0:
256,192,130192,1,8,0:0:0:0:
256,192,130283,1,8,0:0:0:0:
256,192,130374,1,0,0:0:0:0:
256,192,130465,1,0,0:0:0:0:
256,192,130556,1,8,0:0:0:0:
256,192,130647,1,0,0:0:0:0:
256,192,130738,1,8,0:0:0:0:
256,192,130829,1,8,0:0:0:0:
256,192,130920,1,4,0:0:0:0:
256,192,131101,1,8,0:0:0:0:
256,192,131147,1,8,0:0:0:0:
256,192,131192,1,8,0:0:0:0:
256,192,131283,1,0,0:0:0:0:
256,192,131374,1,0,0:0:0:0:
256,192,131465,1,8,0:0:0:0:
256,192,131510,1,8,0:0:0:0:
256,192,131556,1,0,0:0:0:0:
256,192,131647,1,8,0:0:0:0:
256,192,131738,1,8,0:0:0:0:
256,192,131829,1,0,0:0:0:0:
256,192,131874,1,0,0:0:0:0:
256,192,131920,1,0,0:0:0:0:
256,192,132010,1,8,0:0:0:0:
256,192,132071,1,8,0:0:0:0:
256,192,132132,1,8,0:0:0:0:
256,192,132192,1,0,0:0:0:0:
256,192,132283,1,0,0:0:0:0:
256,192,132374,1,8,0:0:0:0:
256,192,132465,1,0,0:0:0:0:
256,192,132556,1,8,0:0:0:0:
256,192,132601,1,8,0:0:0:0:
256,192,132647,1,8,0:0:0:0:
256,192,132738,1,0,0:0:0:0:
256,192,132829,1,8,0:0:0:0:
256,192,132920,1,0,0:0:0:0:
256,192,132965,1,0,0:0:0:0:
256,192,133010,1,0,0:0:0:0:
256,192,133101,1,8,0:0:0:0:
256,192,133192,1,0,0:0:0:0:
256,192,133283,1,8,0:0:0:0:
256,192,133329,1,8,0:0:0:0:
256,192,133374,1,0,0:0:0:0:
256,192,133465,1,8,0:0:0:0:
256,192,133556,1,0,0:0:0:0:
256,192,133647,1,8,0:0:0:0:
256,192,133738,1,0,0:0:0:0:
256,192,133829,1,8,0:0:0:0:
256,192,133920,1,8,0:0:0:0:
256,192,134010,1,0,0:0:0:0:
256,192,134101,1,0,0:0:0:0:
256,192,134192,1,8,0:0:0:0:
256,192,134283,1,0,0:0:0:0:
256,192,134374,1,8,0:0:0:0:
256,192,134465,1,0,0:0:0:0:
256,192,134556,1,8,0:0:0:0:
256,192,134647,1,8,0:0:0:0:
256,192,134738,1,8,0:0:0:0:
256,192,134829,1,0,0:0:0:0:
256,192,134920,1,8,0:0:0:0:
256,192,135010,1,0,0:0:0:0:
256,192,135101,1,8,0:0:0:0:
256,192,135192,1,8,0:0:0:0:
256,192,135283,1,0,0:0:0:0:
256,192,135374,1,0,0:0:0:0:
256,192,135465,1,8,0:0:0:0:
256,192,135556,1,0,0:0:0:0:
256,192,135647,1,8,0:0:0:0:
256,192,135738,1,8,0:0:0:0:
256,192,135829,1,8,0:0:0:0:
256,192,135920,1,8,0:0:0:0:
256,192,136010,1,0,0:0:0:0:
256,192,136101,1,0,0:0:0:0:
256,192,136192,1,8,0:0:0:0:
256,192,136283,1,0,0:0:0:0:
256,192,136374,1,8,0:0:0:0:
256,192,136465,1,8,0:0:0:0:
256,192,136556,1,0,0:0:0:0:
256,192,136647,1,0,0:0:0:0:
256,192,136738,1,12,0:0:0:0:
256,192,136920,1,0,0:0:0:0:
256,192,137010,1,0,0:0:0:0:
256,192,137101,1,8,0:0:0:0:
256,192,137192,1,0,0:0:0:0:
256,192,137283,1,8,0:0:0:0:
256,192,137374,1,8,0:0:0:0:
256,192,137465,1,0,0:0:0:0:
256,192,137556,1,8,0:0:0:0:
256,192,137647,1,0,0:0:0:0:
256,192,137738,1,0,0:0:0:0:
256,192,137829,1,8,0:0:0:0:
256,192,137920,1,8,0:0:0:0:
256,192,138010,1,0,0:0:0:0:
256,192,138056,1,0,0:0:0:0:
256,192,138101,1,0,0:0:0:0:
256,192,138147,1,0,0:0:0:0:
256,192,138192,1,8,0:0:0:0:
256,192,138283,1,8,0:0:0:0:
256,192,138374,1,0,0:0:0:0:
256,192,138465,1,8,0:0:0:0:
256,192,138510,1,8,0:0:0:0:
256,192,138556,1,0,0:0:0:0:
256,192,138647,1,8,0:0:0:0:
256,192,138738,1,0,0:0:0:0:
256,192,138829,1,0,0:0:0:0:
256,192,138920,1,8,0:0:0:0:
256,192,139010,1,0,0:0:0:0:
256,192,139101,1,8,0:0:0:0:
256,192,139192,1,8,0:0:0:0:
256,192,139283,1,0,0:0:0:0:
256,192,139647,1,12,0:0:0:0:
256,192,139829,1,0,0:0:0:0:
256,192,139920,1,8,0:0:0:0:
256,192,140010,1,0,0:0:0:0:
256,192,140056,1,0,0:0:0:0:
256,192,140101,1,8,0:0:0:0:
256,192,140192,1,0,0:0:0:0:
256,192,140283,1,8,0:0:0:0:
256,192,140374,1,0,0:0:0:0:
256,192,140465,1,0,0:0:0:0:
256,192,140556,1,8,0:0:0:0:
256,192,140647,1,0,0:0:0:0:
256,192,140738,1,8,0:0:0:0:
256,192,140783,1,8,0:0:0:0:
256,192,140829,1,0,0:0:0:0:
256,192,140874,1,0,0:0:0:0:
256,192,140920,1,8,0:0:0:0:
256,192,141010,1,0,0:0:0:0:
256,192,141101,1,8,0:0:0:0:
256,192,141192,1,8,0:0:0:0:
256,192,141283,1,8,0:0:0:0:
256,192,141374,1,0,0:0:0:0:
256,192,141465,1,8,0:0:0:0:
256,192,141647,1,0,0:0:0:0:
256,192,141738,1,0,0:0:0:0:
256,192,141829,1,8,0:0:0:0:
256,192,141874,1,8,0:0:0:0:
256,192,141920,1,8,0:0:0:0:
256,192,141965,1,8,0:0:0:0:
256,192,142010,1,0,0:0:0:0:
256,192,142101,1,0,0:0:0:0:
256,192,142192,1,8,0:0:0:0:
256,192,142238,1,8,0:0:0:0:
256,192,142283,1,0,0:0:0:0:
256,192,142374,1,8,0:0:0:0:
256,192,142420,1,8,0:0:0:0:
256,192,142465,1,8,0:0:0:0:
256,192,142556,1,4,0:0:0:0:
256,192,142920,1,12,0:0:0:0:
256,192,143101,1,0,0:0:0:0:
256,192,143147,1,0,0:0:0:0:
256,192,143192,1,0,0:0:0:0:
256,192,143238,1,0,0:0:0:0:
256,192,143283,1,8,0:0:0:0:
256,192,143374,1,0,0:0:0:0:
256,192,143465,1,8,0:0:0:0:
256,192,143556,1,0,0:0:0:0:
256,192,143647,1,8,0:0:0:0:
256,192,143692,1,8,0:0:0:0:
256,192,143738,1,8,0:0:0:0:
256,192,143783,1,8,0:0:0:0:
256,192,143829,1,0,0:0:0:0:
256,192,143920,1,0,0:0:0:0:
256,192,144010,1,8,0:0:0:0:
256,192,144101,1,0,0:0:0:0:
256,192,144192,1,8,0:0:0:0:
256,192,144283,1,8,0:0:0:0:
256,192,144374,1,0,0:0:0:0:
256,192,144420,1,0,0:0:0:0:
256,192,144465,1,0,0:0:0:0:
256,192,144556,1,8,0:0:0:0:
256,192,144647,1,0,0:0:0:0:
256,192,144738,1,8,0:0:0:0:
256,192,144783,1,8,0:0:0:0:
256,192,144829,1,0,0:0:0:0:
256,192,144920,1,8,0:0:0:0:
256,192,145010,1,0,0:0:0:0:
256,192,145101,1,8,0:0:0:0:
256,192,145147,1,8,0:0:0:0:
256,192,145192,1,8,0:0:0:0:
256,192,145238,1,8,0:0:0:0:
256,192,145283,1,0,0:0:0:0:
256,192,145374,1,0,0:0:0:0:
256,192,145465,1,8,0:0:0:0:
256,192,145510,1,8,0:0:0:0:
256,192,145556,1,8,0:0:0:0:
256,192,145601,1,8,0:0:0:0:
256,192,145647,1,0,0:0:0:0:
256,192,145738,1,0,0:0:0:0:
256,192,145829,1,8,0:0:0:0:
256,192,145920,1,0,0:0:0:0:
256,192,146010,1,8,0:0:0:0:
256,192,146101,1,0,0:0:0:0:
256,192,146192,1,8,0:0:0:0:
256,192,146238,1,8,0:0:0:0:
256,192,146283,1,8,0:0:0:0:
256,192,146329,1,8,0:0:0:0:
256,192,146374,1,0,0:0:0:0:
256,192,146465,1,8,0:0:0:0:
256,192,146556,1,0,0:0:0:0:
256,192,146647,1,8,0:0:0:0:
256,192,146738,1,8,0:0:0:0:
256,192,146829,1,0,0:0:0:0:
256,192,146920,1,8,0:0:0:0:
256,192,147010,1,8,0:0:0:0:
256,192,147101,1,0,0:0:0:0:
256,192,147192,1,0,0:0:0:0:
256,192,147283,1,8,0:0:0:0:
256,192,147374,1,0,0:0:0:0:
256,192,147465,1,8,0:0:0:0:
256,192,147556,1,8,0:0:0:0:
256,192,147647,1,0,0:0:0:0:
256,192,147738,1,0,0:0:0:0:
256,192,147829,1,8,0:0:0:0:
256,192,147920,1,8,0:0:0:0:
256,192,148010,1,0,0:0:0:0:
256,192,148101,1,8,0:0:0:0:
256,192,148192,1,0,0:0:0:0:
256,192,148283,1,8,0:0:0:0:
256,192,148374,1,0,0:0:0:0:
256,192,148556,2,4,L|416:192,1,140
