osu file format v14

[General]
AudioFilename: audio.mp3
AudioLeadIn: 0
PreviewTime: 58833
Countdown: 0
SampleSet: Soft
StackLeniency: 0.7
Mode: 3
LetterboxInBreaks: 0
SpecialStyle: 0
WidescreenStoryboard: 1

[Editor]
DistanceSpacing: 2
BeatDivisor: 4
GridSize: 16
TimelineZoom: 2.3

[Metadata]
Title:Coldlapse
TitleUnicode:Coldlapse
Artist:Aoi vs. r0y
ArtistUnicode:Aoi vs. r0y
Creator:Murumoo
Version:ADVANCED
Source:SOUND VOLTEX IV HEAVENLY HAVEN
Tags:Famoss -MysticEyes sdvx 7th kac original song contest Konami video game instrumental electronic rhythm bemani
BeatmapID:1770560
BeatmapSetID:845859

[Difficulty]
HPDrainRate:7.5
CircleSize:4
OverallDifficulty:7.5
ApproachRate:5
SliderMultiplier:1.4
SliderTickRate:1

[Events]
//Background and Video events
0,0,"bg.jpg",0,0
//Break Periods
//Storyboard Layer 0 (Background)
//Storyboard Layer 1 (Fail)
//Storyboard Layer 2 (Pass)
//Storyboard Layer 3 (Foreground)
//Storyboard Layer 4 (Overlay)
//Storyboard Sound Samples
Sample,9933,0,"rewind.ogg",70
Sample,15933,0,"clap.wav",40
Sample,17133,0,"clap.wav",40
Sample,18258,0,"rewind.ogg",70
Sample,19533,0,"rewind.ogg",70
Sample,27933,0,"rewind.ogg",70
Sample,38733,0,"rewind.ogg",70
Sample,47958,0,"rewind.ogg",70
Sample,57633,0,"rewind.ogg",70
Sample,67533,0,"rewind.ogg",70
Sample,72333,0,"rewind.ogg",70
Sample,76533,0,"rewind.ogg",70
Sample,86733,0,"rewind.ogg",70
Sample,94533,0,"break.wav",100
Sample,96333,0,"rewind.ogg",70
Sample,105933,0,"rewind.ogg",70
Sample,113133,0,"rewind.ogg",70

[TimingPoints]
1233,300,4,2,1,60,1,0
78033,-100,4,2,1,60,0,1
92433,-100,4,2,1,60,0,0
97233,-100,4,2,1,60,0,1
114033,-100,4,2,1,60,0,0

[HitObjects]
64,192,1233,5,2,0:0:0:0:
448,192,1233,1,0,0:0:0:0:
192,192,1383,1,0,0:0:0:0:
320,192,1458,1,0,0:0:0:0:
448,192,1533,1,0,0:0:0:40:clap.wav
64,192,1683,1,0,0:0:0:0:
320,192,1833,1,0,0:0:0:0:
192,192,1983,1,0,0:0:0:40:clap.wav
448,192,2283,128,0,2583:0:0:0:0:
192,192,2583,1,0,0:0:0:0:
320,192,2733,1,0,0:0:0:40:clap.wav
448,192,2883,1,0,0:0:0:0:
64,192,3033,1,0,0:0:0:0:
320,192,3183,1,0,0:0:0:40:clap.wav
192,192,3333,1,0,0:0:0:0:
64,192,3483,128,0,3783:0:0:0:0:
448,192,3783,1,0,0:0:0:0:
64,192,3933,1,0,0:0:0:40:clap.wav
320,192,4083,1,0,0:0:0:0:
448,192,4158,1,0,0:0:0:0:
192,192,4233,1,0,0:0:0:0:
320,192,4383,1,0,0:0:0:40:clap.wav
448,192,4533,1,0,0:0:0:0:
192,192,4683,128,0,4983:0:0:0:0:
320,192,4983,1,0,0:0:0:0:
192,192,5133,1,0,0:0:0:40:clap.wav
64,192,5283,1,0,0:0:0:0:
448,192,5433,1,0,0:0:0:0:
320,192,5508,1,0,0:0:0:0:
192,192,5583,1,0,0:0:0:40:clap.wav
64,192,5658,1,0,0:0:0:0:
448,192,5733,1,0,0:0:0:0:
192,192,5808,1,0,0:0:0:0:
320,192,5883,1,0,0:0:0:0:
448,192,5958,1,0,0:0:0:0:
64,192,6033,1,0,0:0:0:0:
320,192,6183,1,0,0:0:0:0:
192,192,6333,1,0,0:0:0:40:clap.wav
448,192,6483,128,0,6633:0:0:0:0:
192,192,6783,1,0,0:0:0:40:clap.wav
320,192,6933,1,0,0:0:0:0:
448,192,7083,1,0,0:0:0:0:
64,192,7233,1,0,0:0:0:0:
192,192,7308,1,0,0:0:0:0:
448,192,7383,1,0,0:0:0:0:
320,192,7458,1,0,0:0:0:0:
192,192,7533,1,0,0:0:0:40:clap.wav
448,192,7683,1,0,0:0:0:0:
64,192,7833,1,0,0:0:0:0:
320,192,7983,1,0,0:0:0:40:clap.wav
64,192,8133,1,0,0:0:0:0:
192,192,8283,128,0,8433:0:0:0:0:
448,192,8583,1,0,0:0:0:0:
320,192,8733,1,0,0:0:0:40:clap.wav
64,192,8883,1,0,0:0:0:0:
448,192,8958,1,0,0:0:0:0:
320,192,9033,1,0,0:0:0:0:
64,192,9183,1,0,0:0:0:40:clap.wav
448,192,9333,1,0,0:0:0:0:
320,192,9483,1,0,0:0:0:0:
192,192,9633,1,0,0:0:0:0:
448,192,9783,1,0,0:0:0:0:
64,192,9933,1,0,0:0:0:40:clap.wav
320,192,10083,1,0,0:0:0:0:
64,192,10233,1,0,0:0:0:0:
192,192,10308,1,0,0:0:0:0:
448,192,10383,1,0,0:0:0:40:clap.wav
320,192,10458,1,0,0:0:0:0:
64,192,10533,1,0,0:0:0:0:
192,192,10608,1,0,0:0:0:0:
320,192,10683,1,0,0:0:0:0:
448,192,10758,1,0,0:0:0:0:
64,192,10833,1,6,0:0:0:0:
192,192,10833,1,8,0:0:0:50:snare_wave.wav
320,192,10983,1,0,0:0:0:0:
448,192,11058,1,0,0:0:0:0:
192,192,11133,1,0,0:0:0:40:clap.wav
448,192,11283,1,0,0:0:0:0:
64,192,11433,1,0,0:0:0:0:
320,192,11583,1,0,0:0:0:40:clap.wav
448,192,11733,1,0,0:0:0:0:
64,192,11883,1,0,0:0:0:0:
192,192,12033,1,2,0:0:0:0:
448,192,12033,1,0,0:0:0:0:
320,192,12183,1,0,0:0:0:0:
192,192,12333,1,0,0:0:0:40:clap.wav
64,192,12483,1,0,0:0:0:0:
448,192,12633,1,0,0:0:0:0:
192,192,12783,1,0,0:0:0:40:clap.wav
320,192,12933,1,0,0:0:0:0:
64,192,13083,1,0,0:0:0:0:
192,192,13233,1,2,0:0:0:0:
448,192,13233,1,0,0:0:0:0:
320,192,13383,1,0,0:0:0:0:
448,192,13533,1,0,0:0:0:40:clap.wav
64,192,13683,1,0,0:0:0:0:
320,192,13758,1,0,0:0:0:0:
192,192,13833,1,0,0:0:0:0:
320,192,13983,1,0,0:0:0:40:clap.wav
64,192,14133,1,0,0:0:0:0:
448,192,14283,1,0,0:0:0:0:
64,192,14433,1,2,0:0:0:0:
320,192,14433,1,0,0:0:0:0:
192,192,14583,1,0,0:0:0:0:
320,192,14733,1,0,0:0:0:40:clap.wav
448,192,14883,1,0,0:0:0:0:
64,192,15033,1,0,0:0:0:0:
192,192,15108,1,0,0:0:0:0:
320,192,15183,1,0,0:0:0:40:clap.wav
448,192,15258,1,0,0:0:0:0:
64,192,15333,1,0,0:0:0:0:
320,192,15408,1,0,0:0:0:0:
192,192,15483,1,0,0:0:0:0:
64,192,15558,1,0,0:0:0:0:
320,192,15633,1,2,0:0:0:0:
448,192,15633,1,4,0:0:0:0:
192,192,15783,1,0,0:0:0:0:
320,192,15933,1,2,0:0:0:0:
64,192,16083,1,0,0:0:0:0:
448,192,16233,1,2,0:0:0:0:
192,192,16383,1,0,0:0:0:40:clap.wav
320,192,16533,1,2,0:0:0:0:
64,192,16683,1,0,0:0:0:0:
192,192,16833,1,2,0:0:0:0:
448,192,16833,1,4,0:0:0:0:
320,192,16908,1,0,0:0:0:0:
64,192,16983,1,0,0:0:0:0:
192,192,17058,1,0,0:0:0:0:
320,192,17133,1,2,0:0:0:0:
64,192,17283,1,0,0:0:0:0:
320,192,17433,1,2,0:0:0:0:
192,192,17583,1,0,0:0:0:40:clap.wav
448,192,17733,1,2,0:0:0:0:
320,192,17883,1,0,0:0:0:0:
64,192,18033,1,2,0:0:0:0:
448,192,18033,1,4,0:0:0:0:
192,192,18183,1,2,0:0:0:0:
64,192,18333,1,2,0:0:0:0:
320,192,18333,1,0,0:0:0:0:
192,192,18483,1,2,0:0:0:0:
320,192,18633,1,2,0:0:0:0:
192,192,18708,1,2,0:0:0:0:
64,192,18783,1,2,0:0:0:0:
448,192,18858,1,2,0:0:0:0:
192,192,18933,1,2,0:0:0:0:
320,192,19008,1,2,0:0:0:0:
448,192,19083,1,2,0:0:0:0:
64,192,19158,1,2,0:0:0:0:
320,192,19233,1,0,0:0:0:0:
192,192,19383,1,0,0:0:0:0:
64,192,19533,1,0,0:0:0:0:
448,192,19683,1,0,0:0:0:0:
64,192,19833,1,0,0:0:0:0:
192,192,19908,1,0,0:0:0:0:
320,192,19983,1,0,0:0:0:0:
448,192,20058,1,0,0:0:0:0:
64,192,20133,1,0,0:0:0:0:
192,192,20208,1,0,0:0:0:0:
448,192,20283,1,0,0:0:0:0:
320,192,20358,1,0,0:0:0:0:
64,192,20433,1,2,0:0:0:0:
192,192,20433,1,4,0:0:0:0:
320,192,20583,1,0,0:0:0:0:
192,192,20733,1,2,0:0:0:0:
448,192,20733,1,0,0:0:0:0:
64,192,20883,1,0,0:0:0:0:
320,192,21033,1,2,0:0:0:0:
448,192,21033,1,0,0:0:0:0:
192,192,21183,1,0,0:0:0:0:
64,192,21333,1,2,0:0:0:0:
448,192,21333,1,0,0:0:0:0:
320,192,21483,1,0,0:0:0:0:
192,192,21633,1,2,0:0:0:0:
448,192,21633,1,0,0:0:0:0:
64,192,21783,1,0,0:0:0:0:
320,192,21933,1,2,0:0:0:0:
448,192,21933,1,0,0:0:0:0:
192,192,22083,1,0,0:0:0:0:
64,192,22233,1,2,0:0:0:0:
320,192,22233,1,0,0:0:0:0:
448,192,22383,1,0,0:0:0:0:
64,192,22533,1,2,0:0:0:0:
192,192,22533,1,0,0:0:0:0:
320,192,22683,1,0,0:0:0:0:
64,192,22833,1,2,0:0:0:0:
448,192,22833,1,0,0:0:0:0:
192,192,22983,1,0,0:0:0:0:
64,192,23133,1,2,0:0:0:0:
320,192,23133,1,0,0:0:0:0:
448,192,23283,1,0,0:0:0:0:
64,192,23433,1,2,0:0:0:0:
192,192,23433,1,0,0:0:0:0:
320,192,23583,1,0,0:0:0:0:
64,192,23733,1,2,0:0:0:0:
448,192,23733,1,0,0:0:0:0:
192,192,23883,1,0,0:0:0:0:
320,192,24033,1,2,0:0:0:0:
448,192,24033,1,0,0:0:0:0:
192,192,24183,1,0,0:0:0:0:
320,192,24258,1,0,0:0:0:0:
448,192,24333,1,2,0:0:0:0:
64,192,24408,1,0,0:0:0:0:
320,192,24483,1,0,0:0:0:0:
192,192,24558,1,0,0:0:0:0:
448,192,24633,1,2,0:0:0:0:
320,192,24708,1,0,0:0:0:0:
64,192,24783,1,0,0:0:0:0:
192,192,24858,1,0,0:0:0:0:
448,192,24933,1,2,0:0:0:0:
320,192,25008,1,0,0:0:0:0:
192,192,25083,1,0,0:0:0:0:
320,192,25158,1,0,0:0:0:0:
64,192,25233,1,2,0:0:0:0:
448,192,25233,1,0,0:0:0:0:
192,192,25383,1,0,0:0:0:0:
64,192,25533,1,2,0:0:0:0:
448,192,25533,1,0,0:0:0:0:
320,192,25683,1,0,0:0:0:0:
192,192,25833,1,2,0:0:0:0:
448,192,25833,1,0,0:0:0:0:
64,192,25983,1,0,0:0:0:0:
320,192,26133,1,2,0:0:0:0:
448,192,26133,1,0,0:0:0:0:
192,192,26283,1,0,0:0:0:0:
64,192,26433,1,2,0:0:0:0:
448,192,26433,1,0,0:0:0:0:
320,192,26583,1,0,0:0:0:0:
64,192,26658,1,0,0:0:0:0:
192,192,26733,1,2,0:0:0:0:
448,192,26733,1,0,0:0:0:0:
320,192,26883,1,0,0:0:0:0:
64,192,27033,1,2,0:0:0:0:
448,192,27033,1,0,0:0:0:0:
192,192,27183,1,0,0:0:0:0:
320,192,27333,1,2,0:0:0:0:
448,192,27333,1,0,0:0:0:0:
64,192,27483,1,0,0:0:0:0:
192,192,27633,1,2,0:0:0:0:
320,192,27633,1,0,0:0:0:0:
448,192,27783,1,0,0:0:0:0:
64,192,27933,1,2,0:0:0:0:
192,192,27933,1,0,0:0:0:0:
320,192,28083,1,0,0:0:0:0:
64,192,28233,128,2,28533:0:0:0:0:
192,192,28233,1,0,0:0:0:0:
320,192,28383,1,0,0:0:0:0:
192,192,28533,1,2,0:0:0:0:
448,192,28533,128,0,28833:0:0:0:0:
64,192,28683,1,0,0:0:0:0:
192,192,28833,1,2,0:0:0:0:
320,192,28833,1,0,0:0:0:70:S2.wav
64,192,28983,1,0,0:0:0:70:S2.wav
448,192,28983,1,0,0:0:0:0:
320,192,29133,1,0,0:0:0:0:
192,192,29208,1,0,0:0:0:0:
64,192,29283,1,2,0:0:0:0:
448,192,29283,1,0,0:0:0:0:
320,192,29433,1,0,0:0:0:0:
448,192,29508,1,0,0:0:0:0:
64,192,29583,1,0,0:0:0:70:S2.wav
192,192,29658,1,0,0:0:0:0:
448,192,29733,1,0,0:0:0:0:
320,192,29808,1,0,0:0:0:0:
192,192,29883,1,0,0:0:0:0:
64,192,29958,1,0,0:0:0:0:
320,192,30033,1,2,0:0:0:0:
448,192,30033,1,4,0:0:0:0:
192,192,30183,1,0,0:0:0:0:
64,192,30333,1,8,0:0:0:0:
448,192,30333,1,0,0:0:0:0:
320,192,30483,1,0,0:0:0:0:
192,192,30633,1,2,0:0:0:0:
448,192,30633,1,0,0:0:0:0:
64,192,30783,1,0,0:0:0:0:
320,192,30933,1,8,0:0:0:0:
448,192,30933,1,0,0:0:0:0:
192,192,31083,1,0,0:0:0:0:
64,192,31233,128,2,31533:0:0:0:0:
448,192,31233,1,0,0:0:0:0:
320,192,31383,1,0,0:0:0:0:
192,192,31533,1,8,0:0:0:0:
448,192,31533,1,0,0:0:0:0:
64,192,31683,1,0,0:0:0:0:
192,192,31833,128,2,32133:0:0:0:0:
320,192,31833,1,0,0:0:0:0:
448,192,31983,1,0,0:0:0:0:
64,192,32133,1,8,0:0:0:0:
320,192,32133,1,0,0:0:0:0:
448,192,32283,1,0,0:0:0:0:
64,192,32433,1,2,0:0:0:0:
192,192,32433,1,0,0:0:0:0:
320,192,32583,1,0,0:0:0:0:
64,192,32733,1,8,0:0:0:0:
448,192,32733,1,0,0:0:0:0:
192,192,32883,1,0,0:0:0:0:
64,192,33033,128,2,33333:0:0:0:0:
320,192,33033,1,0,0:0:0:0:
192,192,33183,1,0,0:0:0:0:
320,192,33333,1,8,0:0:0:0:
448,192,33333,128,0,33633:0:0:0:0:
64,192,33483,1,0,0:0:0:0:
192,192,33633,1,2,0:0:0:0:
320,192,33633,1,0,0:0:0:0:
64,192,33783,1,0,0:0:0:0:
320,192,33858,1,0,0:0:0:0:
192,192,33933,1,8,0:0:0:0:
448,192,34008,1,0,0:0:0:0:
64,192,34083,1,0,0:0:0:0:
192,192,34158,1,0,0:0:0:0:
448,192,34233,1,2,0:0:0:0:
320,192,34308,1,0,0:0:0:0:
192,192,34383,1,0,0:0:0:0:
448,192,34458,1,0,0:0:0:0:
64,192,34533,1,8,0:0:0:0:
192,192,34608,1,0,0:0:0:0:
320,192,34683,1,0,0:0:0:0:
64,192,34758,1,0,0:0:0:0:
192,192,34833,1,2,0:0:0:0:
448,192,34833,1,0,0:0:0:0:
320,192,34983,1,0,0:0:0:0:
64,192,35133,1,8,0:0:0:0:
448,192,35133,1,0,0:0:0:0:
192,192,35283,1,0,0:0:0:0:
320,192,35433,1,2,0:0:0:0:
448,192,35433,1,0,0:0:0:0:
64,192,35583,1,0,0:0:0:0:
192,192,35733,1,8,0:0:0:0:
320,192,35733,1,0,0:0:0:0:
64,192,35883,1,0,0:0:0:0:
320,192,36033,1,2,0:0:0:0:
448,192,36033,1,0,0:0:0:0:
192,192,36183,1,0,0:0:0:0:
448,192,36258,1,0,0:0:0:0:
320,192,36333,1,8,0:0:0:0:
64,192,36333,1,0,0:0:0:0:
192,192,36483,1,0,0:0:0:0:
64,192,36633,1,2,0:0:0:0:
448,192,36633,1,0,0:0:0:0:
320,192,36783,128,0,36933:0:0:0:0:
64,192,36933,1,8,0:0:0:0:
192,192,36933,128,0,37083:0:0:0:0:
320,192,37083,128,0,37233:0:0:0:0:
64,192,37233,1,8,0:0:0:0:
448,192,37233,1,0,0:0:0:0:
320,192,37383,1,0,0:0:0:0:
64,192,37533,1,8,0:0:0:0:
448,192,37533,1,0,0:0:0:0:
192,192,37683,1,0,0:0:0:0:
64,192,37833,1,8,0:0:0:0:
448,192,37833,1,0,0:0:0:0:
320,192,37983,1,0,0:0:0:0:
64,192,38133,1,8,0:0:0:0:
192,192,38208,1,2,0:0:0:0:
320,192,38283,1,2,0:0:0:0:
448,192,38358,1,2,0:0:0:0:
64,192,38433,1,2,0:0:0:0:
192,192,38433,1,4,0:0:0:0:
320,192,38583,1,0,0:0:0:0:
192,192,38733,1,0,0:0:0:0:
64,192,38883,1,0,0:0:0:0:
448,192,39033,1,0,0:0:0:0:
320,192,39108,1,0,0:0:0:0:
64,192,39183,1,0,0:0:0:0:
192,192,39258,1,0,0:0:0:0:
320,192,39333,1,0,0:0:0:0:
192,192,39483,1,0,0:0:0:0:
64,192,39633,128,2,39933:0:0:0:0:
448,192,39633,128,4,39933:0:0:0:0:
192,192,39933,1,2,0:0:0:0:
320,192,39933,1,0,0:0:0:0:
64,192,40083,1,2,0:0:0:0:
448,192,40083,1,0,0:0:0:0:
192,192,40233,128,8,40533:0:0:0:0:
320,192,40233,128,0,40533:0:0:0:0:
64,192,40533,1,2,0:0:0:0:
448,192,40533,128,0,40833:0:0:0:0:
192,192,40683,1,2,0:0:0:0:
64,192,40833,1,2,0:0:0:0:
320,192,40833,1,0,0:0:0:0:
192,192,40983,1,0,0:0:0:0:
320,192,41058,1,0,0:0:0:0:
448,192,41133,1,2,0:0:0:0:
192,192,41208,1,2,0:0:0:0:
64,192,41283,1,2,0:0:0:0:
320,192,41358,1,2,0:0:0:0:
192,192,41433,1,8,0:0:0:0:
448,192,41433,1,0,0:0:0:0:
64,192,41583,1,0,0:0:0:0:
320,192,41658,1,0,0:0:0:0:
448,192,41733,1,2,0:0:0:0:
64,192,41808,1,0,0:0:0:0:
192,192,41883,1,2,0:0:0:0:
320,192,41958,1,0,0:0:0:0:
64,192,42033,128,2,42333:0:0:0:0:
448,192,42033,128,0,42333:0:0:0:0:
192,192,42333,1,2,0:0:0:0:
320,192,42333,1,0,0:0:0:0:
64,192,42483,1,2,0:0:0:0:
448,192,42483,1,0,0:0:0:0:
192,192,42633,1,8,0:0:0:0:
320,192,42633,1,0,0:0:0:0:
64,192,42783,1,2,0:0:0:0:
320,192,42933,1,2,0:0:0:0:
448,192,43008,1,2,0:0:0:0:
192,192,43083,1,2,0:0:0:0:
320,192,43158,1,2,0:0:0:0:
64,192,43233,128,0,43533:0:0:0:0:
448,192,43383,1,2,0:0:0:0:
192,192,43458,1,0,0:0:0:0:
320,192,43533,1,2,0:0:0:0:
192,192,43683,1,0,0:0:0:0:
64,192,43833,1,8,0:0:0:0:
448,192,43908,1,0,0:0:0:0:
320,192,43983,1,0,0:0:0:0:
64,192,44058,1,0,0:0:0:0:
192,192,44133,1,2,0:0:0:0:
448,192,44208,1,2,0:0:0:0:
320,192,44283,1,0,0:0:0:0:
192,192,44358,1,0,0:0:0:0:
64,192,44433,1,2,0:0:0:0:
448,192,44433,1,0,0:0:0:0:
320,192,44583,1,0,0:0:0:0:
192,192,44733,128,2,44883:0:0:0:0:
448,192,44733,1,4,0:0:0:0:
64,192,44883,128,2,45033:0:0:0:0:
320,192,44883,1,0,0:0:0:0:
448,192,45033,1,8,0:0:0:0:
320,192,45108,1,0,0:0:0:0:
192,192,45183,1,0,0:0:0:0:
64,192,45333,1,2,0:0:0:0:
448,192,45408,1,0,0:0:0:0:
64,192,45483,1,2,0:0:0:0:
320,192,45558,1,0,0:0:0:0:
192,192,45633,1,2,0:0:0:0:
448,192,45633,1,0,0:0:0:0:
64,192,45783,1,0,0:0:0:0:
192,192,45858,1,0,0:0:0:0:
320,192,45933,1,2,0:0:0:0:
448,192,45933,1,0,0:0:0:0:
320,192,46083,1,2,0:0:0:0:
64,192,46233,1,8,0:0:0:0:
192,192,46233,1,0,0:0:0:0:
320,192,46383,1,0,0:0:0:0:
64,192,46533,1,2,0:0:0:0:
192,192,46608,1,0,0:0:0:0:
448,192,46683,1,2,0:0:0:0:
320,192,46758,1,0,0:0:0:0:
64,192,46833,1,2,0:0:0:0:
192,192,46833,1,4,0:0:0:0:
192,192,47058,1,8,0:0:0:0:
448,192,47058,1,0,0:0:0:0:
320,192,47283,1,2,0:0:0:0:
448,192,47283,1,0,0:0:0:0:
64,192,47508,1,8,0:0:0:0:
320,192,47508,1,0,0:0:0:0:
192,192,47733,1,2,0:0:0:0:
320,192,47808,1,2,0:0:0:0:
448,192,47883,1,2,0:0:0:0:
192,192,47958,1,2,0:0:0:0:
64,192,48033,1,8,0:0:0:0:
320,192,48033,1,0,0:0:0:0:
448,192,48183,1,2,0:0:0:0:
64,192,48258,1,2,0:0:0:0:
192,192,48333,1,8,0:0:0:0:
320,192,48333,1,0,0:0:0:0:
64,192,48483,1,2,0:0:0:0:
192,192,48558,1,2,0:0:0:0:
320,192,48633,128,8,48933:0:0:0:0:
448,192,48633,1,0,0:0:0:0:
192,192,48933,1,0,0:0:0:0:
64,192,49008,1,0,0:0:0:0:
320,192,49083,1,0,0:0:0:0:
448,192,49158,1,0,0:0:0:0:
192,192,49233,128,2,50133:0:0:0:0:
320,192,49533,128,0,50133:0:0:0:0:
64,192,50133,128,8,50358:0:0:0:0:
448,192,50133,128,0,50358:0:0:0:0:
64,192,50433,1,2,0:0:0:0:
192,192,50433,1,4,0:0:0:0:
448,192,50433,1,0,0:0:0:0:
320,192,50583,1,0,0:0:0:0:
448,192,50658,1,0,0:0:0:0:
192,192,50733,1,8,0:0:0:0:
320,192,50808,1,0,0:0:0:0:
64,192,50883,1,0,0:0:0:0:
192,192,50958,1,0,0:0:0:0:
448,192,51033,1,0,0:0:0:0:
192,192,51183,1,2,0:0:0:0:
64,192,51333,1,8,0:0:0:0:
320,192,51333,1,0,0:0:0:0:
448,192,51483,1,0,0:0:0:0:
64,192,51633,128,2,51933:0:0:0:0:
192,192,51633,128,0,51933:0:0:0:0:
320,192,51933,1,8,0:0:0:0:
448,192,51933,1,0,0:0:0:0:
192,192,52083,1,0,0:0:0:0:
320,192,52233,1,0,0:0:0:0:
448,192,52383,1,2,0:0:0:0:
64,192,52533,1,8,0:0:0:0:
192,192,52533,1,0,0:0:0:0:
320,192,52683,1,2,0:0:0:0:
64,192,52833,1,2,0:0:0:0:
448,192,52833,1,0,0:0:0:0:
320,192,52983,1,8,0:0:0:0:
192,192,52983,1,0,0:0:0:0:
64,192,53133,1,8,0:0:0:0:
448,192,53133,1,0,0:0:0:0:
192,192,53283,1,2,0:0:0:0:
64,192,53358,1,2,0:0:0:0:
448,192,53433,1,8,0:0:0:0:
320,192,53433,1,0,0:0:0:0:
192,192,53583,1,2,0:0:0:0:
448,192,53658,1,8,0:0:0:0:
320,192,53733,1,0,0:0:0:0:
64,192,53883,1,8,0:0:0:0:
320,192,53958,1,8,0:0:0:0:
192,192,54033,1,2,0:0:0:0:
448,192,54033,128,0,54333:0:0:0:0:
64,192,54333,128,0,54633:0:0:0:0:
192,192,54633,1,2,0:0:0:0:
448,192,54633,1,4,0:0:0:0:
320,192,54783,1,2,0:0:0:0:
64,192,54933,1,8,0:0:0:0:
192,192,54933,1,0,0:0:0:0:
320,192,55008,1,8,0:0:0:0:
192,192,55083,1,8,0:0:0:0:
320,192,55158,1,8,0:0:0:0:
64,192,55233,1,2,0:0:0:0:
448,192,55233,128,0,55533:0:0:0:0:
192,192,55383,1,0,0:0:0:0:
320,192,55458,1,0,0:0:0:0:
64,192,55533,128,8,55833:0:0:0:0:
192,192,55683,1,0,0:0:0:0:
320,192,55758,1,0,0:0:0:0:
448,192,55833,1,0,0:0:0:0:
192,192,55908,1,0,0:0:0:0:
64,192,55983,1,2,0:0:0:0:
320,192,56058,1,2,0:0:0:0:
192,192,56133,1,8,0:0:0:0:
448,192,56133,1,0,0:0:0:0:
320,192,56283,1,0,0:0:0:0:
192,192,56358,1,0,0:0:0:0:
64,192,56433,1,2,0:0:0:0:
448,192,56433,1,0,0:0:0:0:
320,192,56583,1,8,0:0:0:0:
448,192,56583,1,0,0:0:0:0:
64,192,56733,1,8,0:0:0:0:
192,192,56733,1,0,0:0:0:0:
448,192,56883,1,2,0:0:0:0:
320,192,56958,1,2,0:0:0:0:
64,192,57033,1,8,0:0:0:0:
192,192,57033,1,0,0:0:0:0:
320,192,57183,1,8,0:0:0:0:
448,192,57183,1,0,0:0:0:0:
64,192,57333,1,0,0:0:0:0:
192,192,57408,1,0,0:0:0:0:
320,192,57483,1,2,0:0:0:0:
448,192,57558,1,2,0:0:0:0:
64,192,57633,128,2,58533:0:0:0:0:
320,192,57783,1,0,0:0:0:0:
192,192,57933,1,0,0:0:0:0:
448,192,58083,1,0,0:0:0:0:
320,192,58233,1,0,0:0:0:0:
320,192,58383,1,0,0:0:0:0:
192,192,58533,1,8,0:0:0:0:
320,192,58608,1,0,0:0:0:0:
64,192,58683,1,0,0:0:0:0:
192,192,58758,1,0,0:0:0:0:
320,192,58833,1,6,0:0:0:0:
448,192,58833,1,8,0:0:0:50:snare_wave.wav
64,192,58983,1,0,0:0:0:0:
448,192,59133,1,0,0:0:0:0:
192,192,59283,1,0,0:0:0:0:
320,192,59433,1,0,0:0:0:0:
64,192,59583,1,0,0:0:0:0:
448,192,59733,1,0,0:0:0:0:
192,192,59883,1,0,0:0:0:0:
320,192,60033,1,0,0:0:0:0:
448,192,60183,1,0,0:0:0:0:
192,192,60333,1,0,0:0:0:0:
320,192,60483,1,0,0:0:0:0:
64,192,60633,1,0,0:0:0:0:
192,192,60783,1,0,0:0:0:0:
448,192,60933,1,0,0:0:0:0:
320,192,61083,1,0,0:0:0:0:
64,192,61233,1,0,0:0:0:0:
192,192,61233,1,0,0:0:0:0:
320,192,61383,1,0,0:0:0:0:
448,192,61533,1,0,0:0:0:0:
64,192,61683,1,0,0:0:0:0:
320,192,61833,1,0,0:0:0:0:
192,192,61983,1,0,0:0:0:0:
448,192,62133,1,0,0:0:0:0:
320,192,62283,1,0,0:0:0:0:
64,192,62433,1,0,0:0:0:0:
192,192,62583,1,0,0:0:0:0:
320,192,62733,1,0,0:0:0:0:
448,192,62883,1,0,0:0:0:0:
192,192,63033,1,0,0:0:0:0:
320,192,63183,1,0,0:0:0:0:
192,192,63333,1,0,0:0:0:0:
64,192,63483,1,0,0:0:0:0:
320,192,63633,1,0,0:0:0:0:
448,192,63633,1,0,0:0:0:0:
192,192,63783,1,0,0:0:0:0:
320,192,63933,1,0,0:0:0:0:
448,192,64083,1,0,0:0:0:0:
64,192,64233,1,0,0:0:0:0:
320,192,64383,1,0,0:0:0:0:
192,192,64533,1,0,0:0:0:0:
320,192,64683,1,0,0:0:0:0:
64,192,64833,1,0,0:0:0:0:
448,192,64833,1,0,0:0:0:0:
192,192,64983,1,0,0:0:0:0:
320,192,65133,1,0,0:0:0:0:
64,192,65283,1,0,0:0:0:0:
448,192,65433,1,0,0:0:0:0:
192,192,65583,1,0,0:0:0:0:
320,192,65733,1,0,0:0:0:0:
64,192,65883,1,0,0:0:0:0:
192,192,66033,1,0,0:0:0:0:
448,192,66033,1,0,0:0:0:0:
320,192,66183,1,0,0:0:0:0:
64,192,66333,1,0,0:0:0:0:
192,192,66483,1,0,0:0:0:0:
448,192,66633,1,0,0:0:0:0:
320,192,66783,1,0,0:0:0:0:
192,192,66933,1,0,0:0:0:0:
448,192,67083,1,0,0:0:0:0:
64,192,67233,128,0,68133:0:0:0:0:
320,192,67383,1,0,0:0:0:0:
448,192,67533,1,0,0:0:0:0:
192,192,67683,1,0,0:0:0:0:
448,192,67833,1,0,0:0:0:0:
320,192,67983,1,0,0:0:0:0:
192,192,68133,1,0,0:0:0:0:
64,192,68283,1,0,0:0:0:0:
320,192,68433,1,8,0:0:0:50:snare_wave.wav
448,192,68433,128,0,70833:0:0:0:0:
64,192,68733,1,0,0:0:0:40:clap.wav
192,192,68733,1,0,0:0:0:0:
192,192,69033,1,0,0:0:0:0:
320,192,69033,1,0,0:0:0:0:
64,192,69333,1,0,0:0:0:0:
320,192,69333,1,0,0:0:0:0:
64,192,69633,1,0,0:0:0:0:
192,192,69633,1,0,0:0:0:0:
192,192,69933,1,0,0:0:0:40:clap.wav
320,192,69933,1,0,0:0:0:0:
64,192,70233,1,0,0:0:0:0:
320,192,70233,1,0,0:0:0:0:
64,192,70533,1,0,0:0:0:0:
192,192,70533,1,0,0:0:0:0:
64,192,70833,128,0,72333:0:0:0:0:
320,192,70833,1,0,0:0:0:0:
192,192,71133,1,0,0:0:0:40:clap.wav
320,192,71133,1,0,0:0:0:0:
192,192,71433,1,0,0:0:0:0:
448,192,71433,1,0,0:0:0:0:
320,192,71733,1,0,0:0:0:0:
448,192,71733,1,0,0:0:0:0:
192,192,72033,1,0,0:0:0:0:
448,192,72033,1,0,0:0:0:0:
320,192,72183,1,0,0:0:0:0:
192,192,72333,1,0,0:0:0:40:clap.wav
64,192,72483,1,0,0:0:0:0:
448,192,72633,1,0,0:0:0:0:
320,192,72708,1,0,0:0:0:0:
192,192,72783,1,0,0:0:0:40:clap.wav
64,192,72858,1,0,0:0:0:0:
448,192,72933,1,0,0:0:0:0:
192,192,73008,1,0,0:0:0:0:
320,192,73083,1,0,0:0:0:0:
448,192,73158,1,0,0:0:0:0:
64,192,73233,1,0,0:0:0:0:
192,192,73308,1,0,0:0:0:0:
448,192,73383,1,0,0:0:0:0:
320,192,73458,1,0,0:0:0:0:
64,192,73533,1,6,0:0:0:0:
192,192,73533,1,8,0:0:0:50:snare_wave.wav
192,192,73683,1,2,0:0:0:0:
64,192,73833,1,2,0:0:0:0:
448,192,73833,1,0,0:0:0:0:
192,192,73983,1,2,0:0:0:0:
320,192,74133,1,2,0:0:0:0:
448,192,74133,1,4,0:0:0:0:
320,192,74283,1,2,0:0:0:0:
64,192,74433,1,2,0:0:0:0:
192,192,74433,1,0,0:0:0:0:
448,192,74583,1,2,0:0:0:0:
64,192,74733,1,4,0:0:0:0:
320,192,74733,1,2,0:0:0:0:
320,192,74883,1,2,0:0:0:0:
64,192,75033,1,2,0:0:0:0:
448,192,75033,1,0,0:0:0:0:
192,192,75183,1,2,0:0:0:0:
320,192,75333,1,2,0:0:0:0:
448,192,75333,1,4,0:0:0:0:
64,192,75408,1,2,0:0:0:0:
192,192,75483,1,2,0:0:0:0:
320,192,75558,1,2,0:0:0:0:
448,192,75633,1,6,0:0:0:0:
64,192,75708,1,2,0:0:0:0:
192,192,75783,1,2,0:0:0:0:
320,192,75858,1,2,0:0:0:0:
448,192,75933,1,6,0:0:0:0:
64,192,76008,1,2,0:0:0:0:
192,192,76083,1,2,0:0:0:0:
320,192,76158,1,2,0:0:0:0:
448,192,76233,1,6,0:0:0:0:
64,192,76308,1,2,0:0:0:0:
320,192,76383,1,2,0:0:0:0:
192,192,76458,1,2,0:0:0:0:
64,192,76533,1,6,0:0:0:0:
448,192,76608,1,2,0:0:0:0:
320,192,76683,1,2,0:0:0:0:
192,192,76758,1,2,0:0:0:0:
64,192,76833,128,0,77433:0:0:0:0:
448,192,76833,1,0,0:0:0:0:
320,192,76983,1,0,0:0:0:0:
192,192,77133,1,0,0:0:0:0:
448,192,77283,1,0,0:0:0:0:
192,192,77583,128,0,77733:0:0:0:0:
448,192,77733,128,0,77883:0:0:0:0:
320,192,77883,128,0,78033:0:0:0:0:
64,192,78033,1,2,0:0:0:0:
448,192,78033,1,4,0:0:0:0:
192,192,78183,1,0,0:0:0:0:
448,192,78333,1,8,0:0:0:0:
320,192,78333,1,0,0:0:0:0:
64,192,78483,1,2,0:0:0:0:
448,192,78633,1,0,0:0:0:0:
192,192,78633,1,0,0:0:0:0:
320,192,78783,1,2,0:0:0:0:
64,192,78933,1,8,0:0:0:0:
448,192,78933,1,0,0:0:0:0:
64,192,79083,128,0,79383:0:0:0:0:
320,192,79083,1,0,0:0:0:0:
448,192,79383,1,2,0:0:0:0:
64,192,79533,1,8,0:0:0:0:
320,192,79533,1,0,0:0:0:0:
192,192,79683,1,0,0:0:0:0:
320,192,79833,1,0,0:0:0:0:
448,192,79833,1,0,0:0:0:0:
64,192,79983,1,2,0:0:0:0:
192,192,80133,1,8,0:0:0:0:
448,192,80133,1,0,0:0:0:0:
320,192,80283,1,2,0:0:0:0:
192,192,80433,1,2,0:0:0:0:
448,192,80433,1,0,0:0:0:0:
64,192,80583,1,0,0:0:0:0:
320,192,80733,1,8,0:0:0:0:
448,192,80733,1,0,0:0:0:0:
192,192,80883,1,2,0:0:0:0:
64,192,81033,1,0,0:0:0:0:
448,192,81033,1,0,0:0:0:0:
320,192,81183,1,2,0:0:0:0:
192,192,81333,1,8,0:0:0:0:
448,192,81333,1,0,0:0:0:0:
64,192,81483,1,0,0:0:0:0:
192,192,81633,1,8,0:0:0:0:
448,192,81633,1,0,0:0:0:0:
320,192,81733,1,0,0:0:0:0:
192,192,81833,1,0,0:0:0:0:
64,192,81933,1,8,0:0:0:0:
448,192,81933,1,0,0:0:0:0:
320,192,82033,1,2,0:0:0:0:
192,192,82133,1,2,0:0:0:0:
64,192,82233,1,8,0:0:0:0:
448,192,82233,1,0,0:0:0:0:
320,192,82383,1,2,0:0:0:0:
448,192,82458,1,2,0:0:0:0:
64,192,82533,1,8,0:0:0:0:
192,192,82533,1,0,0:0:0:0:
320,192,82683,1,2,0:0:0:0:
192,192,82758,1,2,0:0:0:0:
64,192,82833,1,4,0:0:0:0:
448,192,82833,1,2,0:0:0:0:
192,192,82983,1,0,0:0:0:0:
64,192,83133,1,8,0:0:0:0:
320,192,83133,1,0,0:0:0:0:
448,192,83283,128,2,83433:0:0:0:0:
64,192,83433,1,0,0:0:0:0:
192,192,83583,128,2,83733:0:0:0:0:
320,192,83583,1,0,0:0:0:0:
64,192,83733,1,8,0:0:0:0:
448,192,83733,1,0,0:0:0:0:
320,192,83883,128,0,84183:0:0:0:0:
192,192,84033,1,0,0:0:0:0:
64,192,84183,1,2,0:0:0:0:
192,192,84333,1,8,0:0:0:0:
448,192,84333,1,0,0:0:0:0:
320,192,84483,1,0,0:0:0:0:
64,192,84633,1,0,0:0:0:0:
192,192,84633,1,0,0:0:0:0:
448,192,84783,1,2,0:0:0:0:
64,192,84933,1,8,0:0:0:0:
320,192,84933,1,0,0:0:0:0:
192,192,85083,1,2,0:0:0:0:
320,192,85233,1,2,0:0:0:0:
448,192,85233,128,0,85383:0:0:0:0:
192,192,85383,128,8,85533:0:0:0:0:
64,192,85533,1,4,0:0:0:0:
320,192,85533,1,2,0:0:0:0:
448,192,85683,128,2,85833:0:0:0:0:
192,192,85833,1,8,0:0:0:0:
320,192,85833,1,0,0:0:0:0:
64,192,85983,1,2,0:0:0:0:
192,192,86058,1,2,0:0:0:0:
448,192,86133,1,0,0:0:0:0:
320,192,86208,1,0,0:0:0:0:
192,192,86283,1,8,0:0:0:0:
64,192,86358,1,8,0:0:0:0:
320,192,86433,1,6,0:0:0:0:
192,192,86508,1,2,0:0:0:0:
448,192,86583,1,2,0:0:0:0:
64,192,86658,1,2,0:0:0:0:
320,192,86733,1,2,0:0:0:0:
192,192,86808,1,2,0:0:0:0:
64,192,86883,1,2,0:0:0:0:
448,192,86958,1,2,0:0:0:0:
320,192,87033,1,0,0:0:0:0:
192,192,87183,1,0,0:0:0:0:
320,192,87258,1,0,0:0:0:0:
64,192,87333,1,0,0:0:0:0:
192,192,87408,1,0,0:0:0:0:
448,192,87483,1,0,0:0:0:0:
320,192,87558,1,0,0:0:0:0:
64,192,87633,1,6,0:0:0:0:
192,192,87633,1,8,0:0:0:50:snare_wave.wav
320,192,87783,1,0,0:0:0:0:
64,192,87933,1,8,0:0:0:0:
448,192,87933,1,0,0:0:0:0:
192,192,88083,1,0,0:0:0:0:
320,192,88233,1,2,0:0:0:0:
448,192,88233,1,0,0:0:0:0:
192,192,88383,1,2,0:0:0:0:
64,192,88533,1,8,0:0:0:0:
320,192,88533,1,0,0:0:0:0:
320,192,88683,128,0,88983:0:0:0:0:
192,192,88833,1,2,0:0:0:0:
448,192,88983,1,0,0:0:0:0:
64,192,89133,1,8,0:0:0:0:
192,192,89133,1,0,0:0:0:0:
320,192,89283,1,0,0:0:0:0:
64,192,89433,1,2,0:0:0:0:
448,192,89433,1,0,0:0:0:0:
448,192,89583,1,2,0:0:0:0:
192,192,89733,1,8,0:0:0:0:
320,192,89733,1,0,0:0:0:0:
64,192,89883,1,0,0:0:0:0:
320,192,90033,1,2,0:0:0:0:
448,192,90033,1,0,0:0:0:0:
320,192,90183,1,0,0:0:0:0:
192,192,90333,1,8,0:0:0:0:
448,192,90333,1,0,0:0:0:0:
320,192,90483,1,0,0:0:0:0:
64,192,90633,1,2,0:0:0:0:
192,192,90633,1,0,0:0:0:0:
448,192,90783,1,2,0:0:0:0:
64,192,90933,1,8,0:0:0:0:
320,192,90933,1,0,0:0:0:0:
64,192,91083,1,0,0:0:0:0:
192,192,91233,1,2,0:0:0:0:
448,192,91233,1,0,0:0:0:0:
320,192,91333,1,0,0:0:0:0:
192,192,91433,1,0,0:0:0:0:
64,192,91533,1,8,0:0:0:0:
448,192,91533,1,0,0:0:0:0:
320,192,91633,1,2,0:0:0:0:
192,192,91733,1,2,0:0:0:0:
64,192,91833,1,8,0:0:0:0:
192,192,91908,1,2,0:0:0:0:
320,192,91983,1,2,0:0:0:0:
448,192,92058,1,2,0:0:0:0:
64,192,92133,1,8,0:0:0:0:
192,192,92208,1,2,0:0:0:0:
448,192,92283,1,2,0:0:0:0:
320,192,92358,1,2,0:0:0:0:
64,192,92433,1,2,0:0:0:0:
192,192,92433,1,0,0:0:0:0:
448,192,92583,1,0,0:0:0:0:
320,192,92658,1,0,0:0:0:0:
192,192,92733,1,0,0:0:0:70:S2.wav
448,192,92883,1,0,0:0:0:0:
64,192,93033,1,0,0:0:0:0:
320,192,93108,1,0,0:0:0:0:
192,192,93183,1,0,0:0:0:0:
320,192,93333,1,0,0:0:0:70:S2.wav
448,192,93408,1,0,0:0:0:0:
192,192,93483,1,0,0:0:0:0:
64,192,93633,1,0,0:0:0:0:
192,192,93708,1,0,0:0:0:0:
320,192,93783,1,0,0:0:0:0:
192,192,93933,1,0,0:0:0:70:S2.wav
448,192,93933,1,0,0:0:0:0:
320,192,94083,1,0,0:0:0:0:
64,192,94233,1,0,0:0:0:0:
192,192,94308,1,0,0:0:0:0:
320,192,94383,1,0,0:0:0:0:
448,192,94458,1,0,0:0:0:0:
192,192,94533,1,0,0:0:0:70:S2.wav
64,192,94608,1,0,0:0:0:0:
320,192,94683,1,0,0:0:0:0:
192,192,94758,1,0,0:0:0:0:
448,192,94833,1,2,0:0:0:0:
320,192,94908,1,2,0:0:0:0:
192,192,94983,1,2,0:0:0:0:
64,192,95058,1,2,0:0:0:0:
448,192,95133,1,10,0:0:0:0:
320,192,95208,1,2,0:0:0:0:
64,192,95283,1,2,0:0:0:0:
192,192,95358,1,2,0:0:0:0:
448,192,95433,1,2,0:0:0:0:
320,192,95508,1,2,0:0:0:0:
192,192,95583,1,2,0:0:0:0:
64,192,95658,1,2,0:0:0:0:
448,192,95733,1,10,0:0:0:0:
320,192,95808,1,2,0:0:0:0:
192,192,95883,1,2,0:0:0:0:
448,192,95958,1,2,0:0:0:0:
64,192,96033,1,2,0:0:0:0:
192,192,96108,1,2,0:0:0:0:
320,192,96183,1,2,0:0:0:0:
448,192,96258,1,2,0:0:0:0:
64,192,96333,1,10,0:0:0:0:
192,192,96408,1,2,0:0:0:0:
320,192,96483,1,2,0:0:0:0:
64,192,96558,1,2,0:0:0:0:
448,192,96633,128,0,96858:0:0:0:0:
192,192,96933,128,0,97158:0:0:0:0:
64,192,97233,1,2,0:0:0:0:
192,192,97233,1,4,0:0:0:0:
448,192,97233,1,0,0:0:0:0:
320,192,97383,1,0,0:0:0:0:
64,192,97533,1,8,0:0:0:0:
192,192,97533,1,0,0:0:0:0:
448,192,97683,1,0,0:0:0:0:
64,192,97833,1,0,0:0:0:0:
448,192,97833,1,0,0:0:0:0:
320,192,97983,1,2,0:0:0:0:
64,192,98133,1,8,0:0:0:0:
192,192,98133,1,0,0:0:0:0:
448,192,98283,1,0,0:0:0:0:
192,192,98358,1,0,0:0:0:0:
320,192,98433,1,0,0:0:0:0:
448,192,98508,1,0,0:0:0:0:
64,192,98583,1,2,0:0:0:0:
192,192,98658,1,0,0:0:0:0:
320,192,98733,1,8,0:0:0:0:
448,192,98733,1,0,0:0:0:0:
192,192,98883,1,0,0:0:0:0:
64,192,99033,1,0,0:0:0:0:
320,192,99033,1,0,0:0:0:0:
448,192,99183,1,2,0:0:0:0:
64,192,99333,1,8,0:0:0:0:
192,192,99333,1,0,0:0:0:0:
320,192,99483,1,2,0:0:0:0:
192,192,99633,1,2,0:0:0:0:
320,192,99708,1,0,0:0:0:0:
64,192,99783,1,0,0:0:0:0:
192,192,99858,1,0,0:0:0:0:
320,192,99933,1,8,0:0:0:0:
448,192,99933,1,0,0:0:0:0:
320,192,100083,1,0,0:0:0:0:
64,192,100158,1,0,0:0:0:0:
192,192,100233,1,0,0:0:0:0:
448,192,100308,1,0,0:0:0:0:
64,192,100383,1,2,0:0:0:0:
320,192,100458,1,0,0:0:0:0:
192,192,100533,1,8,0:0:0:0:
448,192,100533,1,0,0:0:0:0:
64,192,100608,1,0,0:0:0:0:
320,192,100683,1,0,0:0:0:0:
192,192,100758,1,0,0:0:0:0:
448,192,100833,1,2,0:0:0:0:
64,192,100908,1,0,0:0:0:0:
192,192,100983,1,2,0:0:0:0:
448,192,101058,1,0,0:0:0:0:
64,192,101133,1,8,0:0:0:0:
320,192,101133,1,0,0:0:0:0:
192,192,101283,1,2,0:0:0:0:
320,192,101358,1,2,0:0:0:0:
64,192,101433,1,8,0:0:0:0:
448,192,101433,1,0,0:0:0:0:
320,192,101583,1,2,0:0:0:0:
64,192,101658,1,0,0:0:0:0:
192,192,101733,1,8,0:0:0:0:
448,192,101733,1,0,0:0:0:0:
320,192,101883,1,2,0:0:0:0:
192,192,101958,1,2,0:0:0:0:
64,192,102033,1,2,0:0:0:0:
448,192,102033,1,0,0:0:0:0:
448,192,102183,1,0,0:0:0:0:
64,192,102333,1,8,0:0:0:0:
192,192,102333,1,0,0:0:0:0:
320,192,102483,1,0,0:0:0:0:
64,192,102558,1,0,0:0:0:0:
448,192,102633,1,0,0:0:0:0:
192,192,102708,1,0,0:0:0:0:
64,192,102783,1,2,0:0:0:0:
448,192,102858,1,0,0:0:0:0:
192,192,102933,1,8,0:0:0:0:
320,192,102933,1,0,0:0:0:0:
192,192,103083,1,0,0:0:0:0:
448,192,103233,1,0,0:0:0:0:
64,192,103308,1,0,0:0:0:0:
320,192,103383,1,2,0:0:0:0:
192,192,103458,1,0,0:0:0:0:
64,192,103533,1,8,0:0:0:0:
448,192,103533,1,0,0:0:0:0:
192,192,103683,1,0,0:0:0:0:
320,192,103758,1,0,0:0:0:0:
64,192,103833,1,0,0:0:0:0:
448,192,103908,1,0,0:0:0:0:
192,192,103983,1,2,0:0:0:0:
320,192,104058,1,0,0:0:0:0:
64,192,104133,1,8,0:0:0:0:
448,192,104133,1,0,0:0:0:0:
192,192,104283,1,2,0:0:0:0:
448,192,104358,1,2,0:0:0:0:
64,192,104433,1,2,0:0:0:0:
320,192,104433,1,4,0:0:0:0:
192,192,104583,1,8,0:0:0:0:
64,192,104658,1,0,0:0:0:0:
320,192,104733,1,2,0:0:0:0:
448,192,104733,1,4,0:0:0:0:
192,192,104883,1,2,0:0:0:0:
320,192,104958,1,2,0:0:0:0:
64,192,105033,1,8,0:0:0:0:
448,192,105033,1,0,0:0:0:0:
320,192,105183,1,2,0:0:0:0:
64,192,105258,1,2,0:0:0:0:
192,192,105333,1,6,0:0:0:0:
320,192,105483,1,8,0:0:0:0:
192,192,105558,1,8,0:0:0:0:
64,192,105633,1,2,0:0:0:0:
448,192,105633,1,4,0:0:0:0:
320,192,105708,1,2,0:0:0:0:
192,192,105783,1,2,0:0:0:0:
64,192,105858,1,2,0:0:0:0:
320,192,105933,1,6,0:0:0:0:
448,192,106008,1,2,0:0:0:0:
64,192,106083,1,2,0:0:0:0:
192,192,106158,1,2,0:0:0:0:
320,192,106233,1,0,0:0:0:0:
64,192,106308,1,0,0:0:0:0:
448,192,106383,1,0,0:0:0:0:
192,192,106458,1,0,0:0:0:0:
64,192,106533,1,0,0:0:0:0:
448,192,106608,1,0,0:0:0:0:
320,192,106683,1,2,0:0:0:0:
192,192,106758,1,0,0:0:0:0:
64,192,106833,128,2,106983:0:0:0:0:
448,192,106833,1,4,0:0:0:0:
192,192,106983,128,0,107133:0:0:0:0:
320,192,107133,128,8,107283:0:0:0:0:
448,192,107133,1,0,0:0:0:0:
64,192,107283,128,0,107433:0:0:0:0:
192,192,107433,128,0,107583:0:0:0:0:
448,192,107433,1,0,0:0:0:0:
320,192,107583,128,2,107733:0:0:0:0:
64,192,107733,1,8,0:0:0:0:
448,192,107733,1,0,0:0:0:0:
192,192,107808,1,0,0:0:0:0:
448,192,107883,1,0,0:0:0:0:
320,192,107958,1,0,0:0:0:0:
192,192,108033,1,0,0:0:0:0:
64,192,108108,1,0,0:0:0:0:
320,192,108183,1,2,0:0:0:0:
192,192,108258,1,0,0:0:0:0:
320,192,108333,1,8,0:0:0:0:
448,192,108333,1,0,0:0:0:0:
64,192,108483,1,0,0:0:0:0:
192,192,108558,1,0,0:0:0:0:
320,192,108633,1,0,0:0:0:0:
448,192,108708,1,0,0:0:0:0:
192,192,108783,1,2,0:0:0:0:
64,192,108858,1,0,0:0:0:0:
320,192,108933,1,8,0:0:0:0:
448,192,108933,1,0,0:0:0:0:
192,192,109008,1,0,0:0:0:0:
64,192,109083,1,2,0:0:0:0:
448,192,109158,1,0,0:0:0:0:
320,192,109233,1,2,0:0:0:0:
64,192,109308,1,0,0:0:0:0:
192,192,109383,1,0,0:0:0:0:
320,192,109458,1,0,0:0:0:0:
64,192,109533,1,8,0:0:0:0:
448,192,109533,1,0,0:0:0:0:
192,192,109683,1,0,0:0:0:0:
448,192,109758,1,0,0:0:0:0:
320,192,109833,1,0,0:0:0:0:
192,192,109908,1,0,0:0:0:0:
64,192,109983,1,2,0:0:0:0:
192,192,110133,1,8,0:0:0:0:
448,192,110133,1,0,0:0:0:0:
320,192,110208,1,0,0:0:0:0:
64,192,110283,1,0,0:0:0:0:
192,192,110358,1,0,0:0:0:0:
448,192,110433,1,2,0:0:0:0:
320,192,110508,1,0,0:0:0:0:
192,192,110583,1,2,0:0:0:0:
64,192,110658,1,0,0:0:0:0:
320,192,110733,1,8,0:0:0:0:
448,192,110733,1,0,0:0:0:0:
64,192,110883,1,2,0:0:0:0:
320,192,110958,1,2,0:0:0:0:
192,192,111033,1,8,0:0:0:0:
448,192,111033,1,0,0:0:0:0:
192,192,111183,1,2,0:0:0:0:
320,192,111183,1,0,0:0:0:0:
64,192,111333,1,8,0:0:0:0:
448,192,111333,1,0,0:0:0:0:
320,192,111483,1,2,0:0:0:0:
64,192,111558,1,2,0:0:0:0:
448,192,111633,1,2,0:0:0:0:
320,192,111708,1,0,0:0:0:0:
192,192,111783,1,0,0:0:0:0:
448,192,111858,1,0,0:0:0:0:
64,192,111933,1,8,0:0:0:0:
320,192,111933,1,0,0:0:0:0:
448,192,112083,1,0,0:0:0:0:
64,192,112158,1,0,0:0:0:0:
192,192,112233,1,0,0:0:0:0:
320,192,112233,1,0,0:0:0:0:
64,192,112383,1,2,0:0:0:0:
448,192,112383,1,0,0:0:0:0:
64,192,112533,1,8,0:0:0:0:
320,192,112533,1,0,0:0:0:0:
192,192,112683,1,2,0:0:0:0:
320,192,112758,1,2,0:0:0:0:
64,192,112833,1,2,0:0:0:0:
192,192,112908,1,0,0:0:0:0:
64,192,112983,1,8,0:0:0:0:
320,192,112983,1,0,0:0:0:0:
448,192,113058,1,0,0:0:0:0:
192,192,113133,1,2,0:0:0:0:
64,192,113208,1,2,0:0:0:0:
448,192,113283,1,2,0:0:0:0:
320,192,113358,1,2,0:0:0:0:
64,192,113433,1,8,0:0:0:0:
192,192,113433,1,0,0:0:0:0:
320,192,113508,1,8,0:0:0:0:
448,192,113583,1,8,0:0:0:0:
64,192,113658,1,8,0:0:0:0:
320,192,113733,1,8,0:0:0:0:
448,192,113733,1,0,0:0:0:0:
192,192,113808,1,8,0:0:0:0:
64,192,113883,1,8,0:0:0:0:
448,192,113958,1,8,0:0:0:0:
64,192,114033,1,4,0:0:0:0:
320,192,114033,1,2,0:0:0:0:
192,192,114183,1,0,0:0:0:0:
320,192,114333,1,0,0:0:0:0:
448,192,114483,1,0,0:0:0:0:
64,192,114633,1,0,0:0:0:0:
192,192,114783,1,0,0:0:0:0:
320,192,114933,1,0,0:0:0:0:
448,192,115083,1,0,0:0:0:0:
64,192,115233,1,0,0:0:0:0:
192,192,115383,1,0,0:0:0:0:
320,192,115533,1,0,0:0:0:0:
192,192,115683,1,0,0:0:0:0:
320,192,115758,1,0,0:0:0:0:
64,192,115833,1,8,0:0:0:0:
192,192,115908,1,8,0:0:0:0:
320,192,115983,1,8,0:0:0:0:
448,192,116058,1,8,0:0:0:0:
64,192,116133,1,8,0:0:0:0:
320,192,116208,1,8,0:0:0:0:
192,192,116283,1,8,0:0:0:0:
448,192,116358,1,8,0:0:0:0:
64,192,116433,1,2,0:0:0:0:
320,192,116433,1,4,0:0:0:0:
448,192,116583,1,8,0:0:0:0:
64,192,116733,1,8,0:0:0:0:
192,192,116733,1,0,0:0:0:0:
320,192,116883,1,2,0:0:0:0:
64,192,117033,1,2,0:0:0:0:
448,192,117033,1,0,0:0:0:0:
320,192,117108,1,0,0:0:0:70:S2.wav
192,192,117183,1,8,0:0:0:0:
64,192,117333,1,8,0:0:0:0:
448,192,117333,1,0,0:0:0:0:
192,192,117408,1,8,0:0:0:0:
320,192,117483,128,2,117558:0:0:0:0:
448,192,117483,128,0,117558:0:0:0:0:
