osu file format v14

[General]
AudioFilename: audio.mp3
AudioLeadIn: 0
PreviewTime: 79612
Countdown: 0
SampleSet: Soft
StackLeniency: 0.4
Mode: 0
LetterboxInBreaks: 0
WidescreenStoryboard: 0

[Editor]
Bookmarks: 1228,11074,20920,30766,40612,50458,60304,70151,79997,89843,99689,109535,119381
DistanceSpacing: 1.8
BeatDivisor: 4
GridSize: 32
TimelineZoom: 2.2

[Metadata]
Title:Fluctuate (2020 Remaster)
TitleUnicode:Fluctuate (2020 Remaster)
Artist:Aoi a.k.a. ALFOU
ArtistUnicode:Aoi a.k.a. ALFOU
Creator:Realazy
Version:Oscillation
Source:
Tags:fa featured artist ayyri eiri- kkipalt niva icekalt corsace qualifiers nm2 BMS G2R2018 aka "about 2 minutes" Collection Vol.1 electronic instrumental
BeatmapID:2594030
BeatmapSetID:1248102

[Difficulty]
HPDrainRate:5
CircleSize:4
OverallDifficulty:9
ApproachRate:9.6
SliderMultiplier:1.95
SliderTickRate:1

[Events]
//Background and Video events
0,0,"fluctuate.jpg",0,0
//Break Periods
//Storyboard Layer 0 (Background)
//Storyboard Layer 1 (Fail)
//Storyboard Layer 2 (Pass)
//Storyboard Layer 3 (Foreground)
//Storyboard Layer 4 (Overlay)
//Storyboard Sound Samples

[TimingPoints]
1228,307.692307692308,4,2,1,60,1,0
1228,-133.333333333333,4,2,1,60,0,0
3074,-80,4,2,1,60,0,0
3228,-80,4,2,1,5,0,0
3304,-80,4,2,1,60,0,0
3458,-80,4,2,1,5,0,0
3535,-80,4,2,1,60,0,0
3612,-80,4,2,1,5,0,0
3689,-133.333333333333,4,2,1,60,0,0
5535,-79.9999999999999,4,2,1,60,0,0
5689,-79.9999999999999,4,2,1,5,0,0
5766,-79.9999999999999,4,2,1,60,0,0
5920,-79.9999999999999,4,2,1,5,0,0
5997,-79.9999999999999,4,2,1,60,0,0
6151,-133.333333333333,4,2,1,60,0,0
7997,-79.9999999999999,4,2,1,60,0,0
8151,-79.9999999999999,4,2,1,5,0,0
8228,-79.9999999999999,4,2,1,60,0,0
8381,-79.9999999999999,4,2,1,5,0,0
8458,-79.9999999999999,4,2,1,60,0,0
8535,-79.9999999999999,4,2,1,5,0,0
8612,-133.333333333333,4,2,1,60,0,0
10458,-79.9999999999999,4,2,1,60,0,0
11074,-100,4,2,1,70,0,0
13535,-86.9565217391304,4,2,1,75,0,0
15997,-76.9230769230769,4,2,1,80,0,0
18458,-76.9230769230769,4,2,1,85,0,0
20920,-117.647058823529,4,2,2,80,0,0
29535,-80,4,2,3,80,0,0
30151,-66.6666666666667,4,2,3,80,0,0
30766,-500,4,2,1,60,0,0
30997,-500,4,2,1,5,0,0
31074,-100,4,2,2,90,0,0
45228,-66.6666666666667,4,2,1,80,0,0
45843,-100,4,2,2,80,0,0
49843,-66.6666666666667,4,2,1,80,0,0
50458,-133.333333333333,4,2,1,80,0,0
60304,-86.9565217391304,4,2,2,90,0,1
70151,-133.333333333333,4,2,1,60,0,0
75074,-79.9999999999999,4,2,1,80,0,0
78766,-133.333333333333,4,2,1,80,0,0
79997,-79.9999999999999,4,2,2,100,0,1
87381,-66.6666666666667,4,2,1,100,0,1
87535,-66.6666666666667,4,2,1,5,0,1
87612,-66.6666666666667,4,2,1,100,0,1
87766,-66.6666666666667,4,2,1,5,0,1
87843,-66.6666666666667,4,2,1,100,0,1
87920,-66.6666666666667,4,2,1,5,0,1
87997,-60.2409638554217,4,2,1,100,0,1
88151,-60.2409638554217,4,2,1,5,0,1
88228,-60.2409638554217,4,2,1,100,0,1
88381,-60.2409638554217,4,2,1,5,0,1
88458,-60.2409638554217,4,2,1,100,0,1
88535,-60.2409638554217,4,2,1,5,0,1
88612,-60.2409638554217,4,2,1,100,0,1
89535,-60.2409638554217,4,2,2,90,0,1
89843,-80,4,2,2,100,0,1
98458,-166.666666666667,4,2,2,100,0,1
99689,-250,4,2,1,80,0,0
99920,-250,4,2,1,5,0,0
99997,-100,4,2,2,80,0,0
114458,-86.9565217391304,4,2,2,90,0,0
119381,-133.333333333333,4,2,1,50,0,0
121228,-117.647058823529,4,2,1,55,0,0
121535,-100,4,2,1,60,0,0
121843,-86.9565217391304,4,2,1,65,0,0
122151,-76.9230769230769,4,2,1,70,0,0
122458,-68.9655172413793,4,2,1,75,0,0
122766,-62.5,4,2,3,80,0,0
122997,-62.5,4,2,1,5,0,0
123074,-62.5,4,2,1,80,0,0

[Colours]
Combo1 : 210,247,136
Combo2 : 170,247,255
Combo3 : 33,199,254
Combo4 : 121,143,176
Combo5 : 173,179,209
Combo6 : 198,121,173
Combo7 : 215,83,86
Combo8 : 148,235,148

[HitObjects]
46,291,1228,38,0,L|118:302,1,73.1250027894975,4|0,1:2|0:0,0:0:0:0:
178,383,1535,1,2,3:2:0:0:
178,383,1612,1,2,3:0:0:0:
178,383,1689,1,2,3:0:0:0:
295,304,1843,5,2,1:2:0:0:
368,362,1997,2,0,P|402:350|438:351,1,73.1250027894975,2|0,0:0|0:0,0:0:0:0:
281,289,2304,2,0,P|244:289|210:278,1,73.1250027894975,2|0,1:2|0:0,0:0:0:0:
401,228,2612,101,2,0:0:0:0:
368,362,2766,1,2,0:0:0:0:
401,228,2920,1,2,0:0:0:0:
241,384,3074,22,0,L|120:367,1,121.875,4|0,1:0|0:0,0:0:0:0:
110,349,3304,2,0,L|231:366,1,121.875,4|0,1:0|0:0,0:0:0:0:
221,348,3535,2,0,L|160:339,1,60.9375,4|0,1:0|0:0,0:0:0:0:
39,317,3689,102,0,P|109:316|143:254,1,146.250005578995,4|2,1:2|3:0,0:0:0:0:
143,243,4074,1,2,3:0:0:0:
141,232,4151,1,2,3:0:0:0:
285,310,4304,1,2,1:2:0:0:
231,366,4458,2,0,P|197:352|161:347,1,73.1250027894975,2|0,0:0|0:0,0:0:0:0:
330,245,4766,6,0,B|333:225|333:225|323:243,1,36.5625013947487,4|0,1:0|0:0,0:0:0:0:
325,239,5074,85,2,0:0:0:0:
361,235,5150,1,2,0:0:0:0:
394,251,5227,1,2,0:0:0:0:
413,281,5304,1,2,0:0:0:0:
433,311,5381,1,2,0:0:0:0:
466,327,5458,1,2,0:0:0:0:
501,321,5535,22,0,P|519:267|475:230,1,121.875,4|0,1:0|0:0,0:0:0:0:
413,281,5766,2,0,P|403:337|346:349,1,121.875,4|0,1:0|0:0,0:0:0:0:
276,384,5997,2,0,L|258:377,3,20.3125,4|0|0|0,1:0|0:0|0:0|0:0,0:0:0:0:
240,300,6151,101,4,1:2:0:0:
142,378,6304,1,0,3:0:0:0:
142,378,6381,1,0,3:0:0:0:
142,378,6458,2,0,P|107:367|70:365,1,73.1250027894975,2|0,3:2|0:0,0:0:0:0:
257,289,6766,101,2,1:2:0:0:
134,250,6920,1,0,0:0:0:0:
274,278,7074,1,2,0:0:0:0:
117,261,7228,1,2,3:2:0:0:
117,261,7535,5,2,0:0:0:0:
165,383,7689,1,2,0:0:0:0:
35,361,7843,1,2,0:0:0:0:
35,361,7920,1,2,0:0:0:0:
35,361,7997,6,0,P|89:336|150:337,1,121.875,4|0,1:0|0:0,0:0:0:0:
117,261,8228,2,0,P|175:287|236:282,1,121.875,4|0,1:0|0:0,0:0:0:0:
279,348,8458,2,0,P|321:326|343:325,1,60.9375,4|0,1:0|0:0,0:0:0:0:
512,341,8612,85,6,1:2:0:0:
399,267,8766,1,2,0:0:0:0:
493,247,8920,1,2,0:0:0:0:
418,360,9074,22,0,B|415:381|415:381|424:362,1,36.5625013947487,6|0,1:0|0:0,0:0:0:0:
207,249,9381,2,0,B|210:228|210:228|201:247,1,36.5625013947487,4|0,1:0|0:0,0:0:0:0:
106,288,9535,53,0,1:0:0:0:
152,280,9611,1,0,1:0:0:0:
199,273,9688,1,0,1:0:0:0:
246,266,9765,1,0,1:0:0:0:
293,259,9842,5,4,1:0:0:0:
442,313,9997,1,0,1:0:0:0:
199,273,10151,1,4,1:0:0:0:
348,327,10304,1,0,1:0:0:0:
106,288,10458,101,0,1:0:0:0:
81,303,10535,1,0,1:0:0:0:
57,320,10612,2,0,L|36:314,3,20.3125,0|0|0|0,1:0|1:0|1:0|1:0,0:0:0:0:
246,266,10766,5,0,1:0:0:0:
221,250,10843,1,0,1:0:0:0:
197,233,10920,2,0,L|176:237,3,20.3125,0|0|0|0,1:0|1:0|1:0|1:0,0:0:0:0:
348,327,11074,6,0,L|361:230,1,97.5,12|0,1:0|0:0,0:0:0:0:
246,266,11381,2,0,L|259:169,1,97.5,10|0,0:1|0:0,0:0:0:0:
272,384,11689,5,10,0:1:0:0:
131,302,11843,2,0,L|144:205,1,97.5,2|8,0:0|0:1,0:0:0:0:
361,230,12151,2,0,L|374:133,1,97.5,2|8,0:0|0:1,0:0:0:0:
460,384,12458,101,2,0:0:0:0:
348,327,12612,1,10,0:1:0:0:
348,327,12689,1,2,0:0:0:0:
348,327,12766,1,2,0:0:0:0:
476,194,12920,2,0,L|489:97,1,97.5,10|0,0:1|0:0,0:0:0:0:
268,203,13228,2,0,L|264:187,9,16.25,8|0|0|0|0|0|0|0|0|0,3:1|3:0|3:0|3:0|3:0|3:0|3:0|3:0|3:0|3:0,0:0:0:0:
272,221,13535,6,0,L|288:110,1,112.125002138615,4|0,1:2|0:0,0:0:0:0:
162,313,13843,1,10,0:1:0:0:
123,329,13920,1,2,0:0:0:0:
88,322,13997,1,2,0:3:0:0:
69,305,14074,1,2,0:0:0:0:
59,287,14151,1,10,0:1:0:0:
56,272,14228,1,2,0:0:0:0:
56,260,14304,1,2,0:0:0:0:
147,138,14458,101,8,0:1:0:0:
147,138,14535,2,0,L|163:27,1,112.125002138615,2|0,0:0|0:0,0:0:0:0:
166,11,14766,1,12,1:0:0:0:
274,218,14920,1,2,0:0:0:0:
274,218,14997,1,2,0:0:0:0:
274,217,15074,2,0,L|282:161,1,56.0625010693074,10|0,0:1|0:0,0:0:0:0:
293,71,15228,1,6,1:0:0:0:
424,275,15381,5,10,0:1:0:0:
443,245,15457,1,2,0:0:0:0:
436,210,15534,1,6,1:0:0:0:
407,189,15612,1,2,0:0:0:0:
372,195,15688,1,10,1:0:0:0:
332,204,15766,1,2,1:0:0:0:
292,213,15843,2,0,L|274:217,3,18.6875003564358,2|0|0|0,1:0|0:0|0:0|0:0,0:0:0:0:
217,274,15997,69,0,1:0:0:0:
93,231,16151,1,0,1:0:0:0:
228,352,16304,5,10,1:0:0:0:
228,352,16381,2,0,L|218:289,1,63.3749970989229,2|8,0:0|1:0,0:0:0:0:
91,217,16535,1,2,0:0:0:0:
87,185,16611,1,2,1:0:0:0:
81,154,16689,1,2,0:0:0:0:
78,122,16766,1,2,1:0:0:0:
292,213,16920,101,10,1:0:0:0:
292,213,16997,2,0,L|282:150,1,63.3749970989229,2|8,0:0|1:0,0:0:0:0:
271,59,17151,1,2,0:0:0:0:
271,59,17228,1,2,1:0:0:0:
406,149,17381,1,2,1:0:0:0:
218,289,17534,5,10,1:0:0:0:
177,296,17611,1,2,0:0:0:0:
139,280,17689,1,10,1:0:0:0:
102,261,17765,1,2,0:0:0:0:
64,275,17842,1,2,1:0:0:0:
50,312,17919,1,2,0:0:0:0:
67,349,17996,1,2,1:0:0:0:
106,360,18073,1,2,0:0:0:0:
140,339,18150,1,10,1:0:0:0:
145,300,18228,1,2,0:0:0:0:
136,263,18304,1,10,1:0:0:0:
133,225,18381,1,2,0:0:0:0:
141,187,18458,101,2,1:0:0:0:
165,181,18535,1,2,1:0:0:0:
189,175,18612,1,2,1:0:0:0:
213,170,18689,1,2,1:0:0:0:
243,130,18766,1,2,1:0:0:0:
267,124,18843,1,2,1:0:0:0:
291,118,18920,1,2,1:0:0:0:
315,113,18997,1,2,1:0:0:0:
340,69,19074,5,2,1:0:0:0:
360,55,19151,1,2,1:0:0:0:
390,52,19228,1,2,1:0:0:0:
423,65,19304,1,2,1:0:0:0:
447,101,19381,1,2,1:0:0:0:
444,150,19458,1,2,1:0:0:0:
400,187,19535,1,2,1:0:0:0:
359,227,19612,1,2,1:0:0:0:
358,283,19689,2,0,P|359:298|363:314,6,31.6874985494614,4|0|0|0|0|0|0,1:0|1:0|1:0|1:0|1:0|1:0|1:0,0:0:0:0:
438,358,19997,5,2,0:0:0:0:
459,346,20074,1,2,0:0:0:0:
480,334,20151,1,2,0:0:0:0:
308,380,20304,5,2,3:0:0:0:
296,377,20381,1,2,3:0:0:0:
284,375,20458,1,2,3:0:0:0:
272,373,20535,1,2,3:0:0:0:
260,371,20612,1,8,3:1:0:0:
214,173,20920,101,0,1:0:0:0:
182,172,20996,1,0,0:0:0:0:
153,186,21073,1,0,0:0:0:0:
133,210,21151,1,0,0:0:0:0:
113,235,21228,1,0,1:0:0:0:
84,249,21305,1,0,0:0:0:0:
53,248,21381,1,2,0:0:0:0:
20,224,21458,1,2,0:0:0:0:
4,174,21535,1,2,1:2:0:0:
25,130,21612,1,2,0:0:0:0:
62,112,21689,1,2,0:0:0:0:
102,117,21766,1,2,0:0:0:0:
130,138,21843,1,2,1:2:0:0:
145,166,21920,1,2,0:0:0:0:
146,204,21997,1,2,0:0:0:0:
138,239,22074,1,2,0:0:0:0:
125,264,22151,5,0,1:2:0:0:
136,295,22227,1,0,0:0:0:0:
157,319,22304,1,0,0:0:0:0:
185,333,22381,1,0,0:0:0:0:
217,336,22458,1,0,1:2:0:0:
248,327,22535,1,0,0:0:0:0:
272,307,22612,1,2,0:0:0:0:
309,284,22689,1,2,0:0:0:0:
358,272,22766,1,2,1:2:0:0:
396,285,22843,1,2,0:0:0:0:
441,311,22920,1,2,0:0:0:0:
495,300,22997,1,2,0:0:0:0:
512,256,23074,1,2,1:2:0:0:
505,212,23151,1,2,0:0:0:0:
487,178,23228,1,2,0:0:0:0:
475,148,23304,1,2,0:0:0:0:
476,119,23381,101,0,1:2:0:0:
448,136,23457,1,0,0:0:0:0:
421,153,23534,1,0,0:0:0:0:
394,170,23611,1,0,0:0:0:0:
365,157,23688,1,0,1:2:0:0:
336,144,23765,1,0,0:0:0:0:
306,130,23842,1,2,0:0:0:0:
287,92,23920,1,2,0:0:0:0:
268,45,23997,1,2,1:2:0:0:
229,20,24074,1,2,0:0:0:0:
189,18,24151,1,2,0:0:0:0:
153,30,24228,1,2,0:0:0:0:
128,54,24304,1,2,1:2:0:0:
114,88,24381,1,2,0:0:0:0:
113,117,24458,1,2,0:0:0:0:
116,133,24535,1,2,0:0:0:0:
127,153,24612,5,0,1:2:0:0:
158,147,24688,1,0,0:0:0:0:
190,142,24765,1,0,0:0:0:0:
222,137,24842,1,0,0:0:0:0:
254,132,24921,1,0,1:2:0:0:
238,171,24997,1,0,0:0:0:0:
223,211,25074,1,2,0:0:0:0:
207,251,25151,1,2,0:0:0:0:
192,291,25228,70,0,L|151:297,1,41.4375007903576,2|0,1:3|0:0,0:0:0:0:
35,242,25381,1,2,0:3:0:0:
35,242,25458,1,2,0:3:0:0:
35,242,25535,2,0,L|75:235,3,41.4375007903576,2|2|2|2,0:0|0:0|0:0|0:0,0:0:0:0:
192,291,25843,21,0,1:0:0:0:
220,308,25920,1,0,0:0:0:0:
224,341,25997,1,0,0:0:0:0:
200,365,26074,1,0,0:0:0:0:
166,363,26151,1,0,1:0:0:0:
148,334,26228,1,0,0:0:0:0:
160,301,26304,1,2,0:0:0:0:
200,283,26381,1,2,0:0:0:0:
250,301,26458,1,2,1:2:0:0:
291,316,26535,1,2,0:0:0:0:
339,308,26612,1,2,0:0:0:0:
373,280,26689,1,2,0:0:0:0:
391,241,26766,1,2,1:2:0:0:
391,204,26843,1,2,0:0:0:0:
381,177,26920,1,2,0:0:0:0:
367,145,26997,1,2,0:0:0:0:
370,114,27074,5,0,1:0:0:0:
398,99,27150,1,0,0:0:0:0:
427,85,27227,1,0,0:0:0:0:
456,70,27304,1,0,0:0:0:0:
468,98,27381,1,0,1:0:0:0:
480,128,27458,1,0,0:0:0:0:
491,158,27535,1,2,0:0:0:0:
476,196,27612,1,2,0:0:0:0:
455,244,27689,1,2,1:2:0:0:
405,233,27766,1,2,0:0:0:0:
359,224,27843,1,2,0:0:0:0:
319,215,27920,1,2,0:0:0:0:
277,204,27997,1,2,1:2:0:0:
260,165,28074,1,2,0:0:0:0:
246,132,28151,1,2,0:0:0:0:
233,96,28228,1,2,0:0:0:0:
222,67,28304,101,0,1:0:0:0:
246,47,28380,1,0,0:0:0:0:
278,41,28457,1,0,0:0:0:0:
308,51,28534,1,0,0:0:0:0:
331,73,28611,1,0,1:0:0:0:
340,104,28688,1,0,0:0:0:0:
334,135,28765,1,2,0:0:0:0:
323,173,28843,1,2,0:0:0:0:
333,227,28920,1,2,1:2:0:0:
378,256,28997,1,2,0:0:0:0:
428,251,29074,1,2,0:0:0:0:
463,219,29151,1,2,0:0:0:0:
467,181,29228,1,2,1:2:0:0:
447,155,29304,1,2,0:0:0:0:
423,153,29381,1,2,0:0:0:0:
405,165,29458,1,2,0:0:0:0:
398,187,29535,38,2,B|409:278|409:278|413:272|413:272|423:355,1,182.8125,2|0,1:0|0:0,1:0:0:0:
498,371,29844,101,2,3:0:0:0:
498,364,29921,1,2,3:0:0:0:
498,358,29997,1,2,3:0:0:0:
498,351,30074,1,2,3:0:0:0:
497,344,30151,2,0,P|485:309|456:288,1,73.1250027894975,2|0,3:1|0:0,0:0:0:0:
332,384,30304,6,0,B|336:347|336:347|338:350|338:350|342:317,1,73.1250027894975,2|0,1:0|0:0,0:0:0:0:
158,267,30458,2,0,B|153:230|153:230|151:233|151:233|147:200,1,73.1250027894975,2|0,1:0|0:0,0:0:0:0:
269,136,30612,2,0,B|273:99|273:99|275:102|275:102|279:69,1,73.1250027894975,2|0,1:0|0:0,0:0:0:0:
39,30,30766,86,0,L|67:36,1,29.25,2|0,0:0|0:0,0:0:0:0:
140,3,31074,69,10,1:2:0:0:
157,34,31150,1,0,0:0:0:0:
156,69,31227,1,0,0:0:0:0:
134,98,31304,1,0,0:0:0:0:
100,110,31381,1,0,1:0:0:0:
66,122,31458,1,0,0:0:0:0:
44,151,31535,1,0,0:0:0:0:
43,186,31612,1,0,0:0:0:0:
61,216,31689,2,0,P|76:234|86:257,1,48.75,8|0,1:2|0:0,0:0:0:0:
28,384,31843,5,2,0:0:0:0:
2,361,31920,1,2,0:0:0:0:
0,325,31997,1,2,1:2:0:0:
23,322,32073,1,0,0:0:0:0:
47,324,32150,1,0,0:0:0:0:
71,332,32227,1,0,0:0:0:0:
91,344,32304,2,0,P|108:361|120:381,1,48.75,8|0,1:2|0:0,0:0:0:0:
275,241,32458,101,2,0:0:0:0:
252,238,32534,1,0,0:0:0:0:
228,240,32611,1,0,1:0:0:0:
204,248,32688,1,0,0:0:0:0:
183,260,32766,2,0,P|165:277|153:297,1,48.75,0|0,1:0|0:0,0:0:0:0:
22,134,32920,5,10,1:2:0:0:
68,137,32997,1,0,0:0:0:0:
105,157,33074,2,0,P|122:174|134:195,1,48.75
249,327,33228,101,2,1:2:0:0:
256,355,33304,1,0,0:0:0:0:
277,374,33381,1,0,0:0:0:0:
306,380,33458,1,0,0:0:0:0:
334,371,33535,1,8,1:2:0:0:
352,350,33612,1,0,0:0:0:0:
358,321,33689,1,0,0:0:0:0:
348,294,33766,1,0,0:0:0:0:
333,269,33843,1,0,1:0:0:0:
311,236,33919,1,0,0:0:0:0:
306,198,33996,1,0,0:0:0:0:
319,162,34073,1,0,0:0:0:0:
347,135,34151,2,0,P|367:122|390:116,1,48.75,8|0,1:2|0:0,0:0:0:0:
490,8,34304,5,2,0:0:0:0:
502,42,34381,1,2,0:0:0:0:
493,77,34458,1,2,1:2:0:0:
435,219,34612,1,2,0:0:0:0:
351,19,34766,1,10,1:2:0:0:
293,161,34920,1,2,0:0:0:0:
398,123,35074,101,2,1:2:0:0:
398,123,35151,1,2,0:0:0:0:
398,123,35228,2,0,P|378:110|355:104,1,48.75,2|0,0:0|0:0,0:0:0:0:
288,64,35381,1,10,1:2:0:0:
288,64,35458,1,2,0:0:0:0:
288,64,35535,2,0,P|264:68|243:81,1,48.75,2|0,0:0|0:0,0:0:0:0:
161,49,35689,5,2,1:2:0:0:
151,83,35765,1,0,0:0:0:0:
128,112,35842,1,0,0:0:0:0:
96,129,35920,1,0,0:0:0:0:
61,131,35997,1,8,1:2:0:0:
36,108,36074,1,0,0:0:0:0:
34,74,36150,1,0,0:0:0:0:
56,48,36227,1,0,0:0:0:0:
90,46,36304,1,0,1:0:0:0:
116,69,36381,1,0,0:0:0:0:
118,103,36458,1,0,0:0:0:0:
96,129,36535,1,0,0:0:0:0:
73,155,36612,2,0,P|67:178|66:202,1,48.75,8|0,1:2|0:0,0:0:0:0:
140,286,36766,101,2,0:0:0:0:
173,267,36843,1,2,0:0:0:0:
215,261,36920,1,2,1:2:0:0:
387,304,37074,1,2,0:0:0:0:
228,245,37228,5,10,1:2:0:0:
401,289,37382,1,2,0:0:0:0:
495,138,37536,1,2,1:2:0:0:
379,0,37689,102,0,L|288:37,1,97.5,2|8,0:0|1:2,0:0:0:0:
495,138,37997,2,0,L|431:63,1,97.5,2|0,0:0|1:0,0:0:0:0:
401,289,38304,5,2,0:0:0:0:
495,138,38458,1,10,1:2:0:0:
228,245,38612,1,2,0:0:0:0:
387,304,38766,101,2,1:2:0:0:
481,153,38920,1,2,0:0:0:0:
214,260,39074,1,10,1:2:0:0:
308,109,39228,1,2,0:0:0:0:
389,320,39381,5,2,1:2:0:0:
331,349,39458,1,2,0:0:0:0:
273,331,39535,1,2,0:0:0:0:
243,281,39612,1,2,0:0:0:0:
229,229,39689,1,10,1:2:0:0:
192,195,39766,1,2,0:0:0:0:
146,189,39843,1,2,0:0:0:0:
106,206,39920,1,2,0:0:0:0:
84,240,39997,1,2,1:2:0:0:
84,278,40074,1,2,0:0:0:0:
99,306,40151,1,2,1:2:0:0:
125,316,40228,1,2,1:2:0:0:
148,312,40304,1,10,1:2:0:0:
165,300,40381,1,2,0:0:0:0:
169,283,40458,1,2,1:2:0:0:
166,269,40535,1,2,1:2:0:0:
159,261,40612,101,6,1:2:0:0:
171,289,40689,1,2,0:0:0:0:
168,332,40766,1,2,0:0:0:0:
135,370,40843,1,2,0:0:0:0:
77,375,40920,1,10,1:2:0:0:
0,319,41074,1,0,0:0:0:0:
133,130,41228,5,2,1:2:0:0:
291,233,41382,1,0,0:0:0:0:
159,261,41536,1,10,1:2:0:0:
264,103,41689,1,0,0:0:0:0:
426,338,41843,102,0,B|407:293|407:293|436:254,1,97.5,2|0,1:2|0:0,0:0:0:0:
447,243,42074,1,0,0:0:0:0:
457,234,42151,1,8,1:2:0:0:
347,372,42304,2,0,B|327:327|327:327|279:322,1,97.5,2|0,0:0|1:0,0:0:0:0:
262,322,42535,1,0,0:0:0:0:
248,321,42612,1,0,0:0:0:0:
369,200,42766,6,0,B|339:237|339:237|291:232,1,97.5,10|2,1:2|0:0,0:0:0:0:
275,229,42997,1,2,0:0:0:0:
258,226,43074,1,2,1:2:0:0:
253,194,43150,1,0,0:0:0:0:
249,161,43227,1,0,0:0:0:0:
244,129,43304,1,0,0:0:0:0:
239,96,43381,2,0,L|232:47,1,48.75,8|0,1:2|0:0,0:0:0:0:
58,36,43535,101,2,0:0:0:0:
80,5,43611,1,2,0:0:0:0:
117,0,43688,1,2,1:2:0:0:
148,21,43765,1,2,0:0:0:0:
153,59,43842,1,2,0:0:0:0:
131,89,43920,1,2,0:0:0:0:
101,138,43996,1,10,1:2:0:0:
115,193,44073,1,2,0:0:0:0:
164,223,44150,1,2,0:0:0:0:
219,209,44227,1,2,0:0:0:0:
249,161,44304,5,2,1:2:0:0:
304,13,44458,1,2,0:0:0:0:
397,216,44612,1,8,1:2:0:0:
452,68,44766,1,2,0:0:0:0:
331,162,44920,1,2,1:2:0:0:
331,162,44997,1,2,0:0:0:0:
451,279,45151,1,2,0:0:0:0:
451,279,45228,2,0,P|472:250|479:214,1,73.1250027894975,10|0,1:2|0:0,0:0:0:0:
278,97,45381,2,0,P|255:125|249:161,1,73.1250027894975,6|0,1:0|0:0,0:0:0:0:
166,331,45535,5,0,3:0:0:0:
164,321,45612,1,0,3:0:0:0:
162,311,45689,1,0,3:0:0:0:
160,301,45766,1,0,3:0:0:0:
157,290,45843,85,6,1:2:0:0:
122,283,45919,1,2,0:0:0:0:
87,294,45996,1,2,0:0:0:0:
63,320,46073,1,2,0:0:0:0:
53,355,46150,1,2,1:2:0:0:
216,237,46304,1,2,0:0:0:0:
51,126,46458,1,10,1:2:0:0:
51,126,46612,1,2,0:0:0:0:
333,76,46766,5,2,1:2:0:0:
216,237,46920,1,0,0:0:0:0:
166,15,47074,1,10,1:2:0:0:
15,200,47228,1,2,0:0:0:0:
2,227,47304,1,2,0:0:0:0:
22,248,47381,1,2,1:2:0:0:
9,275,47457,1,2,0:0:0:0:
30,296,47535,1,2,0:0:0:0:
17,323,47611,1,2,0:0:0:0:
38,344,47689,1,10,1:2:0:0:
78,358,47766,1,2,0:0:0:0:
123,347,47843,2,0,P|157:327|172:310,1,48.75,2|0,0:0|0:0,0:0:0:0:
284,135,47997,102,0,L|294:182,1,48.75,2|0,1:2|0:0,0:0:0:0:
324,325,48151,1,2,1:2:0:0:
339,297,48227,1,2,0:0:0:0:
363,275,48304,1,10,1:2:0:0:
392,261,48381,1,2,0:0:0:0:
424,257,48458,1,2,1:2:0:0:
455,262,48535,1,2,0:0:0:0:
484,277,48612,5,2,1:2:0:0:
447,309,48688,1,2,1:2:0:0:
400,319,48765,1,2,1:2:0:0:
354,306,48842,1,2,1:2:0:0:
320,272,48919,1,2,1:2:0:0:
306,225,48996,1,2,1:2:0:0:
316,178,49073,1,2,1:2:0:0:
348,142,49150,1,2,1:2:0:0:
393,125,49228,5,2,1:2:0:0:
405,128,49304,1,2,0:0:0:0:
417,131,49381,1,2,0:0:0:0:
428,133,49458,1,2,0:0:0:0:
440,136,49535,1,2,0:0:0:0:
452,139,49612,1,2,0:0:0:0:
464,142,49689,1,2,0:0:0:0:
476,145,49766,1,2,0:0:0:0:
488,148,49843,22,0,B|492:183|492:183|494:179|494:179|498:212,1,73.1250027894975,4|0,1:0|0:0,0:0:0:0:
316,178,50074,2,0,B|320:213|320:213|322:209|322:209|326:242,1,73.1250027894975,4|0,1:0|0:0,0:0:0:0:
143,207,50304,2,0,L|145:231,3,24.3750009298325,0|0|0|0,1:0|1:0|1:0|1:0,0:0:0:0:
148,256,50458,85,6,1:2:0:0:
59,209,50612,1,2,0:0:0:0:
76,109,50766,1,10,1:2:0:0:
160,263,50920,5,2,0:0:0:0:
71,216,51074,1,2,0:0:0:0:
88,116,51228,1,2,1:2:0:0:
187,101,51381,1,10,1:2:0:0:
232,192,51535,1,0,0:0:0:0:
232,192,51843,101,2,0:0:0:0:
199,107,51997,1,10,1:2:0:0:
195,90,52073,1,2,0:0:0:0:
197,71,52150,1,2,0:0:0:0:
204,54,52227,1,2,0:0:0:0:
215,40,52304,2,0,L|256:30,2,36.5625013947487,2|2|2,0:0|0:0|1:2,0:0:0:0:
114,154,52612,5,10,1:2:0:0:
107,153,52689,1,2,0:0:0:0:
99,151,52766,1,2,0:0:0:0:
91,149,52843,1,2,0:0:0:0:
83,147,52920,101,2,1:2:0:0:
2,198,53074,1,2,0:0:0:0:
5,293,53228,1,10,0:0:0:0:
107,153,53381,5,2,0:0:0:0:
26,204,53535,1,2,0:0:0:0:
29,298,53689,1,2,1:2:0:0:
112,343,53843,1,10,1:2:0:0:
193,293,53997,101,2,0:0:0:0:
193,293,54074,2,0,P|244:273|299:270,1,109.687504184246,2|2,0:0|0:0,0:0:0:0:
298,269,54381,1,2,0:0:0:0:
298,269,54458,1,10,1:2:0:0:
190,199,54612,1,0,0:0:0:0:
282,99,54766,6,0,L|317:108,2,36.5625013947487,2|0|0,0:0|0:0|1:0,0:0:0:0:
234,38,54997,2,0,L|199:47,2,36.5625013947487,2|8|0,0:0|1:2|0:0,0:0:0:0:
305,1,55228,1,0,0:0:0:0:
453,120,55381,101,2,1:2:0:0:
477,16,55535,1,2,0:0:0:0:
375,47,55689,1,10,1:2:0:0:
453,120,55843,1,2,0:0:0:0:
480,219,55997,2,0,P|479:255|468:290,1,73.1250027894975,2|0,0:0|1:0,0:0:0:0:
453,120,56304,5,10,1:2:0:0:
379,192,56458,2,0,P|312:219|240:211,1,146.250005578995,2|2,0:0|0:0,0:0:0:0:
151,293,56920,1,10,1:2:0:0:
172,287,56997,1,2,0:0:0:0:
193,281,57074,1,2,0:0:0:0:
160,184,57228,101,2,0:0:0:0:
146,200,57304,1,2,0:0:0:0:
128,213,57381,1,2,1:2:0:0:
108,220,57458,1,2,0:0:0:0:
85,220,57535,1,10,1:2:0:0:
110,205,57611,1,2,0:0:0:0:
128,183,57688,1,2,0:0:0:0:
137,155,57765,1,2,0:0:0:0:
136,126,57842,1,2,1:2:0:0:
44,52,57997,6,0,L|8:42,2,36.5625013947487,2|2|10,0:0|0:0|1:2,0:0:0:0:
165,15,58304,1,0,0:0:0:0:
258,96,58458,1,2,0:0:0:0:
293,102,58534,1,2,0:0:0:0:
327,90,58611,1,2,1:2:0:0:
348,61,58688,1,2,0:0:0:0:
352,25,58765,1,10,1:2:0:0:
455,106,58920,1,0,0:0:0:0:
386,182,59074,101,2,1:2:0:0:
389,203,59150,1,2,0:0:0:0:
392,225,59227,1,2,0:0:0:0:
396,247,59304,1,2,0:0:0:0:
399,268,59381,2,0,L|410:340,1,73.1250027894975,2|0,0:0|0:0,0:0:0:0:
270,351,59689,6,0,L|288:354,1,18.2812506973744,2|0,3:0|0:0,0:0:0:0:
272,343,59766,2,0,L|290:346,1,18.2812506973744,2|0,3:0|0:0,0:0:0:0:
273,335,59843,2,0,L|291:338,1,18.2812506973744,2|0,3:0|0:0,0:0:0:0:
275,327,59920,2,0,L|293:330,1,18.2812506973744,2|0,3:0|0:0,0:0:0:0:
277,318,59997,69,2,0:0:0:0:
258,358,60073,5,2,0:0:0:0:
222,383,60150,101,2,0:0:0:0:
177,384,60227,5,2,0:0:0:0:
138,362,60304,101,6,1:2:0:0:
272,229,60458,1,0,0:0:0:0:
295,234,60535,1,0,0:0:0:0:
316,239,60612,1,0,1:0:0:0:
143,136,60766,1,0,0:0:0:0:
131,163,60842,1,0,0:0:0:0:
108,181,60919,1,0,1:0:0:0:
80,187,60996,1,0,0:0:0:0:
52,178,61073,1,0,0:0:0:0:
283,148,61228,5,2,1:2:0:0:
70,105,61381,2,0,P|46:54|52:0,1,112.125002138615,2|0,0:0|1:0,0:0:0:0:
164,259,61689,101,2,0:0:0:0:
298,73,61842,1,2,1:2:0:0:
298,73,61919,1,2,0:0:0:0:
298,73,61996,1,2,0:0:0:0:
458,238,62151,1,2,1:2:0:0:
458,238,62228,2,0,P|402:237|359:202,1,112.125002138615,2|2,0:0|0:0,0:0:0:0:
295,165,62458,6,0,P|284:190|282:218,1,56.0625010693074,2|0,1:2|0:0,0:0:0:0:
331,281,62612,2,0,P|341:307|341:334,1,56.0625010693074,2|0,0:2|0:0,0:0:0:0:
235,365,62766,102,0,P|184:344|129:344,1,112.125002138615,6|2,1:2|0:0,0:0:0:0:
93,363,62996,1,2,0:0:0:0:
47,350,63073,1,2,1:2:0:0:
20,310,63150,1,2,1:2:0:0:
33,261,63228,2,2,P|88:259|140:237,1,112.125002138615,2|0,1:2|0:0,0:0:0:0:
216,275,63535,1,0,1:0:0:0:
216,275,63612,1,0,1:0:0:0:
216,275,63689,1,2,1:2:0:0:
10,127,63843,5,2,0:0:0:0:
10,127,63920,1,2,0:0:0:0:
10,127,63997,1,6,1:2:0:0:
44,150,64073,1,2,0:0:0:0:
85,147,64150,1,2,0:0:0:0:
117,121,64227,1,2,0:0:0:0:
126,80,64304,1,2,1:2:0:0:
78,0,64458,1,2,0:0:0:0:
233,151,64612,102,0,L|242:95,1,56.0625010693074,2|0,1:2|0:0,0:0:0:0:
333,130,64766,1,2,0:0:0:0:
333,130,64843,2,0,L|342:74,1,56.0625010693074,2|0,1:2|0:0,0:0:0:0:
433,109,64997,1,2,0:0:0:0:
433,109,65074,2,0,L|442:53,1,56.0625010693074,2|0,1:2|0:0,0:0:0:0:
398,189,65228,5,6,1:2:0:0:
512,309,65381,1,0,0:0:0:0:
512,309,65457,1,0,0:0:0:0:
512,309,65535,1,0,1:0:0:0:
362,379,65689,1,0,0:0:0:0:
263,273,65843,1,2,1:2:0:0:
263,273,65920,2,0,P|218:306|163:316,1,112.125002138615,2|0,0:0|0:0,0:0:0:0:
40,317,66151,101,2,1:2:0:0:
52,279,66227,1,2,0:0:0:0:
81,253,66304,1,2,0:0:0:0:
119,245,66381,1,2,0:0:0:0:
156,257,66458,2,0,P|208:276|263:274,1,112.125002138615,6|0,1:2|0:0,0:0:0:0:
189,98,66766,2,0,P|211:148|252:186,1,112.125002138615,0|0,1:0|0:0,0:0:0:0:
323,8,67074,6,0,P|309:31|302:58,1,56.0625010693074,2|0,1:2|0:0,0:0:0:0:
333,17,67228,2,0,P|318:40|311:67,1,56.0625010693074,2|0,0:0|0:0,0:0:0:0:
426,134,67381,102,0,P|440:157|447:184,1,56.0625010693074,2|0,1:2|0:0,0:0:0:0:
416,142,67535,2,0,P|430:165|437:192,1,56.0625010693074,2|0,0:0|0:0,0:0:0:0:
355,319,67689,5,6,1:2:0:0:
221,229,67843,1,0,1:0:0:0:
221,229,67920,1,0,1:0:0:0:
221,229,67997,1,0,1:0:0:0:
77,287,68151,1,2,1:2:0:0:
237,100,68304,101,2,1:2:0:0:
237,100,68381,1,2,1:2:0:0:
237,100,68458,1,2,1:2:0:0:
362,326,68612,1,2,1:2:0:0:
63,290,68766,1,0,1:0:0:0:
328,171,68920,5,0,1:0:0:0:
380,155,68996,1,0,1:0:0:0:
432,176,69073,1,0,1:0:0:0:
460,223,69150,1,0,1:0:0:0:
454,278,69227,1,0,1:0:0:0:
416,317,69304,1,0,1:0:0:0:
362,326,69381,1,0,1:0:0:0:
313,300,69458,1,0,1:0:0:0:
291,250,69535,102,0,L|294:222,6,28.0312505346537,2|0|0|0|0|0|0,1:2|1:0|1:0|1:0|1:0|1:0|1:0,0:0:0:0:
159,148,69843,2,0,L|155:120,6,28.0312505346537,2|0|0|0|0|0|0,1:2|1:0|1:0|1:0|1:0|1:0|1:0,0:0:0:0:
255,16,70151,22,0,P|272:24|290:26,3,36.5625013947487,6|0|0|0,1:2|0:0|0:0|0:0,0:0:0:0:
347,80,70458,2,0,P|365:77|382:71,3,36.5625013947487,2|0|0|0,0:0|0:0|0:0|0:0,0:0:0:0:
455,46,70766,5,2,0:0:0:0:
461,72,70843,1,2,0:0:0:0:
458,99,70920,1,2,0:0:0:0:
444,122,70996,1,2,0:0:0:0:
422,138,71073,1,2,0:0:0:0:
399,153,71151,1,0,0:0:0:0:
385,176,71228,1,0,0:0:0:0:
382,203,71305,1,0,0:0:0:0:
388,229,71381,102,0,P|393:246|394:264,3,36.5625013947487,2|0|0|0,0:0|0:0|0:0|0:0,0:0:0:0:
465,296,71689,2,0,P|456:312|444:325,3,36.5625013947487,2|0|0|0,0:0|0:0|0:0|0:0,0:0:0:0:
379,379,71997,5,2,0:0:0:0:
361,347,72073,1,2,0:0:0:0:
332,325,72150,1,2,0:0:0:0:
297,317,72227,1,2,0:0:0:0:
260,325,72304,1,2,0:0:0:0:
248,349,72380,1,2,0:0:0:0:
228,367,72457,1,2,0:0:0:0:
202,375,72534,1,2,0:0:0:0:
175,373,72612,102,0,L|140:362,3,36.5625013947487,2|0|0|0,0:0|0:0|0:0|0:0,0:0:0:0:
85,305,72920,2,0,L|50:315,3,36.5625013947487,2|0|0|0,0:0|0:0|0:0|0:0,0:0:0:0:
143,247,73228,5,2,0:0:0:0:
153,221,73304,1,2,0:0:0:0:
158,195,73381,1,2,0:0:0:0:
157,167,73458,1,2,0:0:0:0:
149,141,73535,1,2,0:0:0:0:
135,117,73612,1,0,0:0:0:0:
116,97,73689,1,0,0:0:0:0:
94,83,73766,1,0,0:0:0:0:
68,73,73843,102,0,L|32:79,3,36.5625013947487,2|0|0|0,0:0|0:0|0:0|0:0,0:0:0:0:
152,5,74151,2,0,L|115:0,3,36.5625013947487,2|0|0|0,0:0|0:0|0:0|0:0,0:0:0:0:
225,77,74458,5,2,0:0:0:0:
239,100,74534,1,2,0:0:0:0:
249,125,74611,1,2,0:0:0:0:
255,152,74688,1,2,0:0:0:0:
257,179,74766,1,2,1:2:0:0:
291,159,74842,1,2,0:0:0:0:
316,128,74919,1,2,0:0:0:0:
329,90,74996,1,2,0:0:0:0:
328,50,75074,22,0,B|355:46|355:46|360:49|360:49|387:45,1,60.9375,4|0,1:0|0:0,0:0:0:0:
496,20,75228,1,2,3:0:0:0:
493,31,75304,1,2,3:0:0:0:
490,43,75381,1,2,3:0:0:0:
488,55,75458,1,2,3:0:0:0:
485,67,75535,2,0,B|480:99|480:99|492:74,1,60.9375,4|0,1:2|0:0,0:0:0:0:
387,45,75843,69,0,1:2:0:0:
332,96,75997,1,0,1:2:0:0:
361,167,76151,1,0,1:0:0:0:
244,1,76304,5,2,1:2:0:0:
137,84,76458,1,2,1:2:0:0:
21,28,76612,1,0,1:0:0:0:
230,152,76766,101,2,1:2:0:0:
230,152,76843,1,2,1:2:0:0:
230,152,76920,1,2,1:2:0:0:
103,341,77073,1,2,1:2:0:0:
72,184,77227,1,2,1:2:0:0:
262,308,77381,5,2,1:2:0:0:
262,308,77458,1,2,1:2:0:0:
262,308,77535,1,2,1:2:0:0:
268,313,77612,1,0,1:0:0:0:
277,320,77689,1,0,1:0:0:0:
290,326,77766,1,0,1:0:0:0:
308,329,77843,1,0,1:0:0:0:
330,326,77920,1,0,1:0:0:0:
354,317,77997,1,0,1:0:0:0:
376,292,78074,1,0,1:0:0:0:
386,257,78151,1,0,1:0:0:0:
377,218,78228,1,0,1:0:0:0:
353,182,78304,1,0,1:0:0:0:
333,139,78381,1,0,1:0:0:0:
345,89,78458,1,0,1:0:0:0:
390,57,78535,1,0,1:0:0:0:
448,64,78612,1,0,1:0:0:0:
483,116,78689,1,0,1:0:0:0:
465,178,78766,102,0,B|377:298|436:430|544:416|576:325|512:289|470:302,1,365.625013947487,2|0,0:0|0:0,0:0:0:0:
357,326,79689,53,10,0:1:0:0:
311,332,79765,5,2,0:0:0:0:
271,313,79842,101,2,0:0:0:0:
250,273,79919,5,2,0:0:0:0:
255,228,79997,102,0,P|314:233|365:201,1,121.875,6|0,1:2|0:0,0:0:0:0:
429,238,80228,2,0,P|440:209|438:179,1,60.9375,2|8,0:0|1:2,0:0:0:0:
505,135,80381,1,2,0:0:0:0:
478,107,80457,1,2,0:0:0:0:
467,73,80534,1,2,0:0:0:0:
468,36,80612,2,0,P|411:44|391:99,1,121.875,2|0,1:2|0:0,0:0:0:0:
336,154,80843,1,2,0:0:0:0:
300,158,80919,1,10,1:2:0:0:
271,137,80997,1,2,0:0:0:0:
254,111,81074,1,2,0:0:0:0:
226,90,81151,1,2,0:0:0:0:
190,95,81227,1,2,1:2:0:0:
23,35,81381,5,2,0:0:0:0:
59,14,81457,1,2,0:0:0:0:
97,32,81534,1,10,1:2:0:0:
103,73,81611,1,2,0:0:0:0:
71,101,81689,1,2,0:0:0:0:
40,129,81766,1,2,0:0:0:0:
45,170,81843,1,2,1:2:0:0:
84,188,81920,2,0,P|121:234|117:293,1,121.875,2|2,0:0|0:0,0:0:0:0:
49,339,82151,101,10,1:2:0:0:
238,374,82304,1,2,0:0:0:0:
240,170,82458,6,0,B|294:146|294:146|344:183,1,121.875,2|0,1:2|0:0,0:0:0:0:
314,252,82689,2,0,L|253:243,1,60.9375,2|8,0:0|1:2,0:0:0:0:
184,283,82843,1,2,0:0:0:0:
162,254,82919,1,2,0:0:0:0:
129,238,82996,1,2,0:0:0:0:
93,239,83074,102,0,P|32:217|33:149,1,121.875,2|0,1:2|0:0,0:0:0:0:
0,11,83303,1,2,0:0:0:0:
34,1,83380,1,10,1:2:0:0:
69,11,83457,1,2,0:0:0:0:
94,38,83534,1,2,0:0:0:0:
101,73,83611,1,2,0:0:0:0:
96,96,83689,5,0,1:0:0:0:
111,134,83766,1,2,0:0:0:0:
146,156,83842,1,2,0:0:0:0:
188,153,83919,1,2,0:0:0:0:
219,125,83996,1,10,1:2:0:0:
227,84,84073,1,2,0:0:0:0:
234,42,84151,1,2,0:0:0:0:
265,14,84228,1,2,0:0:0:0:
307,11,84305,101,2,1:2:0:0:
342,33,84381,2,0,P|393:63|453:56,1,121.875,2|2,0:0|0:0,0:0:0:0:
478,41,84612,1,10,1:2:0:0:
349,232,84766,1,2,1:2:0:0:
331,185,84843,1,2,1:2:0:0:
315,138,84920,6,0,L|433:164,1,121.875,2|0,1:2|0:0,0:0:0:0:
501,204,85151,2,0,B|517:177|517:177|510:148,1,60.9375,2|8,0:0|1:2,0:0:0:0:
430,242,85304,1,2,0:0:0:0:
434,278,85380,1,2,0:0:0:0:
439,314,85457,1,2,0:0:0:0:
444,350,85534,1,2,1:2:0:0:
501,204,85689,1,2,0:0:0:0:
314,309,85843,101,10,1:2:0:0:
253,302,85920,1,2,0:0:0:0:
205,275,85997,1,2,0:0:0:0:
179,232,86074,1,2,0:0:0:0:
184,191,86151,1,2,1:2:0:0:
212,166,86228,1,0,0:0:0:0:
240,166,86304,1,0,0:0:0:0:
262,177,86381,1,0,0:0:0:0:
274,190,86458,5,10,1:2:0:0:
285,168,86535,1,2,0:0:0:0:
281,131,86612,1,2,0:0:0:0:
247,95,86689,1,2,0:0:0:0:
185,95,86766,2,0,P|127:111|66:116,1,121.875,2|2,1:2|0:0,0:0:0:0:
21,99,86997,1,2,0:0:0:0:
0,63,87074,101,10,1:2:0:0:
7,111,87150,1,2,1:2:0:0:
15,159,87227,1,2,1:2:0:0:
22,207,87304,1,2,1:2:0:0:
30,255,87381,86,0,B|94:266|94:266|89:270|89:270|162:283,1,146.250005578995,4|0,1:0|0:0,0:0:0:0:
140,161,87612,2,0,B|205:173|205:173|199:176|199:176|273:190,1,146.250005578995,4|0,1:0|0:0,0:0:0:0:
248,75,87843,2,0,B|320:87,1,73.1250027894975,4|0,1:0|0:0,0:0:0:0:
427,0,87997,6,0,P|396:71|320:87,1,161.850002346153,4|0,1:0|0:0,0:0:0:0:
85,45,88228,2,0,P|162:38|212:98,1,161.850002346153,4|0,1:0|0:0,0:0:0:0:
246,263,88458,2,0,P|250:223|273:190,1,80.9250011730766,4|0,1:0|0:0,0:0:0:0:
344,6,88612,101,0,1:0:0:0:
344,6,88766,2,0,L|383:12,2,40.4625005865383,0|0|0,1:0|1:0|1:0,0:0:0:0:
216,102,88920,5,0,1:0:0:0:
216,102,89074,2,0,L|176:108,2,40.4625005865383,0|0|0,1:0|1:0|1:0,0:0:0:0:
383,180,89228,69,0,1:0:0:0:
414,175,89304,1,0,1:0:0:0:
446,170,89381,1,0,1:0:0:0:
478,165,89458,1,0,1:0:0:0:
510,160,89536,53,2,0:0:0:0:
454,137,89611,5,2,0:0:0:0:
395,148,89688,101,2,0:0:0:0:
352,189,89765,5,2,0:0:0:0:
337,245,89843,102,0,P|396:253|437:296,1,121.875,6|0,1:2|0:0,0:0:0:0:
511,272,90074,2,0,P|515:302|507:331,1,60.9375,2|8,0:0|1:2,0:0:0:0:
402,370,90228,1,2,0:0:0:0:
362,370,90304,1,2,0:0:0:0:
326,352,90381,1,2,0:0:0:0:
302,320,90458,6,0,P|244:291|179:293,1,121.875,2|0,1:2|0:0,0:0:0:0:
120,359,90689,1,2,0:0:0:0:
76,376,90765,1,10,1:2:0:0:
29,363,90842,1,2,0:0:0:0:
0,325,90919,1,2,0:0:0:0:
1,277,90996,1,2,0:0:0:0:
29,239,91073,101,4,1:0:0:0:
84,235,91151,1,2,0:0:0:0:
140,231,91228,1,2,0:0:0:0:
168,204,91304,5,4,1:0:0:0:
223,204,91381,1,2,0:0:0:0:
279,205,91459,1,2,0:0:0:0:
300,236,91535,101,4,1:0:0:0:
344,243,91611,1,2,0:0:0:0:
384,222,91688,1,2,0:0:0:0:
404,182,91765,1,4,1:0:0:0:
396,138,91842,1,2,0:0:0:0:
387,93,91920,1,2,0:0:0:0:
406,53,91997,1,2,1:2:0:0:
444,34,92073,1,2,0:0:0:0:
484,44,92150,1,2,1:2:0:0:
507,79,92227,1,2,0:0:0:0:
502,120,92304,6,0,L|482:242,1,121.875,2|0,1:2|0:0,0:0:0:0:
495,314,92535,2,0,B|464:319|464:319|439:302,1,60.9375,2|8,0:0|1:2,0:0:0:0:
344,243,92689,1,2,0:0:0:0:
338,279,92765,1,2,0:0:0:0:
332,315,92842,1,2,0:0:0:0:
325,352,92920,102,0,P|270:365|239:317,1,121.875,2|0,1:2|0:0,0:0:0:0:
289,190,93151,1,2,0:0:0:0:
326,220,93227,1,10,1:2:0:0:
373,222,93304,1,2,0:0:0:0:
413,195,93381,1,2,0:0:0:0:
428,149,93458,1,2,0:0:0:0:
412,104,93535,5,4,1:0:0:0:
357,94,93612,1,2,0:0:0:0:
302,85,93689,1,2,0:0:0:0:
256,119,93766,101,4,1:0:0:0:
201,109,93843,1,2,0:0:0:0:
146,100,93920,1,2,0:0:0:0:
111,58,93997,5,4,1:0:0:0:
66,85,94073,1,2,0:0:0:0:
21,114,94150,1,2,0:0:0:0:
0,163,94228,101,4,1:0:0:0:
21,216,94304,1,2,0:0:0:0:
41,260,94381,1,2,0:0:0:0:
92,284,94458,53,2,1:2:0:0:
94,302,94535,1,2,1:2:0:0:
95,320,94612,1,2,1:2:0:0:
97,338,94689,1,2,1:2:0:0:
99,356,94766,70,0,L|217:384,1,121.875,10|0,1:0|0:0,0:0:0:0:
325,138,95074,1,10,1:0:0:0:
354,145,95150,1,2,0:0:0:0:
384,152,95227,1,2,0:0:0:0:
413,159,95304,1,2,0:0:0:0:
443,166,95381,1,10,1:0:0:0:
512,54,95535,1,2,0:0:0:0:
338,232,95689,101,10,1:0:0:0:
298,253,95765,1,2,0:0:0:0:
254,244,95842,1,2,0:0:0:0:
226,209,95919,1,2,0:0:0:0:
227,164,95996,5,10,1:0:0:0:
233,146,96074,1,0,0:0:0:0:
239,128,96151,1,0,0:0:0:0:
245,110,96228,1,0,0:0:0:0:
251,93,96304,101,10,1:0:0:0:
212,70,96380,1,2,0:0:0:0:
167,76,96457,1,2,0:0:0:0:
136,108,96534,1,2,0:0:0:0:
131,152,96612,1,10,1:0:0:0:
126,196,96690,1,2,0:0:0:0:
95,228,96767,1,2,0:0:0:0:
50,234,96844,1,2,0:0:0:0:
11,210,96920,5,10,1:0:0:0:
9,270,96996,1,2,0:0:0:0:
47,316,97073,1,2,0:0:0:0:
106,326,97150,1,2,0:0:0:0:
157,294,97227,101,8,1:0:0:0:
235,122,97381,1,8,1:0:0:0:
408,200,97535,1,8,1:0:0:0:
330,373,97689,1,8,1:0:0:0:
486,217,97843,5,8,1:0:0:0:
313,295,97997,1,8,1:0:0:0:
235,122,98151,1,8,1:0:0:0:
408,44,98305,1,8,1:0:0:0:
201,0,98458,101,8,1:0:0:0:
193,5,98535,1,8,1:0:0:0:
184,13,98612,1,8,1:0:0:0:
174,23,98689,1,8,1:0:0:0:
164,37,98766,1,8,1:0:0:0:
153,54,98843,1,8,1:0:0:0:
142,75,98920,1,8,1:0:0:0:
135,100,98997,1,8,1:0:0:0:
131,128,99074,1,8,1:0:0:0:
131,159,99151,1,8,1:0:0:0:
139,193,99228,1,8,1:0:0:0:
155,227,99304,1,8,1:0:0:0:
179,259,99381,1,8,1:0:0:0:
214,285,99458,1,8,1:0:0:0:
257,304,99535,1,8,1:0:0:0:
305,311,99612,1,8,1:0:0:0:
354,302,99689,54,0,L|410:285,1,58.5,2|0,0:0|0:0,0:0:0:0:
452,219,99997,86,0,L|458:121,1,97.5,14|0,1:2|0:0,0:0:0:0:
236,255,100304,2,0,L|196:166,1,97.5,2|0,1:2|0:0,0:0:0:0:
354,302,100612,1,10,1:2:0:0:
154,348,100766,5,2,0:0:0:0:
120,340,100843,1,2,0:0:0:0:
86,332,100920,2,0,P|57:293|54:245,1,97.5,2|0,1:2|0:0,0:0:0:0:
273,383,101228,1,8,1:2:0:0:
236,255,101381,2,0,P|243:207|274:171,1,97.5,2|2,0:0|1:3,0:0:0:0:
274,171,101612,1,2,0:3:0:0:
274,171,101689,1,2,0:3:0:0:
390,299,101843,2,0,P|428:270|476:267,1,97.5,10|0,1:2|0:0,0:0:0:0:
500,71,102151,101,2,1:2:0:0:
500,71,102228,1,2,0:3:0:0:
500,71,102304,1,2,0:3:0:0:
339,116,102458,2,0,L|435:132,1,97.5,8|0,1:2|0:0,0:0:0:0:
309,17,102766,1,2,1:3:0:0:
291,33,102842,1,2,0:3:0:0:
270,44,102919,1,2,0:3:0:0:
246,50,102996,1,2,0:3:0:0:
222,49,103074,1,8,1:2:0:0:
64,152,103228,5,2,0:0:0:0:
55,114,103304,1,2,0:0:0:0:
46,75,103381,1,2,1:2:0:0:
187,184,103535,1,2,0:0:0:0:
77,326,103689,1,10,1:2:0:0:
194,174,103843,1,2,0:0:0:0:
335,283,103997,1,2,1:2:0:0:
335,283,104074,1,2,0:3:0:0:
335,283,104151,1,2,0:3:0:0:
201,164,104304,102,0,P|199:139|193:116,1,48.75,10|0,1:2|0:0,0:0:0:0:
351,86,104458,2,0,P|352:61|358:38,1,48.75,2|0,0:0|0:0,0:0:0:0:
264,0,104612,6,0,P|262:48|271:96,1,97.5,2|0,1:2|0:0,0:0:0:0:
441,0,104920,1,8,1:2:0:0:
512,187,105074,1,2,0:3:0:0:
495,184,105150,1,2,0:3:0:0:
478,179,105227,1,2,1:3:0:0:
463,171,105304,1,2,0:3:0:0:
449,162,105381,1,2,0:3:0:0:
358,38,105535,1,8,1:2:0:0:
231,198,105689,101,2,0:0:0:0:
269,189,105766,1,2,0:0:0:0:
307,180,105843,1,2,1:2:0:0:
473,281,105997,1,2,0:0:0:0:
269,365,106151,1,10,1:2:0:0:
390,231,106304,5,2,0:0:0:0:
390,231,106381,1,2,0:0:0:0:
390,231,106458,1,2,1:2:0:0:
192,312,106612,2,0,L|96:291,1,97.5,2|8,0:0|1:2,0:0:0:0:
307,180,106920,2,0,L|211:159,1,97.5,2|0,0:0|1:0,0:0:0:0:
0,14,107228,101,2,0:0:0:0:
104,126,107381,1,10,1:2:0:0:
248,65,107535,1,2,0:0:0:0:
14,31,107689,5,2,1:2:0:0:
118,143,107842,1,2,0:0:0:0:
262,82,107997,1,10,1:2:0:0:
367,195,108151,1,2,0:0:0:0:
491,2,108304,101,2,1:2:0:0:
436,37,108381,1,2,0:0:0:0:
423,96,108458,1,2,0:0:0:0:
451,147,108535,1,2,0:0:0:0:
488,185,108612,1,10,1:2:0:0:
499,234,108689,1,2,0:0:0:0:
482,277,108766,1,2,0:0:0:0:
447,304,108843,1,2,0:0:0:0:
406,305,108920,1,2,1:2:0:0:
373,286,108997,1,2,0:0:0:0:
357,260,109074,1,2,1:2:0:0:
362,232,109151,1,2,1:2:0:0:
377,214,109227,1,10,1:2:0:0:
396,208,109304,1,2,0:0:0:0:
412,211,109381,1,2,1:2:0:0:
423,220,109458,1,2,1:2:0:0:
427,230,109535,1,6,1:2:0:0:
259,342,109689,5,2,0:0:0:0:
224,146,109843,1,10,1:2:0:0:
71,274,109997,1,2,0:0:0:0:
242,353,110151,101,2,1:2:0:0:
242,154,110305,1,0,0:0:0:0:
69,253,110459,1,10,1:2:0:0:
69,54,110612,1,2,0:0:0:0:
350,228,110766,6,0,P|393:204|441:197,1,97.5,2|0,1:2|0:0,0:0:0:0:
224,146,111074,1,8,1:2:0:0:
440,196,111228,2,0,P|397:170|367:132,1,97.5,2|0,0:0|1:0,0:0:0:0:
431,346,111536,1,2,0:0:0:0:
368,133,111689,2,0,P|367:182|349:227,1,97.5,10|0,1:2|0:0,0:0:0:0:
177,29,111997,102,0,B|215:21|245:47|245:47|274:73|313:65,1,146.25,2|0,1:2|0:0,0:0:0:0:
329,58,112304,1,8,1:2:0:0:
204,216,112458,5,2,0:0:0:0:
180,210,112534,1,2,0:0:0:0:
156,204,112613,1,2,1:2:0:0:
132,198,112689,1,2,0:0:0:0:
108,191,112766,1,2,0:0:0:0:
60,191,112842,1,2,0:0:0:0:
21,220,112919,1,10,1:2:0:0:
9,266,112996,1,2,0:0:0:0:
28,310,113073,1,2,0:0:0:0:
70,333,113150,1,2,0:0:0:0:
118,325,113228,101,2,1:2:0:0:
274,158,113381,1,2,0:0:0:0:
128,317,113535,1,10,1:2:0:0:
63,111,113689,1,2,0:0:0:0:
63,111,113766,2,0,P|85:119|105:133,1,48.75,2|0,0:0|1:0,0:0:0:0:
175,93,113920,1,2,0:0:0:0:
175,93,113997,2,0,P|198:96|223:94,1,48.75,2|0,0:0|0:0,0:0:0:0:
351,152,114151,5,10,1:2:0:0:
340,199,114227,1,2,0:0:0:0:
304,230,114304,1,2,0:0:0:0:
259,234,114381,1,2,0:0:0:0:
215,210,114458,1,6,1:2:0:0:
323,45,114612,101,2,0:0:0:0:
454,153,114766,1,10,1:0:0:0:
512,0,114920,1,2,0:0:0:0:
351,152,115074,5,10,1:0:0:0:
174,91,115228,1,0,0:0:0:0:
364,142,115381,1,10,1:0:0:0:
86,232,115535,1,2,1:0:0:0:
371,308,115688,1,14,1:0:0:0:
254,163,115843,101,2,0:0:0:0:
203,353,115996,1,10,1:0:0:0:
20,177,116151,5,2,0:0:0:0:
11,153,116228,1,2,0:0:0:0:
28,138,116304,1,10,1:0:0:0:
20,116,116381,1,2,0:0:0:0:
38,101,116458,1,2,1:0:0:0:
29,78,116535,1,2,1:0:0:0:
48,61,116612,101,10,1:0:0:0:
102,46,116689,1,2,0:0:0:0:
147,63,116766,1,2,1:0:0:0:
168,97,116843,1,2,1:0:0:0:
171,127,116920,5,10,1:0:0:0:
174,157,116997,1,2,0:0:0:0:
195,191,117074,1,2,1:0:0:0:
240,208,117151,1,2,0:0:0:0:
293,191,117228,2,0,P|316:176|343:169,1,56.0625010693074,10|0,1:0|0:0,0:0:0:0:
512,39,117381,101,2,1:0:0:0:
512,39,117458,1,2,1:0:0:0:
511,39,117535,1,10,1:0:0:0:
495,77,117611,1,2,1:0:0:0:
461,101,117688,1,10,1:0:0:0:
420,103,117765,1,2,1:0:0:0:
384,83,117843,1,10,1:0:0:0:
336,56,117919,1,2,1:0:0:0:
283,70,117996,1,10,1:0:0:0:
256,117,118073,1,2,1:0:0:0:
270,170,118150,5,10,1:0:0:0:
314,179,118228,1,10,1:0:0:0:
357,187,118304,1,10,1:0:0:0:
400,196,118381,1,10,1:0:0:0:
443,206,118458,1,10,1:0:0:0:
410,214,118535,1,10,1:0:0:0:
377,222,118612,1,10,1:0:0:0:
344,230,118689,1,10,1:0:0:0:
311,239,118766,1,10,1:0:0:0:
331,247,118843,1,10,1:0:0:0:
351,255,118920,1,10,1:0:0:0:
371,263,118997,1,10,1:0:0:0:
391,271,119074,1,10,1:0:0:0:
380,275,119151,1,10,1:0:0:0:
369,279,119228,1,10,1:0:0:0:
358,283,119304,1,10,1:0:0:0:
347,287,119381,5,2,1:2:0:0:
271,312,119535,1,2,0:0:0:0:
195,337,119689,2,0,L|159:329,2,36.5625013947487,2|0|0,0:0|0:0|0:0,0:0:0:0:
189,259,119997,2,0,L|153:251,2,36.5625013947487,2|0|0,0:0|0:0|0:0,0:0:0:0:
183,181,120304,2,0,L|147:173,2,36.5625013947487,2|0|0,0:0|0:0|0:0,0:0:0:0:
177,103,120612,2,0,L|141:95,2,36.5625013947487,2|0|0,0:0|0:0|0:0,0:0:0:0:
170,24,120920,2,0,L|134:16,2,36.5625013947487,2|0|0,0:0|0:0|0:0,0:0:0:0:
31,77,121228,6,0,L|70:63,2,41.4375007903576,2|0|0,0:0|0:0|0:0,0:0:0:0:
135,17,121535,2,0,L|182:26,2,48.75,2|0|0,0:0|0:0|0:0,0:0:0:0:
262,19,121843,2,0,L|304:56,2,56.0625010693074,2|0|0,0:0|0:0|0:0,0:0:0:0:
375,89,122151,2,0,L|395:149,2,63.3749970989229,2|0|0,0:0|0:0|0:0,0:0:0:0:
439,213,122458,2,0,L|425:281,2,70.6875021572114,2|0|0,0:0|0:0|0:0,0:0:0:0:
495,323,122766,22,2,B|381:336|381:336|388:328|388:328|280:341,1,234,2|0,1:0|0:0,1:0:0:0:
256,344,123074,69,4,1:0:0:0:
256,192,123112,12,0,124304,1:0:0:0:
