osu file format v14

[General]
AudioFilename: audio.mp3
AudioLeadIn: 0
PreviewTime: 52404
Countdown: 1
SampleSet: Normal
StackLeniency: 0.7
Mode: 1
LetterboxInBreaks: 0
WidescreenStoryboard: 0

[Editor]
DistanceSpacing: 1.2
BeatDivisor: 4
GridSize: 32
TimelineZoom: 1.4

[Metadata]
Title:Eien Labyrinth
TitleUnicode:永遠ラビリンス
Artist:Aoi Yuuki
ArtistUnicode:悠木碧
Creator:D-D-Duke3
Version:Duke's Oni
Source:僕の彼女がマジメ過ぎる処女ビッチな件
Tags:Boku no Kanojo ga Majimesugiru Sho-bitch na Ken
BeatmapID:1439364
BeatmapSetID:680771

[Difficulty]
HPDrainRate:5
CircleSize:5
OverallDifficulty:5
ApproachRate:5
SliderMultiplier:1.4
SliderTickRate:1

[Events]
//Background and Video events
0,0,"bg.jpg",0,30
//Break Periods
//Storyboard Layer 0 (Background)
//Storyboard Layer 1 (Fail)
//Storyboard Layer 2 (Pass)
//Storyboard Layer 3 (Foreground)
//Storyboard Sound Samples

[TimingPoints]
897,358.208955223881,4,1,0,100,1,0
5195,353.982300884956,4,1,0,100,1,0
6610,357.142857142857,4,1,0,100,1,0
10896,357.142857142857,5,1,0,100,1,0
12494,357.142857142857,4,1,0,100,1,0
52493,-100,4,1,0,100,0,1
75351,-100,4,1,0,100,0,0

[HitObjects]
256,192,896,5,0,0:0:0:0:
256,192,986,1,0,0:0:0:0:
256,192,1076,1,8,0:0:0:0:
256,192,1255,1,0,0:0:0:0:
256,192,1434,1,8,0:0:0:0:
256,192,1613,1,0,0:0:0:0:
256,192,2508,1,8,0:0:0:0:
256,192,2688,1,0,0:0:0:0:
256,192,2867,1,8,0:0:0:0:
256,192,3046,1,0,0:0:0:0:
256,192,3404,1,8,0:0:0:0:
256,192,3762,1,0,0:0:0:0:
256,192,3941,1,8,0:0:0:0:
256,192,4120,1,0,0:0:0:0:
256,192,4210,1,0,0:0:0:0:
256,192,4299,1,8,0:0:0:0:
256,192,4479,1,0,0:0:0:0:
256,192,4837,1,8,0:0:0:0:
256,192,5195,1,0,0:0:0:0:
256,192,6256,1,8,0:0:0:0:
256,192,6345,1,0,0:0:0:0:
256,192,6433,1,8,0:0:0:0:
256,192,6610,1,0,0:0:0:0:
256,192,6699,1,0,0:0:0:0:
256,192,6788,1,8,0:0:0:0:
256,192,6967,1,0,0:0:0:0:
256,192,7145,1,0,0:0:0:0:
256,192,7324,1,8,0:0:0:0:
256,192,7502,1,0,0:0:0:0:
256,192,7681,1,0,0:0:0:0:
256,192,7860,1,0,0:0:0:0:
256,192,8038,1,8,0:0:0:0:
256,192,8395,1,0,0:0:0:0:
256,192,8485,1,0,0:0:0:0:
256,192,8574,1,8,0:0:0:0:
256,192,8752,1,8,0:0:0:0:
256,192,8931,1,0,0:0:0:0:
256,192,9110,1,0,0:0:0:0:
256,192,9288,1,8,0:0:0:0:
256,192,9467,1,0,0:0:0:0:
256,192,9556,1,0,0:0:0:0:
256,192,9645,1,8,0:0:0:0:
256,192,10002,5,0,0:0:0:0:
256,192,10181,1,8,0:0:0:0:
256,192,10538,1,0,0:0:0:0:
256,192,10717,1,8,0:0:0:0:
256,192,10895,12,0,12324,0:0:0:0:
256,192,12503,5,4,0:0:0:0:
256,192,12851,1,8,0:0:0:0:
256,192,13208,1,0,0:0:0:0:
256,192,13386,1,0,0:0:0:0:
256,192,13565,1,8,0:0:0:0:
256,192,13744,1,0,0:0:0:0:
256,192,13922,5,8,0:0:0:0:
256,192,14279,1,0,0:0:0:0:
256,192,14458,1,8,0:0:0:0:
256,192,14636,1,0,0:0:0:0:
256,192,14815,1,8,0:0:0:0:
256,192,14904,1,8,0:0:0:0:
256,192,14994,1,0,0:0:0:0:
256,192,15172,1,8,0:0:0:0:
256,192,15351,5,0,0:0:0:0:
256,192,15708,1,8,0:0:0:0:
256,192,15886,1,0,0:0:0:0:
256,192,16065,1,0,0:0:0:0:
256,192,16154,1,0,0:0:0:0:
256,192,16243,1,8,0:0:0:0:
256,192,16422,1,0,0:0:0:0:
256,192,16601,1,8,0:0:0:0:
256,192,16779,1,0,0:0:0:0:
256,192,16869,1,8,0:0:0:0:
256,192,16958,1,0,0:0:0:0:
256,192,17136,1,0,0:0:0:0:
256,192,17315,1,8,0:0:0:0:
256,192,17672,1,8,0:0:0:0:
256,192,17761,1,0,0:0:0:0:
256,192,17851,1,8,0:0:0:0:
256,192,18029,1,8,0:0:0:0:
256,192,18208,1,0,0:0:0:0:
256,192,18565,1,8,0:0:0:0:
256,192,18743,1,0,0:0:0:0:
256,192,18922,1,8,0:0:0:0:
256,192,19011,1,8,0:0:0:0:
256,192,19101,1,0,0:0:0:0:
256,192,19279,1,0,0:0:0:0:
256,192,19458,1,8,0:0:0:0:
256,192,19547,1,0,0:0:0:0:
256,192,19636,1,8,0:0:0:0:
256,192,19815,1,0,0:0:0:0:
256,192,19993,1,8,0:0:0:0:
256,192,20172,1,0,0:0:0:0:
256,192,20261,1,8,0:0:0:0:
256,192,20351,1,0,0:0:0:0:
256,192,20529,1,0,0:0:0:0:
256,192,20708,1,8,0:0:0:0:
256,192,20886,1,8,0:0:0:0:
256,192,20976,1,8,0:0:0:0:
256,192,21065,1,0,0:0:0:0:
256,192,21422,1,8,0:0:0:0:
256,192,21601,1,0,0:0:0:0:
256,192,21779,1,0,0:0:0:0:
256,192,21958,1,8,0:0:0:0:
256,192,22047,1,8,0:0:0:0:
256,192,22136,1,0,0:0:0:0:
256,192,22315,1,8,0:0:0:0:
256,192,22493,1,0,0:0:0:0:
256,192,22672,1,8,0:0:0:0:
256,192,22761,1,8,0:0:0:0:
256,192,22851,1,0,0:0:0:0:
256,192,23029,1,8,0:0:0:0:
256,192,23208,1,8,0:0:0:0:
256,192,23386,1,0,0:0:0:0:
256,192,23565,1,8,0:0:0:0:
256,192,23743,1,8,0:0:0:0:
256,192,23922,5,4,0:0:0:0:
256,192,24279,1,8,0:0:0:0:
256,192,24458,1,0,0:0:0:0:
256,192,24636,1,8,0:0:0:0:
256,192,24726,1,8,0:0:0:0:
256,192,24815,1,0,0:0:0:0:
256,192,24993,1,0,0:0:0:0:
256,192,25172,1,8,0:0:0:0:
256,192,25351,5,0,0:0:0:0:
256,192,25440,1,8,0:0:0:0:
256,192,25529,1,0,0:0:0:0:
256,192,25708,1,8,0:0:0:0:
256,192,25886,1,0,0:0:0:0:
256,192,25976,1,0,0:0:0:0:
256,192,26065,1,0,0:0:0:0:
256,192,26243,1,8,0:0:0:0:
256,192,26333,1,0,0:0:0:0:
256,192,26422,1,8,0:0:0:0:
256,192,26601,1,8,0:0:0:0:
256,192,26779,5,0,0:0:0:0:
256,192,27136,1,8,0:0:0:0:
256,192,27315,1,0,0:0:0:0:
256,192,27493,1,0,0:0:0:0:
256,192,27583,1,0,0:0:0:0:
256,192,27672,1,8,0:0:0:0:
256,192,27851,1,0,0:0:0:0:
256,192,28029,1,8,0:0:0:0:
256,192,28208,1,0,0:0:0:0:
256,192,28297,1,8,0:0:0:0:
256,192,28386,1,0,0:0:0:0:
256,192,28565,1,0,0:0:0:0:
256,192,28743,1,8,0:0:0:0:
256,192,29101,1,8,0:0:0:0:
256,192,29190,1,0,0:0:0:0:
256,192,29279,1,8,0:0:0:0:
256,192,29458,1,8,0:0:0:0:
256,192,29636,1,0,0:0:0:0:
256,192,29993,1,8,0:0:0:0:
256,192,30172,1,0,0:0:0:0:
256,192,30351,1,8,0:0:0:0:
256,192,30440,1,8,0:0:0:0:
256,192,30529,1,0,0:0:0:0:
256,192,30708,1,0,0:0:0:0:
256,192,30886,1,8,0:0:0:0:
256,192,30976,1,0,0:0:0:0:
256,192,31065,1,8,0:0:0:0:
256,192,31243,1,0,0:0:0:0:
256,192,31422,1,8,0:0:0:0:
256,192,31601,1,0,0:0:0:0:
256,192,31690,1,8,0:0:0:0:
256,192,31779,1,0,0:0:0:0:
256,192,31958,1,0,0:0:0:0:
256,192,32136,1,8,0:0:0:0:
256,192,32315,1,0,0:0:0:0:
256,192,32493,1,8,0:0:0:0:
256,192,32851,1,0,0:0:0:0:
256,192,33029,1,8,0:0:0:0:
256,192,33208,1,0,0:0:0:0:
256,192,33386,1,8,0:0:0:0:
256,192,33476,1,8,0:0:0:0:
256,192,33565,1,0,0:0:0:0:
256,192,33743,1,0,0:0:0:0:
256,192,33922,1,8,0:0:0:0:
256,192,34101,1,0,0:0:0:0:
256,192,34190,1,0,0:0:0:0:
256,192,34279,1,8,0:0:0:0:
256,192,34458,1,8,0:0:0:0:
256,192,34547,1,0,0:0:0:0:
256,192,34636,1,8,0:0:0:0:
256,192,34815,1,8,0:0:0:0:
256,192,34904,1,0,0:0:0:0:
256,192,34993,1,8,0:0:0:0:
256,192,35083,1,8,0:0:0:0:
256,192,35172,1,0,0:0:0:0:
256,192,35351,1,12,0:0:0:0:
256,192,35529,1,0,0:0:0:0:
256,192,35708,1,8,0:0:0:0:
256,192,35886,1,0,0:0:0:0:
256,192,36243,1,8,0:0:0:0:
256,192,36422,1,0,0:0:0:0:
256,192,36601,1,8,0:0:0:0:
256,192,36690,1,8,0:0:0:0:
256,192,36779,1,8,0:0:0:0:
256,192,36958,1,0,0:0:0:0:
256,192,37136,1,8,0:0:0:0:
256,192,37315,1,0,0:0:0:0:
256,192,37404,1,0,0:0:0:0:
256,192,37493,1,8,0:0:0:0:
256,192,37672,1,0,0:0:0:0:
256,192,37851,1,8,0:0:0:0:
256,192,38208,1,12,0:0:0:0:
256,192,38386,1,0,0:0:0:0:
256,192,38565,1,8,0:0:0:0:
256,192,38743,1,0,0:0:0:0:
256,192,39101,1,8,0:0:0:0:
256,192,39279,1,0,0:0:0:0:
256,192,39458,1,8,0:0:0:0:
256,192,39547,1,8,0:0:0:0:
256,192,39636,1,8,0:0:0:0:
256,192,39815,1,0,0:0:0:0:
256,192,39993,1,8,0:0:0:0:
256,192,40172,1,0,0:0:0:0:
256,192,40261,1,0,0:0:0:0:
256,192,40351,1,8,0:0:0:0:
256,192,40529,1,0,0:0:0:0:
256,192,40708,1,8,0:0:0:0:
256,192,41065,1,8,0:0:0:0:
256,192,41243,1,0,0:0:0:0:
256,192,41422,1,8,0:0:0:0:
256,192,41601,1,0,0:0:0:0:
256,192,41690,1,0,0:0:0:0:
256,192,41779,1,0,0:0:0:0:
256,192,41958,1,8,0:0:0:0:
256,192,42136,1,0,0:0:0:0:
256,192,42315,1,8,0:0:0:0:
256,192,42404,1,8,0:0:0:0:
256,192,42493,1,0,0:0:0:0:
256,192,42672,1,8,0:0:0:0:
256,192,42761,1,0,0:0:0:0:
256,192,42851,1,8,0:0:0:0:
256,192,43029,1,0,0:0:0:0:
256,192,43118,1,8,0:0:0:0:
256,192,43208,1,0,0:0:0:0:
256,192,43386,1,8,0:0:0:0:
256,192,43565,1,0,0:0:0:0:
256,192,43922,1,8,0:0:0:0:
256,192,44011,1,8,0:0:0:0:
256,192,44101,1,8,0:0:0:0:
256,192,44279,1,0,0:0:0:0:
256,192,44458,1,8,0:0:0:0:
256,192,44547,1,8,0:0:0:0:
256,192,44636,1,8,0:0:0:0:
256,192,44815,1,0,0:0:0:0:
256,192,44993,1,8,0:0:0:0:
256,192,45172,1,8,0:0:0:0:
256,192,45261,1,0,0:0:0:0:
256,192,45351,1,8,0:0:0:0:
256,192,45529,1,0,0:0:0:0:
256,192,45618,1,8,0:0:0:0:
256,192,45708,1,0,0:0:0:0:
256,192,45886,1,0,0:0:0:0:
256,192,46065,1,8,0:0:0:0:
256,192,46243,1,0,0:0:0:0:
256,192,46422,1,8,0:0:0:0:
256,192,46511,1,0,0:0:0:0:
256,192,46601,1,8,0:0:0:0:
256,192,46690,1,8,0:0:0:0:
256,192,46779,1,0,0:0:0:0:
256,192,47136,1,8,0:0:0:0:
256,192,47493,1,8,0:0:0:0:
256,192,47672,1,0,0:0:0:0:
256,192,47851,1,8,0:0:0:0:
256,192,48208,1,0,0:0:0:0:
256,192,48386,1,8,0:0:0:0:
256,192,48565,1,8,0:0:0:0:
256,192,48743,1,0,0:0:0:0:
256,192,48922,1,8,0:0:0:0:
256,192,49011,1,8,0:0:0:0:
256,192,49101,1,0,0:0:0:0:
256,192,49279,1,0,0:0:0:0:
256,192,49458,1,8,0:0:0:0:
256,192,49547,1,0,0:0:0:0:
256,192,49636,1,8,0:0:0:0:
256,192,49815,1,0,0:0:0:0:
256,192,50172,1,8,0:0:0:0:
256,192,50529,1,0,0:0:0:0:
256,192,50618,1,0,0:0:0:0:
256,192,50708,1,8,0:0:0:0:
256,192,50886,1,0,0:0:0:0:
256,192,51065,1,8,0:0:0:0:
256,192,51154,1,0,0:0:0:0:
256,192,51243,1,8,0:0:0:0:
256,192,51333,1,8,0:0:0:0:
256,192,51422,1,0,0:0:0:0:
256,192,51601,1,8,0:0:0:0:
256,192,51779,1,0,0:0:0:0:
256,192,51958,1,8,0:0:0:0:
256,192,52047,1,0,0:0:0:0:
256,192,52136,1,8,0:0:0:0:
256,192,52315,1,0,0:0:0:0:
256,192,52493,1,12,0:0:0:0:
256,192,52672,1,0,0:0:0:0:
256,192,52851,1,8,0:0:0:0:
256,192,52940,1,8,0:0:0:0:
256,192,53029,1,0,0:0:0:0:
256,192,53208,1,8,0:0:0:0:
256,192,53565,1,0,0:0:0:0:
256,192,53654,1,0,0:0:0:0:
256,192,53743,1,8,0:0:0:0:
256,192,53922,1,0,0:0:0:0:
256,192,54101,1,8,0:0:0:0:
256,192,54279,1,0,0:0:0:0:
256,192,54458,1,8,0:0:0:0:
256,192,54547,1,8,0:0:0:0:
256,192,54636,1,0,0:0:0:0:
256,192,54815,1,8,0:0:0:0:
256,192,54993,1,0,0:0:0:0:
256,192,55172,1,8,0:0:0:0:
256,192,55261,1,0,0:0:0:0:
256,192,55351,1,8,0:0:0:0:
256,192,55529,1,0,0:0:0:0:
256,192,55708,1,8,0:0:0:0:
256,192,55886,1,8,0:0:0:0:
256,192,56065,1,0,0:0:0:0:
256,192,56422,1,8,0:0:0:0:
256,192,56511,1,8,0:0:0:0:
256,192,56601,1,0,0:0:0:0:
256,192,56779,1,8,0:0:0:0:
256,192,56958,1,8,0:0:0:0:
256,192,57136,1,0,0:0:0:0:
256,192,57315,1,8,0:0:0:0:
256,192,57404,1,0,0:0:0:0:
256,192,57493,1,8,0:0:0:0:
256,192,57672,1,0,0:0:0:0:
256,192,57761,1,0,0:0:0:0:
256,192,57851,1,8,0:0:0:0:
256,192,58029,1,8,0:0:0:0:
256,192,58208,1,0,0:0:0:0:
256,192,58565,1,8,0:0:0:0:
256,192,58743,1,0,0:0:0:0:
256,192,58833,1,8,0:0:0:0:
256,192,58922,1,0,0:0:0:0:
256,192,59101,1,8,0:0:0:0:
256,192,59190,1,0,0:0:0:0:
256,192,59279,1,8,0:0:0:0:
256,192,59458,1,0,0:0:0:0:
256,192,59547,1,0,0:0:0:0:
256,192,59636,1,8,0:0:0:0:
256,192,59815,1,0,0:0:0:0:
256,192,59993,1,8,0:0:0:0:
256,192,60172,1,0,0:0:0:0:
256,192,60351,1,8,0:0:0:0:
256,192,60440,1,8,0:0:0:0:
256,192,60529,1,0,0:0:0:0:
256,192,60708,1,8,0:0:0:0:
256,192,60886,1,0,0:0:0:0:
256,192,61065,1,8,0:0:0:0:
256,192,61154,1,8,0:0:0:0:
256,192,61243,1,0,0:0:0:0:
256,192,61333,1,0,0:0:0:0:
256,192,61422,1,8,0:0:0:0:
256,192,61601,1,8,0:0:0:0:
256,192,61779,1,0,0:0:0:0:
256,192,61958,1,8,0:0:0:0:
256,192,62047,1,8,0:0:0:0:
256,192,62136,1,0,0:0:0:0:
256,192,62315,1,8,0:0:0:0:
256,192,62493,1,0,0:0:0:0:
256,192,62583,1,8,0:0:0:0:
256,192,62672,1,0,0:0:0:0:
256,192,62851,5,0,0:0:0:0:
256,192,63029,1,8,0:0:0:0:
256,192,63208,1,0,0:0:0:0:
256,192,63565,1,8,0:0:0:0:
256,192,63922,5,4,0:0:0:0:
256,192,64279,1,8,0:0:0:0:
256,192,64458,1,0,0:0:0:0:
256,192,64547,1,0,0:0:0:0:
256,192,64636,1,8,0:0:0:0:
256,192,64815,1,0,0:0:0:0:
256,192,64993,1,8,0:0:0:0:
256,192,65172,1,0,0:0:0:0:
256,192,65261,1,8,0:0:0:0:
256,192,65351,1,0,0:0:0:0:
256,192,65529,1,8,0:0:0:0:
256,192,65708,1,0,0:0:0:0:
256,192,65886,1,8,0:0:0:0:
256,192,65976,1,8,0:0:0:0:
256,192,66065,1,0,0:0:0:0:
256,192,66243,1,8,0:0:0:0:
256,192,66422,1,8,0:0:0:0:
256,192,66601,1,0,0:0:0:0:
256,192,66779,1,8,0:0:0:0:
256,192,67136,1,0,0:0:0:0:
256,192,67315,1,8,0:0:0:0:
256,192,67404,1,0,0:0:0:0:
256,192,67493,1,8,0:0:0:0:
256,192,67672,1,8,0:0:0:0:
256,192,67851,1,0,0:0:0:0:
256,192,68029,1,8,0:0:0:0:
256,192,68118,1,8,0:0:0:0:
256,192,68208,1,0,0:0:0:0:
256,192,68386,1,0,0:0:0:0:
256,192,68565,1,8,0:0:0:0:
256,192,68743,1,8,0:0:0:0:
256,192,68922,1,0,0:0:0:0:
256,192,69279,1,8,0:0:0:0:
256,192,69458,1,0,0:0:0:0:
256,192,69636,1,8,0:0:0:0:
256,192,69726,1,8,0:0:0:0:
256,192,69815,1,0,0:0:0:0:
256,192,69993,1,8,0:0:0:0:
256,192,70172,1,0,0:0:0:0:
256,192,70261,1,0,0:0:0:0:
256,192,70351,1,8,0:0:0:0:
256,192,70529,1,0,0:0:0:0:
256,192,70708,1,8,0:0:0:0:
256,192,70886,1,0,0:0:0:0:
256,192,70976,1,8,0:0:0:0:
256,192,71065,1,0,0:0:0:0:
256,192,71243,1,8,0:0:0:0:
256,192,71422,1,8,0:0:0:0:
256,192,71601,1,0,0:0:0:0:
256,192,71779,1,8,0:0:0:0:
256,192,71958,1,0,0:0:0:0:
256,192,72136,1,8,0:0:0:0:
256,192,72226,1,8,0:0:0:0:
256,192,72315,1,0,0:0:0:0:
256,192,72493,1,8,0:0:0:0:
256,192,72672,1,0,0:0:0:0:
256,192,72851,1,8,0:0:0:0:
256,192,72940,1,0,0:0:0:0:
256,192,73029,1,8,0:0:0:0:
256,192,73208,1,8,0:0:0:0:
256,192,73386,1,0,0:0:0:0:
256,192,73565,1,8,0:0:0:0:
256,192,73743,1,0,0:0:0:0:
256,192,73833,1,8,0:0:0:0:
256,192,73922,1,0,0:0:0:0:
256,192,74101,1,0,0:0:0:0:
256,192,74279,1,8,0:0:0:0:
256,192,74458,1,0,0:0:0:0:
256,192,74547,1,0,0:0:0:0:
256,192,74636,1,8,0:0:0:0:
256,192,74815,1,8,0:0:0:0:
256,192,74993,1,0,0:0:0:0:
256,192,75172,1,8,0:0:0:0:
256,192,75351,1,0,0:0:0:0:
256,192,76243,1,0,0:0:0:0:
256,192,76422,1,8,0:0:0:0:
256,192,76601,1,0,0:0:0:0:
256,192,77136,1,8,0:0:0:0:
256,192,77315,1,0,0:0:0:0:
256,192,77672,1,8,0:0:0:0:
256,192,77851,1,0,0:0:0:0:
256,192,78029,1,8,0:0:0:0:
256,192,78118,1,8,0:0:0:0:
256,192,78208,1,0,0:0:0:0:
256,192,78565,1,8,0:0:0:0:
256,192,78743,1,0,0:0:0:0:
256,192,79101,1,0,0:0:0:0:
256,192,79279,1,8,0:0:0:0:
256,192,79458,1,0,0:0:0:0:
256,192,79815,5,8,0:0:0:0:
256,192,80172,1,0,0:0:0:0:
256,192,80351,1,0,0:0:0:0:
256,192,80529,1,8,0:0:0:0:
256,192,80708,1,0,0:0:0:0:
256,192,80886,5,8,0:0:0:0:
256,192,80976,1,0,0:0:0:0:
256,192,81065,1,8,0:0:0:0:
256,192,81243,1,0,0:0:0:0:
256,192,81422,1,0,0:0:0:0:
256,192,81601,1,8,0:0:0:0:
256,192,81779,1,0,0:0:0:0:
256,192,81958,1,0,0:0:0:0:
256,192,82136,1,0,0:0:0:0:
256,192,82315,1,8,0:0:0:0:
256,192,82672,1,0,0:0:0:0:
256,192,82761,1,0,0:0:0:0:
256,192,82851,1,8,0:0:0:0:
256,192,83029,1,0,0:0:0:0:
256,192,83208,1,8,0:0:0:0:
256,192,83386,1,0,0:0:0:0:
256,192,83565,1,8,0:0:0:0:
256,192,83654,1,8,0:0:0:0:
256,192,83743,1,0,0:0:0:0:
256,192,83922,1,8,0:0:0:0:
256,192,84279,5,0,0:0:0:0:
256,192,84458,1,8,0:0:0:0:
256,192,84815,1,0,0:0:0:0:
256,192,84993,1,8,0:0:0:0:
256,192,85172,5,0,0:0:0:0:
256,192,85529,1,8,0:0:0:0:
256,192,85618,1,0,0:0:0:0:
256,192,85708,1,8,0:0:0:0:
256,192,85886,1,0,0:0:0:0:
256,192,86065,1,8,0:0:0:0:
256,192,86243,1,0,0:0:0:0:
256,192,86333,1,0,0:0:0:0:
256,192,86422,1,8,0:0:0:0:
256,192,86601,12,0,90529,0:0:0:0:
