osu file format v14

[General]
AudioFilename: audio.mp3
AudioLeadIn: 0
PreviewTime: 81543
Countdown: 0
SampleSet: Normal
StackLeniency: 0.7
Mode: 1
LetterboxInBreaks: 0
WidescreenStoryboard: 0

[Editor]
Bookmarks: 453,12089,23725,46998,81907,105180,108089,119725,131362,166271,189543,192453,220089,221543,245180,268089,270998,294271,297180,301543
DistanceSpacing: 0.8
BeatDivisor: 4
GridSize: 32
TimelineZoom: 1.6

[Metadata]
Title:Applephilia no Himegoto
TitleUnicode:アプルフィリアの秘め事
Artist:Aoi Sumito feat. Aitsuki Nakuru
ArtistUnicode:蒼井純人 feat. 藍月なくる
Creator:Defectum
Version:Lustful Oni
Source:
Tags:japanese pop j-pop jpop Applephilia's The Secret of Gothic Featured Artist FA osu osu!
BeatmapID:3915518
BeatmapSetID:1899600

[Difficulty]
HPDrainRate:4.9
CircleSize:3.9
OverallDifficulty:6.9
ApproachRate:9.9
SliderMultiplier:1.4
SliderTickRate:1

[Events]
//Background and Video events
0,0,"bg.jpg",0,80
//Break Periods
//Storyboard Layer 0 (Background)
//Storyboard Layer 1 (Fail)
//Storyboard Layer 2 (Pass)
//Storyboard Layer 3 (Foreground)
//Storyboard Layer 4 (Overlay)
//Storyboard Sound Samples

[TimingPoints]
453,363.636363636364,4,1,0,80,1,0
453,-80.6451612903226,4,1,0,80,0,0
3342,-84.7457627118644,4,1,0,80,0,0
4796,-80.6451612903226,4,1,0,80,0,0
5342,-89.2857142857143,4,1,0,80,0,0
5705,-90.9090909090909,4,1,0,80,0,0
5796,-89.2857142857143,4,1,0,80,0,0
5887,-84.7457627118644,4,1,0,80,0,0
6614,-89.2857142857143,4,1,0,80,0,0
6978,-100,4,1,0,80,0,0
7160,-99.0088225683477,4,1,0,80,0,0
7251,-98.5205657616648,4,1,0,80,0,0
7342,-98.0371009490941,4,1,0,80,0,0
7523,-97.0894526034713,4,1,0,80,0,0
7705,-96.1548632781509,4,1,0,80,0,0
7796,-95.6942836088009,4,1,0,80,0,0
7887,-95.2380952380952,4,1,0,80,0,0
7978,-94.7862356621481,4,1,0,80,0,0
8069,-94.3386435576773,4,1,0,80,0,0
8251,-93.4560222073716,4,1,0,80,0,0
8433,-92.5897631779985,4,1,0,80,0,0
8523,-92.1673003802281,4,1,0,80,0,0
8614,-91.7440452159871,4,1,0,80,0,0
8705,-91.3246596674537,4,1,0,80,0,0
8796,-90.9090909090909,4,1,0,80,0,0
8887,-90.4972870725273,4,1,0,80,0,0
8978,-90.0891972249752,4,1,0,80,0,0
9069,-89.6847713482315,4,1,0,80,0,0
9160,-89.2839603182398,4,1,0,80,0,0
9342,-88.4929906542056,4,1,0,80,0,0
9523,-87.7201447527141,4,1,0,80,0,0
9614,-87.336664104535,4,1,0,80,0,0
9705,-86.9565217391304,4,1,0,80,0,0
9796,-86.5796742546909,4,1,0,80,0,0
9887,-86.20607899853,4,1,0,80,0,0
9948,-85.9574468085106,4,1,0,80,0,0
10008,-85.7142857142857,4,1,0,80,0,0
10069,-85.4684782097692,4,1,0,80,0,0
10129,-85.2280718203554,4,1,0,80,0,0
10190,-84.9850411368736,4,1,0,80,0,0
10251,-84.7433925325129,4,1,0,80,0,0
10342,-84.3854437430375,4,1,0,80,0,0
10433,-84.0305061243356,4,1,0,80,0,0
10493,-83.7981101636322,4,1,0,80,0,0
10554,-83.5631549917264,4,1,0,80,0,0
10614,-76.9230769230769,4,1,0,80,0,0
10796,-78.7401574803149,4,1,0,80,0,0
10978,-80.6451612903226,4,1,0,80,0,0
11160,-82.6446280991736,4,1,0,80,0,0
11342,-84.7457627118644,4,1,0,80,0,0
11523,-86.9565217391304,4,1,0,80,0,0
11705,-100,4,1,0,80,0,0
11766,-99.009900990099,4,1,0,80,0,0
11826,-98.0392156862745,4,1,0,80,0,0
11887,-97.0873786407767,4,1,0,80,0,0
11948,-96.1538461538461,4,1,0,80,0,0
12008,-95.2380952380952,4,1,0,80,0,0
12069,-86.9565217391304,4,1,0,90,0,0
12089,-86.9565217391304,4,1,0,90,0,1
12251,-90.9090909090909,4,1,0,90,0,1
20796,-90.9090909090909,4,1,0,90,0,1
20887,-90.4255319148936,4,1,0,90,0,1
20978,-89.94708994709,4,1,0,90,0,1
21069,-89.4736842105263,4,1,0,90,0,1
21160,-89.0052356020942,4,1,0,90,0,1
21251,-88.5416666666667,4,1,0,90,0,1
21342,-88.0829015544041,4,1,0,90,0,1
21433,-87.6288659793814,4,1,0,90,0,1
21523,-87.1794871794872,4,1,0,90,0,1
21614,-86.734693877551,4,1,0,90,0,1
21705,-86.2944162436548,4,1,0,90,0,1
21796,-85.8585858585859,4,1,0,90,0,1
21887,-85.4271356783919,4,1,0,90,0,1
21978,-85,4,1,0,90,0,1
22069,-84.5771144278607,4,1,0,90,0,1
22129,-84.1584158415842,4,1,0,90,0,1
22190,-83.743842364532,4,1,0,90,0,1
22251,-76.9230769230769,4,1,0,90,0,1
22433,-78.7401574803149,4,1,0,90,0,1
22615,-80.6451612903226,4,1,0,90,0,1
22797,-82.6446280991736,4,1,0,90,0,1
22979,-84.7457627118644,4,1,0,90,0,1
23160,-86.9565217391304,4,1,0,90,0,1
23342,-95.2380952380952,4,1,0,90,0,1
23433,-94.3396226415094,4,1,0,90,0,1
23523,-93.4579439252336,4,1,0,90,0,1
23614,-92.5925925925926,4,1,0,90,0,1
23705,-90.9090909090909,4,1,0,90,0,1
23725,-90.9090909090909,4,1,0,90,0,0
23887,-106.382978723404,4,1,0,70,0,0
34796,-106.382978723404,4,1,0,70,0,0
34887,-105.263157894737,4,1,0,70,0,0
34978,-104.166666666667,4,1,0,70,0,0
35069,-103.092783505155,4,1,0,70,0,0
35160,-102.040816326531,4,1,0,70,0,0
35251,-101.010101010101,4,1,0,70,0,0
35342,-100,4,1,0,70,0,0
41160,-100,4,1,0,70,0,0
41251,-99.5934959349594,4,1,0,70,0,0
41342,-99.1902834008097,4,1,0,70,0,0
41433,-98.7903225806452,4,1,0,70,0,0
41523,-98.3935742971888,4,1,0,70,0,0
41614,-98,4,1,0,70,0,0
41705,-97.609561752988,4,1,0,70,0,0
41796,-97.2222222222222,4,1,0,70,0,0
41887,-96.8379446640316,4,1,0,70,0,0
41978,-96.4566929133858,4,1,0,70,0,0
42069,-96.078431372549,4,1,0,70,0,0
42160,-95.703125,4,1,0,70,0,0
42251,-95.3307392996109,4,1,0,70,0,0
42342,-94.9612403100775,4,1,0,70,0,0
42433,-94.5945945945946,4,1,0,70,0,0
42523,-94.2307692307692,4,1,0,70,0,0
42614,-93.8697318007663,4,1,0,70,0,0
42705,-93.5114503816794,4,1,0,70,0,0
42796,-93.1558935361217,4,1,0,70,0,0
42887,-92.8030303030303,4,1,0,70,0,0
42978,-92.4528301886792,4,1,0,70,0,0
43069,-92.1052631578947,4,1,0,70,0,0
43160,-91.7602996254682,4,1,0,70,0,0
43251,-91.4179104477612,4,1,0,70,0,0
43342,-91.0780669144981,4,1,0,70,0,0
43433,-90.7407407407407,4,1,0,70,0,0
43523,-90.4059040590406,4,1,0,70,0,0
43614,-90.0735294117647,4,1,0,70,0,0
43705,-89.7435897435897,4,1,0,70,0,0
43796,-89.4160583941606,4,1,0,70,0,0
43887,-89.0909090909091,4,1,0,70,0,0
43978,-88.768115942029,4,1,0,70,0,0
44069,-88.4476534296029,4,1,0,70,0,0
44160,-88.1294964028777,4,1,0,70,0,0
44251,-87.8136200716846,4,1,0,70,0,0
44342,-87.5,4,1,0,70,0,0
44433,-87.1886120996441,4,1,0,70,0,0
44523,-86.8794326241135,4,1,0,70,0,0
44614,-86.5724381625442,4,1,0,70,0,0
44705,-86.2676056338028,4,1,0,70,0,0
44796,-85.9649122807018,4,1,0,70,0,0
44887,-85.6643356643357,4,1,0,70,0,0
44978,-85.3658536585366,4,1,0,70,0,0
45069,-85.0694444444445,4,1,0,70,0,0
45160,-84.7750865051903,4,1,0,70,0,0
45251,-84.4827586206897,4,1,0,70,0,0
45342,-84.192439862543,4,1,0,70,0,0
45402,-83.9041095890411,4,1,0,70,0,0
45463,-83.6177474402731,4,1,0,70,0,0
45523,-76.9230769230769,4,1,0,80,0,0
45705,-78.7401574803149,4,1,0,80,0,0
45887,-80.6451612903226,4,1,0,80,0,0
46069,-82.6446280991736,4,1,0,80,0,0
46251,-86.9565217391304,4,1,0,80,0,0
46432,-91.743119266055,4,1,0,80,0,0
46978,-83.3333333333333,4,1,0,80,0,0
47154,-111.111111111111,4,1,0,60,0,0
51342,-111.111111111111,4,1,0,60,0,0
51433,-109.965635738832,4,1,0,60,0,0
51523,-108.843537414966,4,1,0,60,0,0
51614,-107.744107744108,4,1,0,60,0,0
51705,-106.666666666667,4,1,0,60,0,0
51796,-105.610561056106,4,1,0,60,0,0
51887,-104.575163398693,4,1,0,60,0,0
51978,-103.559870550162,4,1,0,60,0,0
52069,-102.564102564103,4,1,0,60,0,0
52160,-101.587301587302,4,1,0,60,0,0
52251,-100.62893081761,4,1,0,60,0,0
52342,-99.6884735202492,4,1,0,60,0,0
52433,-98.7654320987654,4,1,0,60,0,0
52523,-97.8593272171254,4,1,0,60,0,0
52614,-96.969696969697,4,1,0,60,0,0
52705,-96.0960960960961,4,1,0,60,0,0
52796,-95.2380952380952,4,1,0,70,0,0
57160,-95.2380952380952,4,1,0,70,0,0
57251,-96.045197740113,4,1,0,70,0,0
57342,-96.8660968660969,4,1,0,70,0,0
57433,-97.7011494252873,4,1,0,70,0,0
57523,-98.5507246376812,4,1,0,70,0,0
57614,-99.4152046783626,4,1,0,70,0,0
57705,-100.294985250737,4,1,0,70,0,0
57796,-101.190476190476,4,1,0,70,0,0
57887,-102.102102102102,4,1,0,70,0,0
57948,-103.030303030303,4,1,0,70,0,0
58008,-103.975535168196,4,1,0,70,0,0
58069,-104.938271604938,4,1,0,70,0,0
58160,-105.919003115265,4,1,0,70,0,0
58251,-106.918238993711,4,1,0,70,0,0
58342,-107.936507936508,4,1,0,70,0,0
58433,-108.974358974359,4,1,0,70,0,0
58523,-110.032362459547,4,1,0,70,0,0
58614,-111.111111111111,4,1,0,70,0,0
58790,-111.111111111111,4,1,0,60,0,0
62978,-111.111111111111,4,1,0,60,0,0
63069,-109.965635738832,4,1,0,60,0,0
63159,-108.843537414966,4,1,0,60,0,0
63250,-107.744107744108,4,1,0,60,0,0
63341,-106.666666666667,4,1,0,60,0,0
63432,-105.610561056106,4,1,0,60,0,0
63523,-104.575163398693,4,1,0,60,0,0
63614,-103.559870550162,4,1,0,60,0,0
63705,-102.564102564103,4,1,0,60,0,0
63796,-101.587301587302,4,1,0,60,0,0
63887,-100.62893081761,4,1,0,60,0,0
63978,-99.6884735202492,4,1,0,60,0,0
64069,-98.7654320987654,4,1,0,60,0,0
64159,-97.8593272171254,4,1,0,60,0,0
64250,-96.969696969697,4,1,0,60,0,0
64341,-96.0960960960961,4,1,0,60,0,0
64432,-95.2380952380952,4,1,0,70,0,0
70251,-76.9230769230769,4,1,0,70,0,0
70433,-80,4,1,0,70,0,0
70614,-83.3333333333333,4,1,0,70,0,0
70796,-86.9565217391304,4,1,0,70,0,0
71342,-76.9230769230769,4,1,0,70,0,0
71524,-80,4,1,0,70,0,0
71705,-83.3333333333333,4,1,0,70,0,0
71887,-86.9565217391304,4,1,0,70,0,0
72251,-95.2380952380952,4,1,0,70,0,0
72342,-94.3396226415094,4,1,0,70,0,0
72433,-93.4579439252336,4,1,0,70,0,0
72523,-92.5925925925926,4,1,0,70,0,0
72614,-91.743119266055,4,1,0,70,0,0
72705,-90.9090909090909,4,1,0,70,0,0
72796,-90.0900900900901,4,1,0,70,0,0
72887,-89.2857142857143,4,1,0,70,0,0
72978,-88.4955752212389,4,1,0,70,0,0
73069,-87.719298245614,4,1,0,70,0,0
73160,-76.9230769230769,4,1,0,75,0,0
73342,-80,4,1,0,75,0,0
73523,-83.3333333333333,4,1,0,75,0,0
73705,-86.9565217391304,4,1,0,75,0,0
73887,-90.9090909090909,4,1,0,75,0,0
73978,-89.2857142857143,4,1,0,75,0,0
74069,-87.719298245614,4,1,0,75,0,0
74160,-86.2068965517241,4,1,0,75,0,0
74251,-76.9230769230769,4,1,0,75,0,0
74433,-80,4,1,0,75,0,0
74614,-83.3333333333333,4,1,0,75,0,0
74796,-86.9565217391304,4,1,0,75,0,0
74978,-90.9090909090909,4,1,0,75,0,0
75069,-89.2857142857143,4,1,0,75,0,0
75160,-87.719298245614,4,1,0,75,0,0
75251,-86.2068965517241,4,1,0,75,0,0
75342,-76.9230769230769,4,1,0,75,0,0
75523,-90.9090909090909,4,1,0,75,0,0
75614,-90.6799146759255,4,1,0,75,0,0
75705,-90.4518910156034,4,1,0,75,0,0
75766,-90.2996809166061,4,1,0,75,0,0
75826,-90.1504649817771,4,1,0,75,0,0
75887,-89.999266808417,4,1,0,75,0,0
75948,-89.8485749576833,4,1,0,75,0,0
76008,-89.7008449417675,4,1,0,75,0,0
76069,-89.5511499389009,4,1,0,80,0,0
76160,-89.3287607681182,4,1,0,80,0,0
76251,-89.1074734129433,4,1,0,80,0,0
76342,-88.887279705278,4,1,0,80,0,0
76433,-88.6681715575621,4,1,0,80,0,0
76523,-88.4525310754819,4,1,0,80,0,0
76614,-88.2355583909141,4,1,0,80,0,0
76705,-88.0196475628776,4,1,0,80,0,0
76796,-87.8047908153685,4,1,0,80,0,0
76887,-87.5909804481233,4,1,0,80,0,0
76978,-87.3782088356987,4,1,0,80,0,0
77069,-87.1664684265654,4,1,0,80,0,0
77160,-86.9557517422143,4,1,0,80,0,0
77251,-86.7460513762764,4,1,0,80,0,0
77342,-86.5373599936551,4,1,0,80,0,0
77433,-86.3296703296703,4,1,0,80,0,0
77523,-86.1252411857569,4,1,0,80,0,0
77614,-85.9195226304323,4,1,0,80,0,0
77705,-85.7147844910357,4,1,0,80,0,0
77796,-85.5110197755118,4,1,0,80,0,0
77887,-85.3082215581347,4,1,0,80,0,0
77978,-85.1063829787234,4,1,0,80,0,0
78069,-84.9054972418683,4,1,0,80,0,0
78160,-84.7055576161682,4,1,0,80,0,0
78251,-84.506557433479,4,1,0,80,0,0
78342,-84.3084900881719,4,1,0,80,0,0
78433,-84.1113490364026,4,1,0,80,0,0
78523,-83.9172790975902,4,1,0,80,0,0
78614,-83.7219612423589,4,1,0,80,0,0
78705,-83.5275504822823,4,1,0,80,0,0
78796,-83.3340405129032,4,1,0,80,0,0
78887,-83.141425088052,4,1,0,80,0,0
78978,-82.9496980191747,4,1,0,85,0,0
79039,-82.82167195196,4,1,0,85,0,0
79099,-82.6961296190252,4,1,0,85,0,0
79160,-82.5688844792359,4,1,0,85,0,0
79251,-82.3797859132244,4,1,0,85,0,0
79342,-82.1915515120065,4,1,0,85,0,0
79402,-82.067910778308,4,1,0,85,0,0
79463,-81.9425901201602,4,1,0,85,0,0
79523,-81.8196967172138,4,1,0,85,0,0
79614,-81.6340102915382,4,1,0,85,0,0
79705,-81.4491647728215,4,1,0,85,0,0
79766,-81.3257252648055,4,1,0,85,0,0
79826,-81.2046738168678,4,1,0,85,0,0
79887,-81.0819737102847,4,1,0,85,0,0
79978,-80.8996169213659,4,1,0,85,0,0
80069,-80.718078548061,4,1,0,85,0,0
80129,-80.5988279518705,4,1,0,85,0,0
80190,-80.4779505167143,4,1,0,85,0,0
80251,-80.3574351085071,4,1,0,85,0,0
80342,-80.1783191946243,4,1,0,85,0,0
80433,-74.0740740740741,4,1,0,90,0,0
80705,-77.5193798449612,4,1,0,90,0,0
80978,-81.3008130081301,4,1,0,90,0,0
81160,-84.2105263157895,4,1,0,90,0,0
81523,-100,4,1,0,70,0,0
81887,-80,4,1,0,90,0,0
81907,-80,4,1,0,90,0,1
82069,-86.9565217391304,4,1,0,90,0,1
93523,-83.3333333333333,4,1,0,90,0,1
93705,-86.9565217391304,4,1,0,90,0,1
99342,-83.3333333333333,4,1,0,90,0,1
99453,-83.3333333333333,4,1,0,90,0,1
99523,-86.9565217391304,4,1,0,90,0,1
99614,-86.7050185932683,4,1,0,90,0,1
99705,-86.4549660898777,4,1,0,90,0,1
99796,-86.2063517143309,4,1,0,90,0,1
99887,-85.9591630955382,4,1,0,90,0,1
99978,-85.7133880038961,4,1,0,90,0,1
100069,-85.46901434927,4,1,0,90,0,1
100160,-85.2260301790122,4,1,0,90,0,1
100251,-84.9844236760125,4,1,0,90,0,1
100342,-84.744183156783,4,1,0,90,0,1
100433,-84.5052970695744,4,1,0,90,0,1
100523,-84.2703570987273,4,1,0,90,0,1
100614,-84.0341311647106,4,1,0,90,0,1
100705,-83.7992259015789,4,1,0,90,0,1
100796,-83.5656302649717,4,1,0,90,0,1
100887,-83.3333333333333,4,1,0,90,0,1
100978,-83.1023243062113,4,1,0,90,0,1
101069,-82.8725925025822,4,1,0,90,0,1
101160,-82.6441273592051,4,1,0,90,0,1
101251,-82.416918429003,4,1,0,90,0,1
101342,-82.1909553794704,4,1,0,90,0,1
101433,-81.9662279911063,4,1,0,90,0,1
101523,-81.7451755963083,4,1,0,90,0,1
101614,-81.5228760123121,4,1,0,90,0,1
101705,-81.3017822018239,4,1,0,90,0,1
101796,-81.0818843810373,4,1,0,90,0,1
101887,-80.8631728717098,4,1,0,90,0,1
101948,-80.7172234221973,4,1,0,90,0,1
102008,-80.5741796378888,4,1,0,90,0,1
102069,-80.429270593785,4,1,0,90,0,1
102129,-80.2872446877391,4,1,0,90,0,1
102190,-80.1433649637181,4,1,0,90,0,1
102251,-74.0740740740741,4,1,0,90,0,1
102433,-76.9230769230769,4,1,0,90,0,1
102614,-77.5193798449612,4,1,0,90,0,1
102796,-78.7401574803149,4,1,0,90,0,1
102978,-80.6451612903226,4,1,0,90,0,1
103160,-83.3333333333333,4,1,0,90,0,1
103342,-86.9565217391304,4,1,0,90,0,1
103523,-84.7457627118644,4,1,0,90,0,1
103584,-84.0336134453781,4,1,0,90,0,1
103645,-83.3333333333333,4,1,0,90,0,1
103705,-76.9230769230769,4,1,0,90,0,1
103978,-79.2079207920792,4,1,0,90,0,1
104251,-81.6326530612245,4,1,0,90,0,1
104433,-83.3333333333333,4,1,0,90,0,1
104705,-86.0215053763441,4,1,0,90,0,1
104978,-88.8888888888889,4,1,0,90,0,1
105160,-90.9090909090909,4,1,0,90,0,1
105180,-90.9090909090909,4,1,0,90,0,0
105342,-95.2380952380952,4,1,0,80,0,0
105433,-94.7170113836781,4,1,0,80,0,0
105523,-94.2072319897939,4,1,0,80,0,0
105614,-93.6973373778227,4,1,0,80,0,0
105705,-93.1929326392175,4,1,0,80,0,0
105796,-92.6939295871335,4,1,0,80,0,0
105887,-92.2002419134574,4,1,0,80,0,0
105978,-91.7117851390425,4,1,0,80,0,0
106069,-91.2284765655162,4,1,0,80,0,0
106160,-90.7502352286038,4,1,0,80,0,0
106251,-90.2769818529131,4,1,0,80,0,0
106342,-89.8086388081257,4,1,0,80,0,0
106433,-89.3451300665457,4,1,0,80,0,0
106523,-88.8913967573261,4,1,0,80,0,0
106614,-88.4372836318045,4,1,0,80,0,0
106705,-87.9877867143283,4,1,0,80,0,0
106796,-87.5428359729554,4,1,0,80,0,0
106887,-87.1023627852114,4,1,0,80,0,0
106978,-86.6662999028076,4,1,0,80,0,0
107069,-86.2345814174148,4,1,0,80,0,0
107160,-85.8071427274543,4,1,0,80,0,0
107251,-85.3839205058717,4,1,0,80,0,0
107342,-84.96485266886,4,1,0,80,0,0
107402,-84.6907872336613,4,1,0,80,0,0
107463,-84.4139606330154,4,1,0,80,0,0
107523,-84.1434319695189,4,1,0,80,0,0
107584,-83.870166285116,4,1,0,80,0,0
107645,-83.5986697799476,4,1,0,80,0,0
107705,-76.9230769230769,4,1,0,80,0,0
108069,-86.9565217391304,4,1,0,90,0,0
108089,-86.9565217391304,4,1,0,90,0,1
108251,-90.9090909090909,4,1,0,90,0,1
116796,-90.9090909090909,4,1,0,90,0,1
116887,-90.4255319148936,4,1,0,90,0,1
116978,-89.94708994709,4,1,0,90,0,1
117069,-89.4736842105263,4,1,0,90,0,1
117160,-89.0052356020942,4,1,0,90,0,1
117251,-88.5416666666667,4,1,0,90,0,1
117342,-88.0829015544041,4,1,0,90,0,1
117433,-87.6288659793814,4,1,0,90,0,1
117523,-87.1794871794872,4,1,0,90,0,1
117614,-86.734693877551,4,1,0,90,0,1
117705,-86.2944162436548,4,1,0,90,0,1
117796,-85.8585858585859,4,1,0,90,0,1
117887,-85.4271356783919,4,1,0,90,0,1
117978,-85,4,1,0,90,0,1
118069,-84.5771144278607,4,1,0,90,0,1
118129,-84.1584158415842,4,1,0,90,0,1
118190,-83.743842364532,4,1,0,90,0,1
118251,-76.9230769230769,4,1,0,90,0,1
118433,-78.7401574803149,4,1,0,90,0,1
118615,-80.6451612903226,4,1,0,90,0,1
118797,-82.6446280991736,4,1,0,90,0,1
118979,-84.7457627118644,4,1,0,90,0,1
119160,-86.9565217391304,4,1,0,90,0,1
119342,-95.2380952380952,4,1,0,90,0,1
119433,-94.3396226415094,4,1,0,90,0,1
119523,-93.4579439252336,4,1,0,90,0,1
119614,-92.5925925925926,4,1,0,90,0,1
119705,-90.9090909090909,4,1,0,90,0,1
119725,-90.9090909090909,4,1,0,90,0,0
119887,-100,4,1,0,70,0,0
125523,-100,4,1,0,70,0,0
125614,-99.5934959349594,4,1,0,70,0,0
125705,-99.1902834008097,4,1,0,70,0,0
125796,-98.7903225806452,4,1,0,70,0,0
125886,-98.3935742971888,4,1,0,70,0,0
125977,-98,4,1,0,70,0,0
126068,-97.609561752988,4,1,0,70,0,0
126159,-97.2222222222222,4,1,0,70,0,0
126250,-96.8379446640316,4,1,0,70,0,0
126341,-96.4566929133858,4,1,0,70,0,0
126432,-96.078431372549,4,1,0,70,0,0
126523,-95.703125,4,1,0,70,0,0
126614,-95.3307392996109,4,1,0,70,0,0
126705,-94.9612403100775,4,1,0,70,0,0
126796,-94.5945945945946,4,1,0,70,0,0
126886,-94.2307692307692,4,1,0,70,0,0
126977,-93.8697318007663,4,1,0,70,0,0
127068,-93.5114503816794,4,1,0,70,0,0
127159,-93.1558935361217,4,1,0,70,0,0
127250,-92.8030303030303,4,1,0,70,0,0
127341,-92.4528301886792,4,1,0,70,0,0
127432,-92.1052631578947,4,1,0,70,0,0
127523,-91.7602996254682,4,1,0,70,0,0
127614,-91.4179104477612,4,1,0,70,0,0
127705,-91.0780669144981,4,1,0,70,0,0
127796,-90.7407407407407,4,1,0,70,0,0
127886,-90.4059040590406,4,1,0,70,0,0
127977,-90.0735294117647,4,1,0,70,0,0
128068,-89.7435897435897,4,1,0,70,0,0
128159,-89.4160583941606,4,1,0,70,0,0
128250,-89.0909090909091,4,1,0,70,0,0
128341,-88.768115942029,4,1,0,70,0,0
128432,-88.4476534296029,4,1,0,70,0,0
128523,-88.1294964028777,4,1,0,70,0,0
128614,-87.8136200716846,4,1,0,70,0,0
128705,-87.5,4,1,0,70,0,0
128796,-87.1886120996441,4,1,0,70,0,0
128886,-86.8794326241135,4,1,0,70,0,0
128977,-86.5724381625442,4,1,0,70,0,0
129068,-86.2676056338028,4,1,0,70,0,0
129159,-85.9649122807018,4,1,0,70,0,0
129250,-85.6643356643357,4,1,0,70,0,0
129341,-85.3658536585366,4,1,0,70,0,0
129432,-85.0694444444445,4,1,0,70,0,0
129523,-84.7750865051903,4,1,0,70,0,0
129614,-84.4827586206897,4,1,0,70,0,0
129705,-84.192439862543,4,1,0,70,0,0
129765,-83.9041095890411,4,1,0,70,0,0
129826,-83.6177474402731,4,1,0,70,0,0
129886,-76.9230769230769,4,1,0,80,0,0
130068,-78.7401574803149,4,1,0,80,0,0
130250,-80.6451612903226,4,1,0,80,0,0
130432,-82.6446280991736,4,1,0,80,0,0
130614,-86.9565217391304,4,1,0,80,0,0
130795,-91.743119266055,4,1,0,80,0,0
131341,-83.3333333333333,4,1,0,80,0,0
131517,-111.111111111111,4,1,0,60,0,0
135705,-111.111111111111,4,1,0,60,0,0
135796,-109.965635738832,4,1,0,60,0,0
135886,-108.843537414966,4,1,0,60,0,0
135977,-107.744107744108,4,1,0,60,0,0
136068,-106.666666666667,4,1,0,60,0,0
136159,-105.610561056106,4,1,0,60,0,0
136250,-104.575163398693,4,1,0,60,0,0
136341,-103.559870550162,4,1,0,60,0,0
136432,-102.564102564103,4,1,0,60,0,0
136523,-101.587301587302,4,1,0,60,0,0
136614,-100.62893081761,4,1,0,60,0,0
136705,-99.6884735202492,4,1,0,60,0,0
136796,-98.7654320987654,4,1,0,60,0,0
136886,-97.8593272171254,4,1,0,60,0,0
136977,-96.969696969697,4,1,0,60,0,0
137068,-96.0960960960961,4,1,0,60,0,0
137159,-95.2380952380952,4,1,0,70,0,0
141523,-95.2380952380952,4,1,0,70,0,0
141614,-96.045197740113,4,1,0,70,0,0
141705,-96.8660968660969,4,1,0,70,0,0
141796,-97.7011494252873,4,1,0,70,0,0
141886,-98.5507246376812,4,1,0,70,0,0
141977,-99.4152046783626,4,1,0,70,0,0
142068,-100.294985250737,4,1,0,70,0,0
142159,-101.190476190476,4,1,0,70,0,0
142250,-102.102102102102,4,1,0,70,0,0
142311,-103.030303030303,4,1,0,70,0,0
142371,-103.975535168196,4,1,0,70,0,0
142432,-104.938271604938,4,1,0,70,0,0
142523,-105.919003115265,4,1,0,70,0,0
142614,-106.918238993711,4,1,0,70,0,0
142705,-107.936507936508,4,1,0,70,0,0
142796,-108.974358974359,4,1,0,70,0,0
142886,-110.032362459547,4,1,0,70,0,0
142977,-111.111111111111,4,1,0,70,0,0
143154,-111.111111111111,4,1,0,60,0,0
147341,-111.111111111111,4,1,0,60,0,0
147432,-109.965635738832,4,1,0,60,0,0
147522,-108.843537414966,4,1,0,60,0,0
147613,-107.744107744108,4,1,0,60,0,0
147704,-106.666666666667,4,1,0,60,0,0
147795,-105.610561056106,4,1,0,60,0,0
147886,-104.575163398693,4,1,0,60,0,0
147977,-103.559870550162,4,1,0,60,0,0
148068,-102.564102564103,4,1,0,60,0,0
148159,-101.587301587302,4,1,0,60,0,0
148250,-100.62893081761,4,1,0,60,0,0
148341,-99.6884735202492,4,1,0,60,0,0
148432,-98.7654320987654,4,1,0,60,0,0
148522,-97.8593272171254,4,1,0,60,0,0
148613,-96.969696969697,4,1,0,60,0,0
148704,-96.0960960960961,4,1,0,60,0,0
148795,-95.2380952380952,4,1,0,70,0,0
154614,-76.9230769230769,4,1,0,70,0,0
154796,-80,4,1,0,70,0,0
154977,-83.3333333333333,4,1,0,70,0,0
155159,-86.9565217391304,4,1,0,70,0,0
155705,-76.9230769230769,4,1,0,70,0,0
155887,-80,4,1,0,70,0,0
156068,-83.3333333333333,4,1,0,70,0,0
156250,-86.9565217391304,4,1,0,70,0,0
156614,-95.2380952380952,4,1,0,70,0,0
156705,-94.3396226415094,4,1,0,70,0,0
156796,-93.4579439252336,4,1,0,70,0,0
156886,-92.5925925925926,4,1,0,70,0,0
156977,-91.743119266055,4,1,0,70,0,0
157068,-90.9090909090909,4,1,0,70,0,0
157159,-90.0900900900901,4,1,0,70,0,0
157250,-89.2857142857143,4,1,0,70,0,0
157341,-88.4955752212389,4,1,0,70,0,0
157432,-87.719298245614,4,1,0,70,0,0
157523,-76.9230769230769,4,1,0,75,0,0
157705,-80,4,1,0,75,0,0
157886,-83.3333333333333,4,1,0,75,0,0
158068,-86.9565217391304,4,1,0,75,0,0
158250,-90.9090909090909,4,1,0,75,0,0
158341,-89.2857142857143,4,1,0,75,0,0
158432,-87.719298245614,4,1,0,75,0,0
158523,-86.2068965517241,4,1,0,75,0,0
158614,-76.9230769230769,4,1,0,75,0,0
158796,-80,4,1,0,75,0,0
158977,-83.3333333333333,4,1,0,75,0,0
159159,-86.9565217391304,4,1,0,75,0,0
159341,-90.9090909090909,4,1,0,75,0,0
159432,-89.2857142857143,4,1,0,75,0,0
159523,-87.719298245614,4,1,0,75,0,0
159614,-86.2068965517241,4,1,0,75,0,0
159705,-76.9230769230769,4,1,0,75,0,0
159886,-90.9090909090909,4,1,0,75,0,0
159977,-90.6799146759255,4,1,0,75,0,0
160068,-90.4518910156034,4,1,0,75,0,0
160129,-90.2996809166061,4,1,0,75,0,0
160189,-90.1504649817771,4,1,0,75,0,0
160250,-89.999266808417,4,1,0,75,0,0
160311,-89.8485749576833,4,1,0,75,0,0
160371,-89.7008449417675,4,1,0,75,0,0
160432,-89.5511499389009,4,1,0,80,0,0
160523,-89.3287607681182,4,1,0,80,0,0
160614,-89.1074734129433,4,1,0,80,0,0
160705,-88.887279705278,4,1,0,80,0,0
160796,-88.6681715575621,4,1,0,80,0,0
160886,-88.4525310754819,4,1,0,80,0,0
160977,-88.2355583909141,4,1,0,80,0,0
161068,-88.0196475628776,4,1,0,80,0,0
161159,-87.8047908153685,4,1,0,80,0,0
161250,-87.5909804481233,4,1,0,80,0,0
161341,-87.3782088356987,4,1,0,80,0,0
161432,-87.1664684265654,4,1,0,80,0,0
161523,-86.9557517422143,4,1,0,80,0,0
161614,-86.7460513762764,4,1,0,80,0,0
161705,-86.5373599936551,4,1,0,80,0,0
161796,-86.3296703296703,4,1,0,80,0,0
161886,-86.1252411857569,4,1,0,80,0,0
161977,-85.9195226304323,4,1,0,80,0,0
162068,-85.7147844910357,4,1,0,80,0,0
162159,-85.5110197755118,4,1,0,80,0,0
162250,-85.3082215581347,4,1,0,80,0,0
162341,-85.1063829787234,4,1,0,80,0,0
162432,-84.9054972418683,4,1,0,80,0,0
162523,-84.7055576161682,4,1,0,80,0,0
162614,-84.506557433479,4,1,0,80,0,0
162705,-84.3084900881719,4,1,0,80,0,0
162796,-84.1113490364026,4,1,0,80,0,0
162886,-83.9172790975902,4,1,0,80,0,0
162977,-83.7219612423589,4,1,0,80,0,0
163068,-83.5275504822823,4,1,0,80,0,0
163159,-83.3340405129032,4,1,0,80,0,0
163250,-83.141425088052,4,1,0,80,0,0
163341,-82.9496980191747,4,1,0,85,0,0
163402,-82.82167195196,4,1,0,85,0,0
163462,-82.6961296190252,4,1,0,85,0,0
163523,-82.5688844792359,4,1,0,85,0,0
163614,-82.3797859132244,4,1,0,85,0,0
163705,-82.1915515120065,4,1,0,85,0,0
163765,-82.067910778308,4,1,0,85,0,0
163826,-81.9425901201602,4,1,0,85,0,0
163886,-81.8196967172138,4,1,0,85,0,0
163977,-81.6340102915382,4,1,0,85,0,0
164068,-81.4491647728215,4,1,0,85,0,0
164129,-81.3257252648055,4,1,0,85,0,0
164189,-81.2046738168678,4,1,0,85,0,0
164250,-81.0819737102847,4,1,0,85,0,0
164341,-80.8996169213659,4,1,0,85,0,0
164432,-80.718078548061,4,1,0,85,0,0
164492,-80.5988279518705,4,1,0,85,0,0
164553,-80.4779505167143,4,1,0,85,0,0
164614,-80.3574351085071,4,1,0,85,0,0
164705,-80.1783191946243,4,1,0,85,0,0
164796,-74.0740740740741,4,1,0,90,0,0
165068,-77.5193798449612,4,1,0,90,0,0
165341,-81.3008130081301,4,1,0,90,0,0
165523,-84.0336134453781,4,1,0,90,0,0
165886,-100,4,1,0,70,0,0
166068,-100,4,1,0,70,0,0
166251,-80,4,1,0,90,0,0
166271,-80,4,1,0,90,0,1
166433,-86.9565217391304,4,1,0,90,0,1
177887,-83.3333333333333,4,1,0,90,0,1
178069,-86.9565217391304,4,1,0,90,0,1
183705,-83.3333333333333,4,1,0,90,0,1
183886,-86.9565217391304,4,1,0,90,0,1
183977,-86.7050185932683,4,1,0,90,0,1
184068,-86.4549660898777,4,1,0,90,0,1
184159,-86.2063517143309,4,1,0,90,0,1
184250,-85.9591630955382,4,1,0,90,0,1
184341,-85.7133880038961,4,1,0,90,0,1
184432,-85.46901434927,4,1,0,90,0,1
184523,-85.2260301790122,4,1,0,90,0,1
184614,-84.9844236760125,4,1,0,90,0,1
184705,-84.744183156783,4,1,0,90,0,1
184796,-84.5052970695744,4,1,0,90,0,1
184886,-84.2703570987273,4,1,0,90,0,1
184977,-84.0341311647106,4,1,0,90,0,1
185068,-83.7992259015789,4,1,0,90,0,1
185159,-83.5656302649717,4,1,0,90,0,1
185250,-83.3333333333333,4,1,0,90,0,1
185341,-83.1023243062113,4,1,0,90,0,1
185432,-82.8725925025822,4,1,0,90,0,1
185523,-82.6441273592051,4,1,0,90,0,1
185614,-82.416918429003,4,1,0,90,0,1
185705,-82.1909553794704,4,1,0,90,0,1
185796,-81.9662279911063,4,1,0,90,0,1
185886,-81.7451755963083,4,1,0,90,0,1
185977,-81.5228760123121,4,1,0,90,0,1
186068,-81.3017822018239,4,1,0,90,0,1
186159,-81.0818843810373,4,1,0,90,0,1
186250,-80.8631728717098,4,1,0,90,0,1
186311,-80.7172234221973,4,1,0,90,0,1
186371,-80.5741796378888,4,1,0,90,0,1
186432,-80.429270593785,4,1,0,90,0,1
186492,-80.2872446877391,4,1,0,90,0,1
186553,-80.1433649637181,4,1,0,90,0,1
186614,-74.0740740740741,4,1,0,90,0,1
186797,-76.9230769230769,4,1,0,90,0,1
186978,-77.5193798449612,4,1,0,90,0,1
187160,-78.7401574803149,4,1,0,90,0,1
187342,-80.6451612903226,4,1,0,90,0,1
187524,-83.3333333333333,4,1,0,90,0,1
187706,-86.9565217391304,4,1,0,90,0,1
187887,-84.7457627118644,4,1,0,90,0,1
187948,-84.0336134453781,4,1,0,90,0,1
188009,-83.3333333333333,4,1,0,90,0,1
188069,-76.9230769230769,4,1,0,90,0,1
188342,-79.2079207920792,4,1,0,90,0,1
188615,-81.6326530612245,4,1,0,90,0,1
188797,-83.3333333333333,4,1,0,90,0,1
189069,-86.0215053763441,4,1,0,90,0,1
189342,-88.8888888888889,4,1,0,90,0,1
189524,-90.9090909090909,4,1,0,90,0,1
189543,-90.9090909090909,4,1,0,90,0,0
189705,-95.2380952380952,4,1,0,80,0,0
189796,-94.7170113836781,4,1,0,80,0,0
189886,-94.2072319897939,4,1,0,80,0,0
189977,-93.6973373778227,4,1,0,80,0,0
190068,-93.1929326392175,4,1,0,80,0,0
190159,-92.6939295871335,4,1,0,80,0,0
190250,-92.2002419134574,4,1,0,80,0,0
190341,-91.7117851390425,4,1,0,80,0,0
190432,-91.2284765655162,4,1,0,80,0,0
190523,-90.7502352286038,4,1,0,80,0,0
190614,-90.2769818529131,4,1,0,80,0,0
190705,-89.8086388081257,4,1,0,80,0,0
190796,-89.3451300665457,4,1,0,80,0,0
190886,-88.8913967573261,4,1,0,80,0,0
190977,-88.4372836318045,4,1,0,80,0,0
191068,-87.9877867143283,4,1,0,80,0,0
191159,-87.5428359729554,4,1,0,80,0,0
191250,-87.1023627852114,4,1,0,80,0,0
191341,-86.6662999028076,4,1,0,80,0,0
191432,-86.2345814174148,4,1,0,80,0,0
191523,-85.8071427274543,4,1,0,80,0,0
191614,-85.3839205058717,4,1,0,80,0,0
191705,-84.96485266886,4,1,0,80,0,0
191765,-84.6907872336613,4,1,0,80,0,0
191826,-84.4139606330154,4,1,0,80,0,0
191886,-84.1434319695189,4,1,0,80,0,0
191947,-83.870166285116,4,1,0,80,0,0
192008,-83.5986697799476,4,1,0,80,0,0
192068,-76.9230769230769,4,1,0,80,0,0
192433,-83.3333333333333,4,1,0,85,0,0
192453,-83.3333333333333,4,1,0,85,0,1
192614,-86.9565217391304,4,1,0,85,0,1
204069,-83.3333333333333,4,1,0,85,0,1
204251,-86.9565217391304,4,1,0,85,0,1
209887,-85.1063829787234,4,1,0,85,0,1
211342,-83.3333333333333,4,1,0,85,0,1
212796,-81.6326530612245,4,1,0,90,0,1
214251,-80,4,1,0,90,0,1
215705,-80,4,1,0,95,0,1
215796,-79.8401879109179,4,1,0,95,0,1
215887,-79.6810130464788,4,1,0,95,0,1
215978,-79.5224716030217,4,1,0,95,0,1
216069,-79.3645598070985,4,1,0,95,0,1
216251,-79.0506102133301,4,1,0,95,0,1
216342,-78.8945650169742,4,1,0,95,0,1
216433,-78.7391346705491,4,1,0,95,0,1
216523,-78.5860135478225,4,1,0,95,0,1
216614,-78.4317953915659,4,1,0,95,0,1
216705,-78.2781813290288,4,1,0,95,0,1
216796,-78.1251678176721,4,1,0,95,0,1
216887,-77.972751342602,4,1,0,95,0,1
216978,-77.8209284163002,4,1,0,95,0,1
217069,-77.6696955783584,4,1,0,95,0,1
217160,-77.519049395215,4,1,0,95,0,1
217251,-77.3689864598956,4,1,0,95,0,1
217342,-77.2195033917557,4,1,0,95,0,1
217433,-77.0705968362276,4,1,0,95,0,1
217523,-76.9238903987902,4,1,0,95,0,1
217614,-76.776120663268,4,1,0,95,0,1
217705,-76.6289175664999,4,1,0,95,0,1
217796,-76.482277855468,4,1,0,95,0,1
217887,-76.3361983020076,4,1,0,95,0,1
217978,-76.1906757025694,4,1,0,95,0,1
218069,-76.045706877986,4,1,0,95,0,1
218160,-75.9012886732405,4,1,0,95,0,1
218251,-75.7574179572367,4,1,0,95,0,1
218342,-75.614091622574,4,1,0,95,0,1
218433,-75.4713065853228,4,1,0,95,0,1
218523,-75.3306200225764,4,1,0,95,0,1
218614,-75.1889025562573,4,1,0,100,0,1
218675,-75.0942032725959,4,1,0,100,0,1
218736,-74.9997422334952,4,1,0,100,0,1
218796,-74.9070612829147,4,1,0,100,0,1
218857,-74.8130701745364,4,1,0,100,0,1
218917,-74.7208497262427,4,1,0,100,0,1
218978,-74.6273250505278,4,1,0,100,0,1
219039,-74.5340342032728,4,1,0,100,0,1
219099,-74.4424999744149,4,1,0,100,0,1
219160,-74.3496703633669,4,1,0,100,0,1
219220,-74.2585881272013,4,1,0,100,0,1
219281,-74.1662163402225,4,1,0,100,0,1
219342,-68.9655172413793,4,1,0,100,0,1
219614,-74.0740740740741,4,1,0,100,0,1
219887,-80,4,1,0,100,0,1
220069,-86.9565217391304,4,1,0,100,0,1
220089,-86.9565217391304,4,1,0,100,0,0
220245,-86.9565217391304,4,1,0,50,0,0
221160,-133.333333333333,4,1,0,50,0,0
221523,-125,4,1,0,50,0,0
221887,-133.333333333333,4,1,0,50,0,0
233160,-95.2380952380952,4,1,0,80,0,0
233342,-100,4,1,0,80,0,0
233433,-99.8387982498096,4,1,0,80,0,0
233523,-99.6798783183884,4,1,0,80,0,0
233705,-99.3600479523297,4,1,0,80,0,0
233796,-99.2009011863273,4,1,0,80,0,0
233887,-99.042263421492,4,1,0,80,0,0
234069,-98.7265051587927,4,1,0,80,0,0
234160,-98.5693798314037,4,1,0,80,0,0
234251,-98.4127538458852,4,1,0,80,0,0
234342,-98.2566248256625,4,1,0,80,0,0
234433,-98.1009904092183,4,1,0,80,0,0
234614,-97.7928928373126,4,1,0,80,0,0
234796,-97.4850382260352,4,1,0,80,0,0
234887,-97.3318366289612,4,1,0,80,0,0
234978,-97.1791158010897,4,1,0,80,0,0
235160,-96.875107428925,4,1,0,80,0,0
235251,-96.7238154078498,4,1,0,80,0,0
235342,-96.5729952021933,4,1,0,80,0,0
235523,-96.274405971883,4,1,0,80,0,0
235614,-96.1249829444672,4,1,0,80,0,0
235705,-95.9760230233469,4,1,0,80,0,0
235796,-95.8275240588975,4,1,0,80,0,0
235887,-95.679483914778,4,1,0,80,0,0
235978,-95.5319004678283,4,1,0,80,0,0
236069,-95.3847716079679,4,1,0,80,0,0
236251,-95.0918692739881,4,1,0,80,0,0
236342,-94.9460916442048,4,1,0,80,0,0
236433,-94.8007602899867,4,1,0,80,0,0
236614,-94.5130131473035,4,1,0,80,0,0
236705,-94.3690035664652,4,1,0,80,0,0
236796,-94.2254321730698,4,1,0,80,0,0
236887,-94.0822969702028,4,1,0,80,0,0
236978,-93.9395959730649,4,1,0,80,0,0
237069,-93.7973272088804,4,1,0,80,0,0
237160,-93.6554887168068,4,1,0,80,0,0
237251,-93.5140785478438,4,1,0,80,0,0
237342,-93.3730947647449,4,1,0,80,0,0
237433,-93.2325354419282,4,1,0,80,0,0
237523,-93.0939363406617,4,1,0,80,0,0
237614,-92.954215595725,4,1,0,80,0,0
237705,-92.8149136241622,4,1,0,80,0,0
237796,-92.6760285460585,4,1,0,80,0,0
237887,-92.5375584927346,4,1,0,80,0,0
237978,-92.3995016066627,4,1,0,80,0,0
238069,-92.2618560413836,4,1,0,80,0,0
238160,-92.124619961424,4,1,0,80,0,0
238251,-91.9877915422155,4,1,0,80,0,0
238342,-91.851368970013,4,1,0,80,0,0
238433,-91.7153504418154,4,1,0,80,0,0
238523,-91.5812222745812,4,1,0,80,0,0
238614,-91.4460020768432,4,1,0,80,0,0
238705,-91.3111805971842,4,1,0,80,0,0
238796,-91.1767560746756,4,1,0,80,0,0
238887,-91.0427267587432,4,1,0,80,0,0
238978,-90.9090909090909,4,1,0,90,0,0
239069,-90.5229419178167,4,1,0,90,0,0
239160,-90.1400594942985,4,1,0,90,0,0
239251,-89.7604023635774,4,1,0,90,0,0
239342,-89.3839299431556,4,1,0,90,0,0
239433,-89.0106023285345,4,1,0,90,0,0
239523,-88.6444319168711,4,1,0,90,0,0
239614,-88.2772433465845,4,1,0,90,0,0
239705,-87.9130842110035,4,1,0,90,0,0
239796,-87.551917173298,4,1,0,90,0,0
239887,-87.1937055076808,4,1,0,90,0,0
239978,-86.8384130869578,4,1,0,90,0,0
240069,-86.4860043703825,4,1,0,90,0,0
240160,-86.1364443918039,4,1,0,90,0,0
240251,-85.7896987481015,4,1,0,90,0,0
240342,-85.4457335878984,4,1,0,90,0,0
240433,-85.1045156005441,4,1,0,90,0,0
240523,-84.7697171914385,4,1,0,90,0,0
240614,-84.4338664267263,4,1,0,90,0,0
240705,-84.1006663871984,4,1,0,90,0,0
240796,-83.7700858146634,4,1,0,90,0,0
240887,-83.4420939404805,4,1,0,90,0,0
240978,-83.1166604760136,4,1,0,90,0,0
241069,-82.7937556033072,4,1,0,90,0,0
241160,-82.4733499659787,4,1,0,90,0,0
241220,-82.2634466376336,4,1,0,90,0,0
241281,-82.0511374053337,4,1,0,90,0,0
241342,-81.8399212266142,4,1,0,90,0,0
241402,-81.6332257611898,4,1,0,90,0,0
241463,-81.4241529396946,4,1,0,90,0,0
241523,-81.2195496489048,4,1,0,90,0,0
241614,-80.9111896086557,4,1,0,90,0,0
241705,-80.605162166281,4,1,0,90,0,0
241766,-80.4013156076394,4,1,0,90,0,0
241826,-80.2018141214745,4,1,0,90,0,0
241887,-74.0740740740741,4,1,0,95,0,0
241907,-74.0740740740741,4,1,0,95,0,1
242160,-76.9230769230769,4,1,0,95,0,1
242433,-80,4,1,0,95,0,1
242614,-71.4285714285714,4,1,0,95,0,1
242887,-74.0740740740741,4,1,0,95,0,1
243160,-76.9230769230769,4,1,0,95,0,1
243220,-75.7575757575758,4,1,0,95,0,1
243281,-74.6268656716418,4,1,0,95,0,1
243342,-68.9655172413793,4,1,0,100,0,1
243614,-71.4285714285714,4,1,0,100,0,1
243887,-74.0740740740741,4,1,0,100,0,1
244069,-66.6666666666667,4,1,0,100,0,1
244342,-68.9655172413793,4,1,0,100,0,1
244614,-71.4285714285714,4,1,0,100,0,1
244634,-71.4285714285714,4,1,0,100,0,0
244796,-82.6446280991736,4,1,0,70,0,0
244887,-81.9672131147541,4,1,0,70,0,0
244978,-81.3008130081301,4,1,0,70,0,0
245069,-80.6451612903226,4,1,0,70,0,0
245160,-80,4,1,0,90,0,0
245180,-80,4,1,0,90,0,1
245342,-86.9565217391304,4,1,0,90,0,1
256433,-83.3333333333333,4,1,0,90,0,1
256614,-86.9565217391304,4,1,0,90,0,1
260796,-83.3333333333333,4,1,0,90,0,1
260978,-86.9565217391304,4,1,0,90,0,1
262251,-83.3333333333333,4,1,0,90,0,1
262433,-86.9565217391304,4,1,0,90,0,1
262524,-86.7050185932683,4,1,0,90,0,1
262615,-86.4549660898777,4,1,0,90,0,1
262706,-86.2063517143309,4,1,0,90,0,1
262797,-85.9591630955382,4,1,0,90,0,1
262888,-85.7133880038961,4,1,0,90,0,1
262979,-85.46901434927,4,1,0,90,0,1
263070,-85.2260301790122,4,1,0,90,0,1
263161,-84.9844236760125,4,1,0,90,0,1
263252,-84.744183156783,4,1,0,90,0,1
263343,-84.5052970695744,4,1,0,90,0,1
263433,-84.2703570987273,4,1,0,90,0,1
263524,-84.0341311647106,4,1,0,90,0,1
263615,-83.7992259015789,4,1,0,90,0,1
263706,-83.5656302649717,4,1,0,90,0,1
263797,-83.3333333333333,4,1,0,90,0,1
263888,-83.1023243062113,4,1,0,90,0,1
263979,-82.8725925025822,4,1,0,90,0,1
264070,-82.6441273592051,4,1,0,90,0,1
264161,-82.416918429003,4,1,0,90,0,1
264252,-82.1909553794704,4,1,0,90,0,1
264343,-81.9662279911063,4,1,0,90,0,1
264433,-81.7451755963083,4,1,0,90,0,1
264524,-81.5228760123121,4,1,0,90,0,1
264615,-81.3017822018239,4,1,0,90,0,1
264706,-81.0818843810373,4,1,0,90,0,1
264797,-80.8631728717098,4,1,0,90,0,1
264858,-80.7172234221973,4,1,0,90,0,1
264918,-80.5741796378888,4,1,0,90,0,1
264979,-80.429270593785,4,1,0,90,0,1
265039,-80.2872446877391,4,1,0,90,0,1
265100,-80.1433649637181,4,1,0,90,0,1
265161,-74.0740740740741,4,1,0,90,0,1
265343,-76.9230769230769,4,1,0,90,0,1
265524,-77.5193798449612,4,1,0,90,0,1
265706,-78.7401574803149,4,1,0,90,0,1
265888,-80.6451612903226,4,1,0,90,0,1
266070,-83.3333333333333,4,1,0,90,0,1
266252,-86.9565217391304,4,1,0,90,0,1
266433,-84.7457627118644,4,1,0,90,0,1
266494,-84.0336134453781,4,1,0,90,0,1
266555,-83.3333333333333,4,1,0,90,0,1
266615,-76.9230769230769,4,1,0,90,0,1
266888,-79.2079207920792,4,1,0,90,0,1
267161,-81.6326530612245,4,1,0,90,0,1
267343,-83.3333333333333,4,1,0,90,0,1
267615,-86.0215053763441,4,1,0,90,0,1
267888,-88.8888888888889,4,1,0,90,0,1
268070,-90.9090909090909,4,1,0,90,0,1
268089,-90.9090909090909,4,1,0,90,0,0
268251,-95.2380952380952,4,1,0,80,0,0
268342,-94.7170113836781,4,1,0,80,0,0
268432,-94.2072319897939,4,1,0,80,0,0
268523,-93.6973373778227,4,1,0,80,0,0
268614,-93.1929326392175,4,1,0,80,0,0
268705,-92.6939295871335,4,1,0,80,0,0
268796,-92.2002419134574,4,1,0,80,0,0
268887,-91.7117851390425,4,1,0,80,0,0
268978,-91.2284765655162,4,1,0,80,0,0
269069,-90.7502352286038,4,1,0,80,0,0
269160,-90.2769818529131,4,1,0,80,0,0
269251,-89.8086388081257,4,1,0,80,0,0
269342,-89.3451300665457,4,1,0,80,0,0
269432,-88.8913967573261,4,1,0,80,0,0
269523,-88.4372836318045,4,1,0,80,0,0
269614,-87.9877867143283,4,1,0,80,0,0
269705,-87.5428359729554,4,1,0,80,0,0
269796,-87.1023627852114,4,1,0,80,0,0
269887,-86.6662999028076,4,1,0,80,0,0
269978,-86.2345814174148,4,1,0,80,0,0
270069,-85.8071427274543,4,1,0,80,0,0
270160,-85.3839205058717,4,1,0,80,0,0
270251,-84.96485266886,4,1,0,80,0,0
270311,-84.6907872336613,4,1,0,80,0,0
270372,-84.4139606330154,4,1,0,80,0,0
270432,-84.1434319695189,4,1,0,80,0,0
270493,-83.870166285116,4,1,0,80,0,0
270554,-83.5986697799476,4,1,0,80,0,0
270614,-76.9230769230769,4,1,0,80,0,0
270979,-86.9565217391304,4,1,0,90,0,0
270998,-86.9565217391304,4,1,0,90,0,1
271161,-90.9090909090909,4,1,0,90,0,1
282614,-86.9565217391304,4,1,0,90,0,1
282796,-90.9090909090909,4,1,0,90,0,1
288433,-90.9090909090909,4,1,0,95,0,1
288523,-90.6541182336626,4,1,0,95,0,1
288614,-90.3977625854568,4,1,0,95,0,1
288705,-90.1428527160609,4,1,0,95,0,1
288796,-89.8893764291453,4,1,0,95,0,1
288887,-89.6373216651773,4,1,0,95,0,1
288978,-89.3866764995083,4,1,0,95,0,1
289069,-89.1374291404933,4,1,0,95,0,1
289160,-88.8895679276416,4,1,0,95,0,1
289251,-88.6430813297986,4,1,0,95,0,1
289342,-88.3979579433572,4,1,0,95,0,1
289433,-88.1541864904997,4,1,0,95,0,1
289523,-87.9144126446855,4,1,0,95,0,1
289614,-87.6732971669681,4,1,0,95,0,1
289705,-87.4335006462084,4,1,0,95,0,1
289796,-87.1950122894311,4,1,0,95,0,1
289887,-86.9578214210983,4,1,0,95,0,1
289978,-86.7219174815168,4,1,0,95,0,1
290069,-86.4872900252713,4,1,0,95,0,1
290160,-86.2539287196822,4,1,0,95,0,1
290251,-86.0218233432889,4,1,0,95,0,1
290342,-85.7909637843577,4,1,0,95,0,1
290433,-85.5613400394129,4,1,0,95,0,1
290523,-85.3354454516119,4,1,0,95,0,1
290614,-85.1082504388531,4,1,0,95,0,1
290705,-84.8822619707625,4,1,0,95,0,1
290796,-84.6574704615564,4,1,0,95,0,1
290978,-84.2114404817045,4,1,0,95,0,1
291069,-83.9901833405515,4,1,0,95,0,1
291160,-83.7700858146634,4,1,0,95,0,1
291342,-83.3333333333333,4,1,0,100,0,1
291402,-83.1096797280372,4,1,0,100,0,1
291463,-82.8835258955257,4,1,0,100,0,1
291523,-82.6622769942608,4,1,0,100,0,1
291614,-82.3289613612194,4,1,0,100,0,1
291705,-81.9983229621784,4,1,0,100,0,1
291796,-81.6703296703297,4,1,0,100,0,1
291887,-81.3449498708463,4,1,0,100,0,1
291978,-81.0221524507239,4,1,0,100,0,1
292069,-80.7019067888633,4,1,0,100,0,1
292129,-80.4921370705714,4,1,0,100,0,1
292190,-80.2799861735223,4,1,0,100,0,1
292251,-80.068950657186,4,1,0,100,0,1
292342,-79.7561813186813,4,1,0,100,0,1
292433,-79.445845982811,4,1,0,100,0,1
292523,-79.1412872172765,4,1,0,100,0,1
292614,-78.8357094365241,4,1,0,100,0,1
292705,-78.5324823534384,4,1,0,100,0,1
292796,-78.2315789473684,4,1,0,100,0,1
292857,-78.0311620679518,4,1,0,100,0,1
292917,-77.8350299526622,4,1,0,100,0,1
292978,-77.6366371385593,4,1,0,100,0,1
293069,-77.3425467260542,4,1,0,100,0,1
293160,-77.0506759558763,4,1,0,100,0,1
293251,-76.7609997934311,4,1,0,100,0,1
293342,-76.47349357919,4,1,0,100,0,1
293433,-76.1881330216919,4,1,0,100,0,1
293523,-75.9079952608571,4,1,0,100,0,1
293584,-75.7192925258782,4,1,0,100,0,1
293645,-75.5315256717753,4,1,0,100,0,1
293705,-75.3477432174865,4,1,0,100,0,1
293766,-75.1618122977346,4,1,0,100,0,1
293826,-74.9798224374496,4,1,0,100,0,1
293887,-74.7957006561733,4,1,0,100,0,1
293948,-74.6124809252269,4,1,0,100,0,1
294008,-74.4331383703229,4,1,0,100,0,1
294069,-74.2516884466291,4,1,0,100,0,1
294129,-74.0740740740741,4,1,0,100,0,1
294251,-76.9230769230769,4,1,0,50,0,1
294271,-76.9230769230769,4,1,0,50,0,0
294614,-76.9230769230769,4,1,0,50,0,0
294796,-77.2200772200772,4,1,0,50,0,0
294978,-77.8210116731518,4,1,0,50,0,0
295160,-78.740157480315,4,1,0,50,0,0
295342,-80,4,1,0,50,0,0
295523,-81.6326530612245,4,1,0,50,0,0
295705,-83.6820083682008,4,1,0,50,0,0
295887,-86.2068965517241,4,1,0,50,0,0
296069,-89.2857142857143,4,1,0,50,0,0
296251,-93.0232558139535,4,1,0,50,0,0
296433,-97.5609756097561,4,1,0,50,0,0
296614,-103.092783505155,4,1,0,50,0,0
296796,-109.89010989011,4,1,0,50,0,0
296978,-118.343195266272,4,1,0,50,0,0
297160,-129.032258064516,4,1,0,60,0,0
297245,-129.032258064516,4,1,0,59,0,0
297336,-129.032258064516,4,1,0,58,0,0
297427,-142.857142857143,4,1,0,57,0,0
297517,-142.857142857143,4,1,0,56,0,0
297608,-142.857142857143,4,1,0,55,0,0
297699,-142.857142857143,4,1,0,54,0,0
297790,-142.857142857143,4,1,0,53,0,0
297881,-142.857142857143,4,1,0,52,0,0
297972,-142.857142857143,4,1,0,51,0,0
298063,-142.857142857143,4,1,0,50,0,0
298154,-142.857142857143,4,1,0,49,0,0
298245,-142.857142857143,4,1,0,48,0,0
298336,-142.857142857143,4,1,0,47,0,0
298427,-142.857142857143,4,1,0,46,0,0
298517,-142.857142857143,4,1,0,45,0,0
298608,-142.857142857143,4,1,0,44,0,0
298699,-142.857142857143,4,1,0,43,0,0
298790,-142.857142857143,4,1,0,42,0,0
298881,-142.857142857143,4,1,0,41,0,0
298972,-142.857142857143,4,1,0,40,0,0
299063,-142.857142857143,4,1,0,39,0,0
299154,-142.857142857143,4,1,0,38,0,0
299245,-142.857142857143,4,1,0,37,0,0
299336,-142.857142857143,4,1,0,36,0,0
299427,-142.857142857143,4,1,0,35,0,0
299517,-142.857142857143,4,1,0,34,0,0
299608,-142.857142857143,4,1,0,33,0,0
299699,-142.857142857143,4,1,0,32,0,0
299790,-142.857142857143,4,1,0,31,0,0
299881,-142.857142857143,4,1,0,30,0,0
299972,-142.857142857143,4,1,0,29,0,0
300063,-142.857142857143,4,1,0,28,0,0
300154,-142.857142857143,4,1,0,27,0,0
300245,-142.857142857143,4,1,0,26,0,0
300336,-142.857142857143,4,1,0,25,0,0
300427,-142.857142857143,4,1,0,24,0,0
300517,-142.857142857143,4,1,0,23,0,0
300608,-142.857142857143,4,1,0,22,0,0
300699,-142.857142857143,4,1,0,21,0,0
300790,-142.857142857143,4,1,0,20,0,0
300881,-142.857142857143,4,1,0,19,0,0
300972,-142.857142857143,4,1,0,18,0,0
301063,-142.857142857143,4,1,0,17,0,0
301154,-142.857142857143,4,1,0,16,0,0
301245,-142.857142857143,4,1,0,15,0,0
301336,-142.857142857143,4,1,0,14,0,0
301427,-142.857142857143,4,1,0,13,0,0
301517,-142.857142857143,4,1,0,12,0,0
301608,-142.857142857143,4,1,0,11,0,0
301699,-142.857142857143,4,1,0,10,0,0
301790,-142.857142857143,4,1,0,9,0,0
301881,-142.857142857143,4,1,0,8,0,0
301972,-142.857142857143,4,1,0,7,0,0
302063,-142.857142857143,4,1,0,6,0,0
302154,-142.857142857143,4,1,0,5,0,0

[HitObjects]
256,160,453,5,4,0:0:0:0:
256,160,634,1,4,0:0:0:0:
256,160,3362,1,4,0:0:0:0:
256,160,3543,1,4,0:0:0:0:
256,160,4816,1,12,0:0:0:0:
256,160,5362,1,4,0:0:0:0:
256,192,5725,1,0,0:0:0:0:
256,192,5816,1,0,0:0:0:0:
256,160,5907,1,12,0:0:0:0:
256,160,6634,1,12,0:0:0:0:
256,192,6998,1,0,0:0:0:0:
256,192,7180,1,0,0:0:0:0:
256,192,7271,1,0,0:0:0:0:
256,192,7362,1,8,0:0:0:0:
256,192,7543,1,0,0:0:0:0:
256,192,7725,1,8,0:0:0:0:
256,192,7816,1,8,0:0:0:0:
256,192,7907,1,0,0:0:0:0:
256,192,7998,1,0,0:0:0:0:
256,192,8089,1,8,0:0:0:0:
256,192,8271,1,8,0:0:0:0:
256,192,8453,1,0,0:0:0:0:
256,192,8543,1,0,0:0:0:0:
256,192,8634,1,8,0:0:0:0:
256,192,8725,1,0,0:0:0:0:
256,192,8816,1,8,0:0:0:0:
256,192,8907,1,8,0:0:0:0:
256,192,8998,1,0,0:0:0:0:
256,192,9089,1,0,0:0:0:0:
256,160,9180,1,12,0:0:0:0:
256,160,9362,1,12,0:0:0:0:
256,192,9543,1,0,0:0:0:0:
256,192,9634,1,0,0:0:0:0:
256,192,9725,1,8,0:0:0:0:
256,192,9816,1,0,0:0:0:0:
256,192,9907,1,8,0:0:0:0:
256,192,9968,1,8,0:0:0:0:
256,192,10028,1,8,0:0:0:0:
256,192,10089,1,0,0:0:0:0:
256,192,10149,1,0,0:0:0:0:
256,192,10210,1,0,0:0:0:0:
256,192,10271,1,8,0:0:0:0:
256,192,10362,1,0,0:0:0:0:
256,192,10453,1,8,0:0:0:0:
256,192,10513,1,8,0:0:0:0:
256,192,10574,1,8,0:0:0:0:
256,160,10634,1,4,0:0:0:0:
256,160,10998,1,12,0:0:0:0:
256,160,11180,1,4,0:0:0:0:
256,160,11543,1,12,0:0:0:0:
256,192,11725,1,0,0:0:0:0:
256,192,11786,1,0,0:0:0:0:
256,192,11846,1,0,0:0:0:0:
256,192,11907,1,0,0:0:0:0:
256,192,11968,1,0,0:0:0:0:
256,192,12028,1,0,0:0:0:0:
256,160,12089,1,12,0:0:0:0:
256,192,12271,1,0,0:0:0:0:
256,192,12362,1,0,0:0:0:0:
256,192,12453,1,8,0:0:0:0:
256,192,12634,1,0,0:0:0:0:
256,192,12816,1,8,0:0:0:0:
256,192,12907,1,0,0:0:0:0:
256,192,12998,1,0,0:0:0:0:
256,192,13089,1,0,0:0:0:0:
256,192,13180,1,8,0:0:0:0:
256,192,13362,1,0,0:0:0:0:
256,192,13453,1,0,0:0:0:0:
256,192,13543,1,8,0:0:0:0:
256,192,13634,1,8,0:0:0:0:
256,192,13725,1,0,0:0:0:0:
256,192,13907,1,8,0:0:0:0:
256,192,13998,1,8,0:0:0:0:
256,192,14089,1,0,0:0:0:0:
256,192,14180,1,8,0:0:0:0:
256,192,14271,1,0,0:0:0:0:
256,192,14362,1,0,0:0:0:0:
256,192,14453,1,8,0:0:0:0:
256,192,14634,1,0,0:0:0:0:
256,192,14816,1,0,0:0:0:0:
256,192,14998,1,8,0:0:0:0:
256,192,15180,1,0,0:0:0:0:
256,192,15271,1,0,0:0:0:0:
256,192,15362,1,8,0:0:0:0:
256,192,15543,1,0,0:0:0:0:
256,192,15725,1,8,0:0:0:0:
256,192,15816,1,8,0:0:0:0:
256,192,15907,1,0,0:0:0:0:
256,192,15998,1,0,0:0:0:0:
256,192,16089,1,8,0:0:0:0:
256,192,16271,1,0,0:0:0:0:
256,192,16362,1,0,0:0:0:0:
256,192,16453,1,8,0:0:0:0:
256,192,16543,1,0,0:0:0:0:
256,192,16634,1,0,0:0:0:0:
256,192,16816,1,8,0:0:0:0:
256,192,16907,1,0,0:0:0:0:
256,192,16998,1,8,0:0:0:0:
256,192,17089,1,0,0:0:0:0:
256,192,17180,1,0,0:0:0:0:
256,192,17271,1,0,0:0:0:0:
256,192,17362,1,8,0:0:0:0:
256,192,17453,1,8,0:0:0:0:
256,192,17543,1,0,0:0:0:0:
256,192,17725,1,0,0:0:0:0:
256,192,17907,1,8,0:0:0:0:
256,192,18089,1,0,0:0:0:0:
256,192,18180,1,0,0:0:0:0:
256,192,18271,1,8,0:0:0:0:
256,192,18453,1,0,0:0:0:0:
256,192,18634,1,8,0:0:0:0:
256,192,18725,1,0,0:0:0:0:
256,192,18816,1,0,0:0:0:0:
256,192,18907,1,0,0:0:0:0:
256,192,18998,1,8,0:0:0:0:
256,192,19180,1,0,0:0:0:0:
256,192,19271,1,0,0:0:0:0:
256,192,19362,1,8,0:0:0:0:
256,192,19453,1,0,0:0:0:0:
256,192,19543,1,8,0:0:0:0:
256,192,19725,1,8,0:0:0:0:
256,192,19816,1,0,0:0:0:0:
256,192,19907,1,8,0:0:0:0:
256,192,19998,1,8,0:0:0:0:
256,192,20089,1,0,0:0:0:0:
256,192,20180,1,0,0:0:0:0:
256,192,20271,1,8,0:0:0:0:
256,192,20453,1,0,0:0:0:0:
256,192,20634,1,0,0:0:0:0:
256,192,20816,1,8,0:0:0:0:
256,192,20907,1,0,0:0:0:0:
256,192,20998,1,8,0:0:0:0:
256,192,21180,1,8,0:0:0:0:
256,192,21271,1,0,0:0:0:0:
256,192,21362,1,8,0:0:0:0:
256,192,21543,1,8,0:0:0:0:
256,192,21634,1,8,0:0:0:0:
256,192,21725,1,0,0:0:0:0:
256,192,21816,1,0,0:0:0:0:
256,192,21907,1,8,0:0:0:0:
256,192,21998,1,0,0:0:0:0:
256,192,22089,1,8,0:0:0:0:
256,192,22149,1,8,0:0:0:0:
256,192,22210,1,8,0:0:0:0:
256,160,22271,1,4,0:0:0:0:
256,192,22634,1,12,0:0:0:0:
256,192,22816,1,4,0:0:0:0:
256,192,23180,1,12,0:0:0:0:
256,192,23362,1,0,0:0:0:0:
256,192,23453,1,0,0:0:0:0:
256,192,23543,1,0,0:0:0:0:
256,192,23634,1,0,0:0:0:0:
256,160,23725,1,12,0:0:0:0:
256,192,23998,1,0,0:0:0:0:
256,192,24089,1,8,0:0:0:0:
256,192,24271,1,0,0:0:0:0:
256,192,24362,1,8,0:0:0:0:
256,192,24453,1,0,0:0:0:0:
256,192,24634,1,0,0:0:0:0:
256,192,24816,1,8,0:0:0:0:
256,192,24998,1,0,0:0:0:0:
256,192,25089,1,0,0:0:0:0:
256,192,25180,1,8,0:0:0:0:
256,192,25362,1,0,0:0:0:0:
256,192,25543,1,8,0:0:0:0:
256,192,25725,1,0,0:0:0:0:
256,192,25816,1,0,0:0:0:0:
256,192,25907,1,0,0:0:0:0:
256,192,26089,1,0,0:0:0:0:
256,192,26271,1,8,0:0:0:0:
256,192,26634,1,8,0:0:0:0:
256,192,26907,1,0,0:0:0:0:
256,192,26998,1,8,0:0:0:0:
256,192,27180,1,0,0:0:0:0:
256,192,27271,1,8,0:0:0:0:
256,192,27362,1,0,0:0:0:0:
256,192,27543,1,0,0:0:0:0:
256,192,27725,1,8,0:0:0:0:
256,192,27907,1,0,0:0:0:0:
256,192,27998,1,8,0:0:0:0:
256,192,28089,1,8,0:0:0:0:
256,192,28271,1,0,0:0:0:0:
256,192,28453,1,8,0:0:0:0:
256,192,28634,1,0,0:0:0:0:
256,192,28725,1,0,0:0:0:0:
256,192,28816,1,8,0:0:0:0:
256,192,28907,1,8,0:0:0:0:
256,192,28998,1,0,0:0:0:0:
256,192,29180,1,8,0:0:0:0:
256,192,29543,1,8,0:0:0:0:
256,192,29816,1,0,0:0:0:0:
256,192,29907,1,8,0:0:0:0:
256,192,30089,1,0,0:0:0:0:
256,192,30180,1,8,0:0:0:0:
256,192,30271,1,0,0:0:0:0:
256,192,30453,1,0,0:0:0:0:
256,192,30634,1,8,0:0:0:0:
256,192,30816,1,8,0:0:0:0:
256,192,30907,1,0,0:0:0:0:
256,192,30998,1,8,0:0:0:0:
256,192,31180,1,0,0:0:0:0:
256,192,31362,1,8,0:0:0:0:
256,192,31543,1,0,0:0:0:0:
256,192,31634,1,0,0:0:0:0:
256,192,31725,1,8,0:0:0:0:
256,192,31907,1,0,0:0:0:0:
256,192,32089,1,8,0:0:0:0:
256,192,32453,1,8,0:0:0:0:
256,192,32725,1,0,0:0:0:0:
256,192,32816,1,8,0:0:0:0:
256,192,32998,1,0,0:0:0:0:
256,192,33089,1,8,0:0:0:0:
256,192,33180,1,0,0:0:0:0:
256,192,33362,1,0,0:0:0:0:
256,192,33543,1,8,0:0:0:0:
256,192,33725,1,0,0:0:0:0:
256,192,33816,1,0,0:0:0:0:
256,192,33907,1,8,0:0:0:0:
256,192,34089,1,0,0:0:0:0:
256,192,34180,1,0,0:0:0:0:
256,192,34271,1,0,0:0:0:0:
256,192,34453,1,8,0:0:0:0:
256,192,34816,1,8,0:0:0:0:
256,192,34907,1,8,0:0:0:0:
256,192,34998,1,0,0:0:0:0:
256,192,35089,1,0,0:0:0:0:
256,192,35180,1,0,0:0:0:0:
256,192,35271,1,0,0:0:0:0:
256,160,35362,1,12,0:0:0:0:
256,192,35634,1,8,0:0:0:0:
256,192,35725,1,0,0:0:0:0:
256,192,35907,1,8,0:0:0:0:
256,192,35998,1,0,0:0:0:0:
256,192,36089,1,8,0:0:0:0:
256,192,36271,1,0,0:0:0:0:
256,192,36453,1,8,0:0:0:0:
256,192,36634,1,0,0:0:0:0:
256,192,36725,1,0,0:0:0:0:
256,192,36816,1,8,0:0:0:0:
256,192,36998,1,0,0:0:0:0:
256,192,37180,1,8,0:0:0:0:
256,192,37271,1,8,0:0:0:0:
256,192,37362,1,0,0:0:0:0:
256,192,37453,1,0,0:0:0:0:
256,192,37543,1,8,0:0:0:0:
256,192,37725,1,0,0:0:0:0:
256,192,37907,1,8,0:0:0:0:
256,192,38271,1,8,0:0:0:0:
256,192,38543,1,8,0:0:0:0:
256,192,38634,1,0,0:0:0:0:
256,192,38816,1,8,0:0:0:0:
256,192,38907,1,0,0:0:0:0:
256,192,38998,1,8,0:0:0:0:
256,192,39180,1,0,0:0:0:0:
256,192,39362,1,8,0:0:0:0:
256,192,39543,1,0,0:0:0:0:
256,192,39634,1,0,0:0:0:0:
256,192,39725,1,0,0:0:0:0:
256,192,39907,1,8,0:0:0:0:
256,192,40089,1,8,0:0:0:0:
256,192,40271,1,0,0:0:0:0:
256,192,40362,1,8,0:0:0:0:
256,192,40453,1,0,0:0:0:0:
256,192,40543,1,0,0:0:0:0:
256,192,40634,1,8,0:0:0:0:
256,192,40816,1,0,0:0:0:0:
256,192,40907,1,0,0:0:0:0:
256,192,40998,1,0,0:0:0:0:
256,192,41180,1,8,0:0:0:0:
256,192,41362,1,0,0:0:0:0:
256,192,41453,1,8,0:0:0:0:
256,192,41543,1,0,0:0:0:0:
256,192,41725,1,8,0:0:0:0:
256,192,41816,1,8,0:0:0:0:
256,192,41907,1,0,0:0:0:0:
256,192,41998,1,0,0:0:0:0:
256,192,42089,1,0,0:0:0:0:
256,192,42271,1,8,0:0:0:0:
256,192,42453,1,0,0:0:0:0:
256,192,42543,1,8,0:0:0:0:
256,192,42634,1,0,0:0:0:0:
256,192,42816,1,0,0:0:0:0:
256,192,42907,1,0,0:0:0:0:
256,192,42998,1,8,0:0:0:0:
256,192,43180,1,0,0:0:0:0:
256,192,43271,1,8,0:0:0:0:
256,192,43362,1,0,0:0:0:0:
256,192,43453,1,0,0:0:0:0:
256,192,43543,1,8,0:0:0:0:
256,192,43725,1,0,0:0:0:0:
256,192,43816,1,0,0:0:0:0:
256,192,43907,1,0,0:0:0:0:
256,192,44089,1,8,0:0:0:0:
256,192,44180,1,8,0:0:0:0:
256,192,44271,1,0,0:0:0:0:
256,192,44362,1,0,0:0:0:0:
256,192,44453,1,8,0:0:0:0:
256,192,44634,1,0,0:0:0:0:
256,192,44725,1,0,0:0:0:0:
256,192,44816,1,8,0:0:0:0:
256,192,44907,1,0,0:0:0:0:
256,192,44998,1,0,0:0:0:0:
256,192,45089,1,0,0:0:0:0:
256,192,45180,1,8,0:0:0:0:
256,192,45271,1,8,0:0:0:0:
256,192,45362,1,0,0:0:0:0:
256,192,45422,1,0,0:0:0:0:
256,192,45483,1,0,0:0:0:0:
256,160,45543,1,12,0:0:0:0:
256,160,45725,1,4,0:0:0:0:
256,160,45907,1,4,0:0:0:0:
256,160,46089,1,12,0:0:0:0:
256,160,46453,1,4,0:0:0:0:
256,160,46634,1,4,0:0:0:0:
256,160,46998,1,12,0:0:0:0:
256,192,47362,1,0,0:0:0:0:
256,192,47543,1,0,0:0:0:0:
256,192,47725,1,8,0:0:0:0:
256,192,48089,1,8,0:0:0:0:
256,192,48271,1,8,0:0:0:0:
256,192,48453,1,0,0:0:0:0:
256,192,48634,1,0,0:0:0:0:
256,192,48816,1,0,0:0:0:0:
256,192,48998,1,8,0:0:0:0:
256,192,49180,1,0,0:0:0:0:
256,192,49271,1,0,0:0:0:0:
256,192,49362,1,0,0:0:0:0:
256,192,49543,1,8,0:0:0:0:
256,192,49907,1,8,0:0:0:0:
256,192,50089,1,0,0:0:0:0:
256,192,50271,1,0,0:0:0:0:
256,192,50453,1,0,0:0:0:0:
256,192,50634,1,8,0:0:0:0:
256,192,50998,1,8,0:0:0:0:
256,192,51180,1,0,0:0:0:0:
256,192,51362,1,8,0:0:0:0:
256,192,51543,1,8,0:0:0:0:
256,192,51725,1,0,0:0:0:0:
256,192,51907,1,0,0:0:0:0:
256,192,52089,1,8,0:0:0:0:
256,192,52180,1,0,0:0:0:0:
256,192,52271,1,8,0:0:0:0:
256,192,52453,1,0,0:0:0:0:
256,192,52634,1,8,0:0:0:0:
256,192,52725,1,8,0:0:0:0:
256,160,52816,1,4,0:0:0:0:
256,192,52998,1,0,0:0:0:0:
256,192,53089,1,0,0:0:0:0:
256,192,53180,1,8,0:0:0:0:
256,192,53362,1,8,0:0:0:0:
256,192,53543,1,0,0:0:0:0:
256,192,53725,1,8,0:0:0:0:
256,192,53816,1,8,0:0:0:0:
256,192,53907,1,0,0:0:0:0:
256,192,54089,1,0,0:0:0:0:
256,192,54271,1,8,0:0:0:0:
256,192,54362,1,8,0:0:0:0:
256,192,54453,1,0,0:0:0:0:
256,192,54543,1,0,0:0:0:0:
256,192,54634,1,8,0:0:0:0:
256,192,54816,1,0,0:0:0:0:
256,192,54998,1,8,0:0:0:0:
256,192,55059,1,0,0:0:0:0:
256,192,55119,1,0,0:0:0:0:
256,192,55180,1,8,0:0:0:0:
256,192,55271,1,8,0:0:0:0:
256,192,55362,1,0,0:0:0:0:
256,192,55543,1,0,0:0:0:0:
256,192,55725,1,8,0:0:0:0:
256,192,55907,1,8,0:0:0:0:
256,192,55998,1,8,0:0:0:0:
256,192,56089,1,0,0:0:0:0:
256,192,56271,1,0,0:0:0:0:
256,192,56453,1,8,0:0:0:0:
256,192,56634,1,0,0:0:0:0:
256,192,56725,1,0,0:0:0:0:
256,192,56816,1,8,0:0:0:0:
256,192,56998,1,8,0:0:0:0:
256,192,57180,1,0,0:0:0:0:
256,192,57271,1,0,0:0:0:0:
256,192,57362,1,8,0:0:0:0:
256,192,57453,1,8,0:0:0:0:
256,192,57543,1,0,0:0:0:0:
256,192,57725,1,0,0:0:0:0:
256,192,57907,1,8,0:0:0:0:
256,192,57968,1,8,0:0:0:0:
256,192,58028,1,8,0:0:0:0:
256,192,58089,1,0,0:0:0:0:
256,192,58180,1,0,0:0:0:0:
256,192,58271,1,8,0:0:0:0:
256,192,58453,1,8,0:0:0:0:
256,192,58543,1,8,0:0:0:0:
256,160,58634,1,4,0:0:0:0:
256,192,58998,1,8,0:0:0:0:
256,192,59180,1,8,0:0:0:0:
256,192,59362,1,0,0:0:0:0:
256,192,59725,1,0,0:0:0:0:
256,192,59907,1,0,0:0:0:0:
256,192,60089,1,8,0:0:0:0:
256,192,60271,1,8,0:0:0:0:
256,192,60453,1,0,0:0:0:0:
256,192,60634,1,8,0:0:0:0:
256,192,60816,1,0,0:0:0:0:
256,192,60907,1,0,0:0:0:0:
256,192,60998,1,0,0:0:0:0:
256,192,61180,1,8,0:0:0:0:
256,192,61543,1,0,0:0:0:0:
256,192,61725,1,0,0:0:0:0:
256,192,61907,1,8,0:0:0:0:
256,192,62089,1,0,0:0:0:0:
256,192,62271,1,8,0:0:0:0:
256,192,62634,1,8,0:0:0:0:
256,192,62816,1,0,0:0:0:0:
256,192,62998,1,8,0:0:0:0:
256,192,63180,1,8,0:0:0:0:
256,192,63362,1,0,0:0:0:0:
256,192,63543,1,0,0:0:0:0:
256,192,63725,1,8,0:0:0:0:
256,192,63816,1,0,0:0:0:0:
256,192,63907,1,8,0:0:0:0:
256,192,64089,1,0,0:0:0:0:
256,192,64271,1,8,0:0:0:0:
256,192,64362,1,8,0:0:0:0:
256,160,64453,1,4,0:0:0:0:
256,192,64634,1,0,0:0:0:0:
256,192,64725,1,0,0:0:0:0:
256,192,64816,1,8,0:0:0:0:
256,192,64998,1,0,0:0:0:0:
256,192,65180,1,8,0:0:0:0:
256,192,65362,1,8,0:0:0:0:
256,192,65453,1,8,0:0:0:0:
256,192,65543,1,0,0:0:0:0:
256,192,65725,1,8,0:0:0:0:
256,192,65907,1,0,0:0:0:0:
256,192,65998,1,0,0:0:0:0:
256,192,66089,1,0,0:0:0:0:
256,192,66180,1,0,0:0:0:0:
256,192,66271,1,8,0:0:0:0:
256,192,66453,1,0,0:0:0:0:
256,192,66634,1,0,0:0:0:0:
256,192,66695,1,8,0:0:0:0:
256,192,66756,1,8,0:0:0:0:
256,192,66816,1,0,0:0:0:0:
256,192,66907,1,0,0:0:0:0:
256,192,66998,1,8,0:0:0:0:
256,192,67180,1,0,0:0:0:0:
256,192,67362,1,8,0:0:0:0:
256,192,67543,1,8,0:0:0:0:
256,192,67634,1,8,0:0:0:0:
256,192,67725,1,0,0:0:0:0:
256,192,67907,1,8,0:0:0:0:
256,192,68089,1,0,0:0:0:0:
256,192,68271,1,0,0:0:0:0:
256,192,68362,1,0,0:0:0:0:
256,192,68453,1,8,0:0:0:0:
256,192,68634,1,0,0:0:0:0:
256,192,68816,1,8,0:0:0:0:
256,192,68907,1,8,0:0:0:0:
256,192,68998,1,8,0:0:0:0:
256,192,69089,1,8,0:0:0:0:
256,192,69180,1,0,0:0:0:0:
256,192,69362,1,8,0:0:0:0:
256,192,69543,1,0,0:0:0:0:
256,192,69604,1,0,0:0:0:0:
256,192,69665,1,0,0:0:0:0:
256,192,69725,1,8,0:0:0:0:
256,192,69816,1,8,0:0:0:0:
256,192,69907,1,0,0:0:0:0:
256,192,70089,1,0,0:0:0:0:
256,192,70180,1,0,0:0:0:0:
256,160,70271,1,12,0:0:0:0:
256,160,70453,1,12,0:0:0:0:
256,160,70634,1,12,0:0:0:0:
256,160,70816,1,4,0:0:0:0:
256,160,71362,1,4,0:0:0:0:
256,160,71543,1,4,0:0:0:0:
256,160,71725,1,4,0:0:0:0:
256,160,71907,1,12,0:0:0:0:
256,192,72271,1,8,0:0:0:0:
256,192,72362,1,8,0:0:0:0:
256,160,72453,1,0,0:0:0:0:
256,192,72543,1,0,0:0:0:0:
256,192,72634,1,8,0:0:0:0:
256,192,72725,1,0,0:0:0:0:
256,192,72816,1,8,0:0:0:0:
256,192,72907,1,0,0:0:0:0:
256,192,72998,1,0,0:0:0:0:
256,192,73089,1,0,0:0:0:0:
256,160,73180,1,12,0:0:0:0:
256,160,73362,1,12,0:0:0:0:
256,160,73543,1,12,0:0:0:0:
256,160,73725,1,4,0:0:0:0:
256,192,73907,1,8,0:0:0:0:
256,192,73998,1,8,0:0:0:0:
256,192,74089,1,8,0:0:0:0:
256,192,74180,1,8,0:0:0:0:
256,160,74271,1,4,0:0:0:0:
256,160,74453,1,4,0:0:0:0:
256,160,74634,1,4,0:0:0:0:
256,160,74816,1,12,0:0:0:0:
256,192,74998,1,0,0:0:0:0:
256,192,75089,1,0,0:0:0:0:
256,192,75180,1,8,0:0:0:0:
256,192,75271,1,0,0:0:0:0:
256,160,75362,1,12,0:0:0:0:
256,192,75543,1,0,0:0:0:0:
256,192,75634,1,0,0:0:0:0:
256,192,75725,1,8,0:0:0:0:
256,192,75786,1,0,0:0:0:0:
256,192,75846,1,0,0:0:0:0:
256,192,75907,1,8,0:0:0:0:
256,192,75968,1,0,0:0:0:0:
256,192,76028,1,0,0:0:0:0:
256,192,76089,1,8,0:0:0:0:
256,192,76180,1,0,0:0:0:0:
256,192,76271,1,0,0:0:0:0:
256,192,76362,1,0,0:0:0:0:
256,192,76453,1,8,0:0:0:0:
256,192,76543,1,8,0:0:0:0:
256,192,76634,1,0,0:0:0:0:
256,192,76725,1,0,0:0:0:0:
256,192,76816,1,8,0:0:0:0:
256,192,76907,1,0,0:0:0:0:
256,192,76998,1,0,0:0:0:0:
256,192,77089,1,0,0:0:0:0:
256,192,77180,1,8,0:0:0:0:
256,192,77271,1,8,0:0:0:0:
256,192,77362,1,0,0:0:0:0:
256,192,77453,1,0,0:0:0:0:
256,192,77543,1,8,0:0:0:0:
256,192,77634,1,8,0:0:0:0:
256,192,77725,1,8,0:0:0:0:
256,192,77816,1,8,0:0:0:0:
256,192,77907,1,0,0:0:0:0:
256,192,77998,1,0,0:0:0:0:
256,192,78089,1,8,0:0:0:0:
256,192,78180,1,0,0:0:0:0:
256,192,78271,1,8,0:0:0:0:
256,192,78362,1,0,0:0:0:0:
256,192,78453,1,0,0:0:0:0:
256,192,78543,1,8,0:0:0:0:
256,192,78634,1,0,0:0:0:0:
256,192,78725,1,0,0:0:0:0:
256,192,78816,1,8,0:0:0:0:
256,192,78907,1,8,0:0:0:0:
256,192,78998,1,0,0:0:0:0:
256,192,79059,1,0,0:0:0:0:
256,192,79119,1,0,0:0:0:0:
256,192,79180,1,8,0:0:0:0:
256,192,79271,1,0,0:0:0:0:
256,192,79362,1,8,0:0:0:0:
256,192,79422,1,0,0:0:0:0:
256,192,79483,1,0,0:0:0:0:
256,192,79543,1,8,0:0:0:0:
256,192,79634,1,0,0:0:0:0:
256,192,79725,1,8,0:0:0:0:
256,192,79786,1,8,0:0:0:0:
256,192,79846,1,8,0:0:0:0:
256,192,79907,1,0,0:0:0:0:
256,192,79998,1,0,0:0:0:0:
256,192,80089,1,8,0:0:0:0:
256,192,80149,1,8,0:0:0:0:
256,192,80210,1,8,0:0:0:0:
256,192,80271,1,0,0:0:0:0:
256,192,80362,1,0,0:0:0:0:
256,160,80453,1,12,0:0:0:0:
256,160,80725,1,4,0:0:0:0:
256,160,80998,1,4,0:0:0:0:
256,160,81180,1,12,0:0:0:0:
256,192,81543,1,8,0:0:0:0:
256,160,81907,1,4,0:0:0:0:
256,192,82089,1,8,0:0:0:0:
256,192,82180,1,8,0:0:0:0:
256,192,82271,1,0,0:0:0:0:
256,192,82362,1,0,0:0:0:0:
256,192,82453,1,8,0:0:0:0:
256,192,82543,1,0,0:0:0:0:
256,192,82634,1,8,0:0:0:0:
256,192,82816,1,0,0:0:0:0:
256,192,82907,1,0,0:0:0:0:
256,192,82998,1,8,0:0:0:0:
256,192,83180,1,0,0:0:0:0:
256,192,83271,1,0,0:0:0:0:
256,192,83362,1,8,0:0:0:0:
256,192,83453,1,0,0:0:0:0:
256,192,83543,1,0,0:0:0:0:
256,192,83634,1,0,0:0:0:0:
256,192,83725,1,8,0:0:0:0:
256,192,83907,1,8,0:0:0:0:
256,192,83998,1,8,0:0:0:0:
256,192,84089,1,0,0:0:0:0:
256,192,84271,1,8,0:0:0:0:
256,192,84331,1,8,0:0:0:0:
256,192,84392,1,8,0:0:0:0:
256,192,84453,1,0,0:0:0:0:
256,192,84634,1,0,0:0:0:0:
256,192,84816,1,8,0:0:0:0:
256,192,84907,1,0,0:0:0:0:
256,192,84998,1,0,0:0:0:0:
256,192,85089,1,0,0:0:0:0:
256,192,85180,1,8,0:0:0:0:
256,192,85271,1,8,0:0:0:0:
256,192,85362,1,0,0:0:0:0:
256,192,85453,1,0,0:0:0:0:
256,192,85543,1,8,0:0:0:0:
256,192,85725,1,0,0:0:0:0:
256,192,85816,1,8,0:0:0:0:
256,192,85998,1,0,0:0:0:0:
256,192,86089,1,8,0:0:0:0:
256,192,86180,1,8,0:0:0:0:
256,192,86271,1,0,0:0:0:0:
256,192,86362,1,0,0:0:0:0:
256,192,86453,1,8,0:0:0:0:
256,192,86543,1,0,0:0:0:0:
256,192,86634,1,8,0:0:0:0:
256,192,86816,1,0,0:0:0:0:
256,192,86907,1,0,0:0:0:0:
256,192,86998,1,8,0:0:0:0:
256,192,87180,1,0,0:0:0:0:
256,192,87240,1,0,0:0:0:0:
256,192,87301,1,0,0:0:0:0:
256,192,87362,1,8,0:0:0:0:
256,192,87543,1,8,0:0:0:0:
256,192,87725,1,0,0:0:0:0:
256,192,87816,1,8,0:0:0:0:
256,192,87907,1,0,0:0:0:0:
256,192,87998,1,8,0:0:0:0:
256,192,88089,1,0,0:0:0:0:
256,192,88180,1,0,0:0:0:0:
256,192,88271,1,8,0:0:0:0:
256,192,88362,1,8,0:0:0:0:
256,192,88453,1,0,0:0:0:0:
256,192,88634,1,8,0:0:0:0:
256,192,88695,1,0,0:0:0:0:
256,192,88756,1,0,0:0:0:0:
256,192,88816,1,8,0:0:0:0:
256,192,88998,1,0,0:0:0:0:
256,192,89089,1,8,0:0:0:0:
256,192,89180,1,0,0:0:0:0:
256,192,89362,1,0,0:0:0:0:
256,192,89453,1,0,0:0:0:0:
256,192,89543,1,8,0:0:0:0:
256,192,89634,1,8,0:0:0:0:
256,192,89725,1,8,0:0:0:0:
256,192,89816,1,0,0:0:0:0:
256,192,89907,1,8,0:0:0:0:
256,192,90089,1,0,0:0:0:0:
256,192,90149,1,8,0:0:0:0:
256,192,90210,1,8,0:0:0:0:
256,192,90271,1,0,0:0:0:0:
256,192,90453,1,8,0:0:0:0:
256,192,90543,1,8,0:0:0:0:
256,192,90634,1,0,0:0:0:0:
256,192,90725,1,0,0:0:0:0:
256,192,90816,1,0,0:0:0:0:
256,192,90907,1,0,0:0:0:0:
256,192,90998,1,8,0:0:0:0:
256,192,91180,1,8,0:0:0:0:
256,192,91271,1,8,0:0:0:0:
256,192,91362,1,0,0:0:0:0:
256,192,91543,1,8,0:0:0:0:
256,192,91634,1,0,0:0:0:0:
256,192,91816,1,8,0:0:0:0:
256,192,91907,1,0,0:0:0:0:
256,192,91998,1,0,0:0:0:0:
256,192,92089,1,8,0:0:0:0:
256,192,92180,1,8,0:0:0:0:
256,192,92271,1,0,0:0:0:0:
256,192,92362,1,8,0:0:0:0:
256,192,92453,1,0,0:0:0:0:
256,192,92634,1,0,0:0:0:0:
256,192,92725,1,0,0:0:0:0:
256,192,92816,1,8,0:0:0:0:
256,192,92907,1,0,0:0:0:0:
256,192,92998,1,8,0:0:0:0:
256,192,93059,1,8,0:0:0:0:
256,192,93119,1,8,0:0:0:0:
256,192,93180,1,0,0:0:0:0:
256,192,93271,1,0,0:0:0:0:
256,192,93362,1,8,0:0:0:0:
256,192,93453,1,8,0:0:0:0:
256,160,93543,1,4,0:0:0:0:
256,192,93725,1,8,0:0:0:0:
256,192,93816,1,8,0:0:0:0:
256,192,93907,1,0,0:0:0:0:
256,192,93998,1,0,0:0:0:0:
256,192,94089,1,8,0:0:0:0:
256,192,94271,1,0,0:0:0:0:
256,192,94362,1,8,0:0:0:0:
256,192,94543,1,8,0:0:0:0:
256,192,94634,1,8,0:0:0:0:
256,192,94725,1,0,0:0:0:0:
256,192,94816,1,8,0:0:0:0:
256,192,94998,1,8,0:0:0:0:
256,192,95089,1,0,0:0:0:0:
256,192,95180,1,0,0:0:0:0:
256,192,95271,1,0,0:0:0:0:
256,192,95362,1,8,0:0:0:0:
256,192,95453,1,8,0:0:0:0:
256,192,95543,1,0,0:0:0:0:
256,192,95634,1,8,0:0:0:0:
256,192,95725,1,0,0:0:0:0:
256,192,95907,1,8,0:0:0:0:
256,192,95968,1,8,0:0:0:0:
256,192,96028,1,8,0:0:0:0:
256,192,96089,1,0,0:0:0:0:
256,192,96271,1,0,0:0:0:0:
256,192,96453,1,8,0:0:0:0:
256,192,96543,1,8,0:0:0:0:
256,192,96634,1,8,0:0:0:0:
256,192,96725,1,8,0:0:0:0:
256,192,96816,1,0,0:0:0:0:
256,192,96907,1,0,0:0:0:0:
256,192,96998,1,8,0:0:0:0:
256,192,97180,1,8,0:0:0:0:
256,192,97271,1,0,0:0:0:0:
256,192,97362,1,0,0:0:0:0:
256,192,97453,1,8,0:0:0:0:
256,192,97634,1,0,0:0:0:0:
256,192,97725,1,8,0:0:0:0:
256,192,97816,1,0,0:0:0:0:
256,192,97907,1,8,0:0:0:0:
256,192,97998,1,8,0:0:0:0:
256,192,98089,1,0,0:0:0:0:
256,192,98180,1,0,0:0:0:0:
256,192,98271,1,8,0:0:0:0:
256,192,98362,1,0,0:0:0:0:
256,192,98453,1,8,0:0:0:0:
256,192,98543,1,0,0:0:0:0:
256,192,98634,1,8,0:0:0:0:
256,192,98725,1,8,0:0:0:0:
256,192,98816,1,0,0:0:0:0:
256,192,98877,1,0,0:0:0:0:
256,192,98937,1,0,0:0:0:0:
256,192,98998,1,8,0:0:0:0:
256,192,99180,1,0,0:0:0:0:
256,160,99362,1,12,0:0:0:0:
256,192,99543,1,0,0:0:0:0:
256,192,99634,1,0,0:0:0:0:
256,192,99725,1,0,0:0:0:0:
256,192,99816,1,0,0:0:0:0:
256,192,99907,1,8,0:0:0:0:
256,192,99998,1,8,0:0:0:0:
256,192,100089,1,0,0:0:0:0:
256,192,100180,1,0,0:0:0:0:
256,192,100271,1,0,0:0:0:0:
256,192,100362,1,0,0:0:0:0:
256,192,100453,1,8,0:0:0:0:
256,192,100543,1,8,0:0:0:0:
256,192,100634,1,8,0:0:0:0:
256,192,100725,1,8,0:0:0:0:
256,192,100816,1,0,0:0:0:0:
256,192,100907,1,0,0:0:0:0:
256,192,100998,1,8,0:0:0:0:
256,192,101089,1,8,0:0:0:0:
256,192,101180,1,0,0:0:0:0:
256,192,101271,1,0,0:0:0:0:
256,192,101362,1,0,0:0:0:0:
256,192,101453,1,0,0:0:0:0:
256,192,101543,1,8,0:0:0:0:
256,192,101634,1,8,0:0:0:0:
256,192,101725,1,0,0:0:0:0:
256,192,101816,1,0,0:0:0:0:
256,192,101907,1,8,0:0:0:0:
256,192,101968,1,8,0:0:0:0:
256,192,102028,1,0,0:0:0:0:
256,192,102089,1,8,0:0:0:0:
256,192,102149,1,0,0:0:0:0:
256,192,102210,1,0,0:0:0:0:
256,160,102271,1,12,0:0:0:0:
256,192,102453,1,0,0:0:0:0:
256,192,102634,1,8,0:0:0:0:
256,192,102816,1,8,0:0:0:0:
256,192,102998,1,0,0:0:0:0:
256,192,103180,1,0,0:0:0:0:
256,192,103362,1,8,0:0:0:0:
256,192,103543,1,8,0:0:0:0:
256,192,103604,1,0,0:0:0:0:
256,192,103665,1,0,0:0:0:0:
256,160,103725,1,12,0:0:0:0:
256,160,103998,1,4,0:0:0:0:
256,160,104271,1,4,0:0:0:0:
256,160,104453,1,12,0:0:0:0:
256,160,104725,1,4,0:0:0:0:
256,160,104998,1,4,0:0:0:0:
256,160,105180,1,12,0:0:0:0:
256,192,105362,1,8,0:0:0:0:
256,192,105453,1,8,0:0:0:0:
256,192,105543,1,0,0:0:0:0:
256,192,105634,1,0,0:0:0:0:
256,192,105725,1,0,0:0:0:0:
256,192,105816,1,0,0:0:0:0:
256,192,105907,1,8,0:0:0:0:
256,192,105998,1,0,0:0:0:0:
256,192,106089,1,0,0:0:0:0:
256,192,106180,1,0,0:0:0:0:
256,192,106271,1,8,0:0:0:0:
256,192,106362,1,0,0:0:0:0:
256,192,106453,1,8,0:0:0:0:
256,192,106543,1,8,0:0:0:0:
256,192,106634,1,0,0:0:0:0:
256,192,106725,1,0,0:0:0:0:
256,192,106816,1,0,0:0:0:0:
256,192,106907,1,0,0:0:0:0:
256,192,106998,1,8,0:0:0:0:
256,192,107089,1,8,0:0:0:0:
256,192,107180,1,8,0:0:0:0:
256,192,107271,1,8,0:0:0:0:
256,192,107362,1,0,0:0:0:0:
256,192,107422,1,0,0:0:0:0:
256,192,107483,1,0,0:0:0:0:
256,192,107543,1,0,0:0:0:0:
256,192,107604,1,0,0:0:0:0:
256,192,107665,1,0,0:0:0:0:
256,160,107725,1,12,0:0:0:0:
256,160,108089,1,12,0:0:0:0:
256,192,108271,1,0,0:0:0:0:
256,192,108362,1,0,0:0:0:0:
256,192,108453,1,8,0:0:0:0:
256,192,108634,1,0,0:0:0:0:
256,192,108816,1,8,0:0:0:0:
256,192,108907,1,0,0:0:0:0:
256,192,108998,1,0,0:0:0:0:
256,192,109089,1,0,0:0:0:0:
256,192,109180,1,8,0:0:0:0:
256,192,109362,1,0,0:0:0:0:
256,192,109453,1,0,0:0:0:0:
256,192,109543,1,8,0:0:0:0:
256,192,109634,1,8,0:0:0:0:
256,192,109725,1,0,0:0:0:0:
256,192,109907,1,8,0:0:0:0:
256,192,109998,1,8,0:0:0:0:
256,192,110089,1,0,0:0:0:0:
256,192,110180,1,8,0:0:0:0:
256,192,110271,1,0,0:0:0:0:
256,192,110362,1,0,0:0:0:0:
256,192,110453,1,8,0:0:0:0:
256,192,110634,1,0,0:0:0:0:
256,192,110816,1,0,0:0:0:0:
256,192,110998,1,8,0:0:0:0:
256,192,111180,1,0,0:0:0:0:
256,192,111271,1,0,0:0:0:0:
256,192,111362,1,8,0:0:0:0:
256,192,111543,1,0,0:0:0:0:
256,192,111725,1,8,0:0:0:0:
256,192,111816,1,8,0:0:0:0:
256,192,111907,1,0,0:0:0:0:
256,192,111998,1,0,0:0:0:0:
256,192,112089,1,8,0:0:0:0:
256,192,112271,1,0,0:0:0:0:
256,192,112362,1,0,0:0:0:0:
256,192,112453,1,8,0:0:0:0:
256,192,112543,1,0,0:0:0:0:
256,192,112634,1,0,0:0:0:0:
256,192,112816,1,8,0:0:0:0:
256,192,112907,1,0,0:0:0:0:
256,192,112998,1,8,0:0:0:0:
256,192,113089,1,0,0:0:0:0:
256,192,113180,1,0,0:0:0:0:
256,192,113271,1,0,0:0:0:0:
256,192,113362,1,8,0:0:0:0:
256,192,113453,1,8,0:0:0:0:
256,192,113543,1,0,0:0:0:0:
256,192,113725,1,0,0:0:0:0:
256,192,113907,1,8,0:0:0:0:
256,192,114089,1,0,0:0:0:0:
256,192,114180,1,0,0:0:0:0:
256,192,114271,1,8,0:0:0:0:
256,192,114453,1,0,0:0:0:0:
256,192,114634,1,8,0:0:0:0:
256,192,114725,1,0,0:0:0:0:
256,192,114816,1,0,0:0:0:0:
256,192,114907,1,0,0:0:0:0:
256,192,114998,1,8,0:0:0:0:
256,192,115180,1,0,0:0:0:0:
256,192,115271,1,0,0:0:0:0:
256,192,115362,1,8,0:0:0:0:
256,192,115453,1,0,0:0:0:0:
256,192,115543,1,8,0:0:0:0:
256,192,115725,1,8,0:0:0:0:
256,192,115816,1,0,0:0:0:0:
256,192,115907,1,8,0:0:0:0:
256,192,115998,1,8,0:0:0:0:
256,192,116089,1,0,0:0:0:0:
256,192,116180,1,0,0:0:0:0:
256,192,116271,1,8,0:0:0:0:
256,192,116453,1,0,0:0:0:0:
256,192,116634,1,0,0:0:0:0:
256,192,116816,1,8,0:0:0:0:
256,192,116907,1,0,0:0:0:0:
256,192,116998,1,8,0:0:0:0:
256,192,117180,1,8,0:0:0:0:
256,192,117271,1,0,0:0:0:0:
256,192,117362,1,8,0:0:0:0:
256,192,117543,1,8,0:0:0:0:
256,192,117634,1,8,0:0:0:0:
256,192,117725,1,0,0:0:0:0:
256,192,117816,1,0,0:0:0:0:
256,192,117907,1,8,0:0:0:0:
256,192,117998,1,0,0:0:0:0:
256,192,118089,1,8,0:0:0:0:
256,192,118149,1,8,0:0:0:0:
256,192,118210,1,8,0:0:0:0:
256,160,118271,1,4,0:0:0:0:
256,160,118634,1,12,0:0:0:0:
256,160,118816,1,4,0:0:0:0:
256,160,119180,1,12,0:0:0:0:
256,192,119362,1,0,0:0:0:0:
256,192,119453,1,0,0:0:0:0:
256,192,119543,1,0,0:0:0:0:
256,192,119634,1,0,0:0:0:0:
256,160,119725,1,12,0:0:0:0:
256,192,119998,1,0,0:0:0:0:
256,192,120089,1,8,0:0:0:0:
256,192,120271,1,8,0:0:0:0:
256,192,120362,1,0,0:0:0:0:
256,192,120453,1,8,0:0:0:0:
256,192,120634,1,0,0:0:0:0:
256,192,120816,1,8,0:0:0:0:
256,192,120998,1,0,0:0:0:0:
256,192,121089,1,0,0:0:0:0:
256,192,121180,1,8,0:0:0:0:
256,192,121362,1,0,0:0:0:0:
256,192,121543,1,8,0:0:0:0:
256,192,121634,1,8,0:0:0:0:
256,192,121725,1,0,0:0:0:0:
256,192,121816,1,0,0:0:0:0:
256,192,121907,1,8,0:0:0:0:
256,192,122089,1,0,0:0:0:0:
256,192,122271,1,8,0:0:0:0:
256,192,122634,1,8,0:0:0:0:
256,192,122907,1,0,0:0:0:0:
256,192,122998,1,8,0:0:0:0:
256,192,123180,1,8,0:0:0:0:
256,192,123271,1,0,0:0:0:0:
256,192,123362,1,8,0:0:0:0:
256,192,123543,1,0,0:0:0:0:
256,192,123725,1,8,0:0:0:0:
256,192,123907,1,0,0:0:0:0:
256,192,123998,1,0,0:0:0:0:
256,192,124089,1,0,0:0:0:0:
256,192,124271,1,8,0:0:0:0:
256,192,124453,1,8,0:0:0:0:
256,192,124634,1,0,0:0:0:0:
256,192,124725,1,8,0:0:0:0:
256,192,124816,1,0,0:0:0:0:
256,192,124907,1,0,0:0:0:0:
256,192,124998,1,8,0:0:0:0:
256,192,125180,1,0,0:0:0:0:
256,192,125271,1,0,0:0:0:0:
256,192,125362,1,0,0:0:0:0:
256,192,125543,1,8,0:0:0:0:
256,192,125725,1,8,0:0:0:0:
256,192,125816,1,0,0:0:0:0:
256,192,125907,1,8,0:0:0:0:
256,192,126089,1,8,0:0:0:0:
256,192,126180,1,8,0:0:0:0:
256,192,126271,1,0,0:0:0:0:
256,192,126362,1,0,0:0:0:0:
256,192,126453,1,0,0:0:0:0:
256,192,126634,1,8,0:0:0:0:
256,192,126816,1,0,0:0:0:0:
256,192,126907,1,8,0:0:0:0:
256,192,126998,1,0,0:0:0:0:
256,192,127180,1,0,0:0:0:0:
256,192,127271,1,0,0:0:0:0:
256,192,127362,1,8,0:0:0:0:
256,192,127543,1,0,0:0:0:0:
256,192,127634,1,8,0:0:0:0:
256,192,127725,1,0,0:0:0:0:
256,192,127816,1,0,0:0:0:0:
256,192,127907,1,8,0:0:0:0:
256,192,128089,1,0,0:0:0:0:
256,192,128180,1,0,0:0:0:0:
256,192,128271,1,0,0:0:0:0:
256,192,128453,1,8,0:0:0:0:
256,192,128543,1,8,0:0:0:0:
256,192,128634,1,0,0:0:0:0:
256,192,128725,1,0,0:0:0:0:
256,192,128816,1,8,0:0:0:0:
256,192,128998,1,0,0:0:0:0:
256,192,129089,1,0,0:0:0:0:
256,192,129180,1,8,0:0:0:0:
256,192,129271,1,0,0:0:0:0:
256,192,129362,1,0,0:0:0:0:
256,192,129453,1,0,0:0:0:0:
256,192,129543,1,8,0:0:0:0:
256,192,129634,1,8,0:0:0:0:
256,192,129725,1,0,0:0:0:0:
256,192,129786,1,0,0:0:0:0:
256,192,129846,1,0,0:0:0:0:
256,160,129907,1,12,0:0:0:0:
256,160,130089,1,4,0:0:0:0:
256,160,130271,1,4,0:0:0:0:
256,160,130453,1,12,0:0:0:0:
256,160,130816,1,4,0:0:0:0:
256,160,130998,1,4,0:0:0:0:
256,160,131362,1,12,0:0:0:0:
256,192,131725,1,0,0:0:0:0:
256,192,131907,1,0,0:0:0:0:
256,192,132089,1,8,0:0:0:0:
256,192,132453,1,8,0:0:0:0:
256,192,132634,1,0,0:0:0:0:
256,192,132816,1,8,0:0:0:0:
256,192,132998,1,0,0:0:0:0:
256,192,133180,1,0,0:0:0:0:
256,192,133362,1,8,0:0:0:0:
256,192,133543,1,0,0:0:0:0:
256,192,133634,1,0,0:0:0:0:
256,192,133725,1,0,0:0:0:0:
256,192,133907,1,8,0:0:0:0:
256,192,134271,1,8,0:0:0:0:
256,192,134453,1,8,0:0:0:0:
256,192,134634,1,0,0:0:0:0:
256,192,134816,1,0,0:0:0:0:
256,192,134998,1,8,0:0:0:0:
256,192,135362,1,8,0:0:0:0:
256,192,135543,1,0,0:0:0:0:
256,192,135725,1,8,0:0:0:0:
256,192,135907,1,8,0:0:0:0:
256,192,136089,1,0,0:0:0:0:
256,192,136271,1,0,0:0:0:0:
256,192,136453,1,8,0:0:0:0:
256,192,136543,1,0,0:0:0:0:
256,192,136634,1,8,0:0:0:0:
256,192,136816,1,0,0:0:0:0:
256,192,136998,1,8,0:0:0:0:
256,192,137089,1,8,0:0:0:0:
256,160,137180,1,4,0:0:0:0:
256,192,137362,1,0,0:0:0:0:
256,192,137453,1,0,0:0:0:0:
256,192,137543,1,8,0:0:0:0:
256,192,137725,1,8,0:0:0:0:
256,192,137907,1,0,0:0:0:0:
256,192,138089,1,8,0:0:0:0:
256,192,138180,1,8,0:0:0:0:
256,192,138271,1,0,0:0:0:0:
256,192,138453,1,0,0:0:0:0:
256,192,138634,1,8,0:0:0:0:
256,192,138725,1,0,0:0:0:0:
256,192,138816,1,0,0:0:0:0:
256,192,138907,1,0,0:0:0:0:
256,192,138998,1,8,0:0:0:0:
256,192,139180,1,0,0:0:0:0:
256,192,139362,1,8,0:0:0:0:
256,192,139422,1,0,0:0:0:0:
256,192,139483,1,0,0:0:0:0:
256,192,139543,1,8,0:0:0:0:
256,192,139634,1,8,0:0:0:0:
256,192,139725,1,0,0:0:0:0:
256,192,139907,1,0,0:0:0:0:
256,192,140089,1,8,0:0:0:0:
256,192,140271,1,8,0:0:0:0:
256,192,140362,1,8,0:0:0:0:
256,192,140453,1,0,0:0:0:0:
256,192,140634,1,0,0:0:0:0:
256,192,140816,1,8,0:0:0:0:
256,192,140998,1,0,0:0:0:0:
256,192,141089,1,0,0:0:0:0:
256,192,141180,1,8,0:0:0:0:
256,192,141362,1,8,0:0:0:0:
256,192,141543,1,0,0:0:0:0:
256,192,141634,1,8,0:0:0:0:
256,192,141725,1,8,0:0:0:0:
256,192,141816,1,8,0:0:0:0:
256,192,141907,1,0,0:0:0:0:
256,192,142089,1,0,0:0:0:0:
256,192,142271,1,8,0:0:0:0:
256,192,142331,1,8,0:0:0:0:
256,192,142392,1,8,0:0:0:0:
256,192,142453,1,0,0:0:0:0:
256,192,142543,1,0,0:0:0:0:
256,192,142634,1,8,0:0:0:0:
256,192,142816,1,8,0:0:0:0:
256,192,142907,1,8,0:0:0:0:
256,160,142998,1,4,0:0:0:0:
256,192,143362,1,8,0:0:0:0:
256,192,143543,1,8,0:0:0:0:
256,192,143725,1,0,0:0:0:0:
256,192,144089,1,0,0:0:0:0:
256,192,144271,1,0,0:0:0:0:
256,192,144453,1,8,0:0:0:0:
256,192,144634,1,0,0:0:0:0:
256,192,144816,1,0,0:0:0:0:
256,192,144998,1,8,0:0:0:0:
256,192,145180,1,0,0:0:0:0:
256,192,145271,1,0,0:0:0:0:
256,192,145362,1,0,0:0:0:0:
256,192,145543,1,8,0:0:0:0:
256,192,145907,1,0,0:0:0:0:
256,192,146089,1,8,0:0:0:0:
256,192,146271,1,8,0:0:0:0:
256,192,146453,1,0,0:0:0:0:
256,192,146634,1,8,0:0:0:0:
256,192,146998,1,8,0:0:0:0:
256,192,147180,1,0,0:0:0:0:
256,192,147362,1,8,0:0:0:0:
256,192,147543,1,8,0:0:0:0:
256,192,147725,1,0,0:0:0:0:
256,192,147907,1,0,0:0:0:0:
256,192,148089,1,8,0:0:0:0:
256,192,148180,1,0,0:0:0:0:
256,192,148271,1,8,0:0:0:0:
256,192,148453,1,0,0:0:0:0:
256,192,148634,1,8,0:0:0:0:
256,192,148725,1,8,0:0:0:0:
256,160,148816,1,4,0:0:0:0:
256,192,148998,1,0,0:0:0:0:
256,192,149089,1,0,0:0:0:0:
256,192,149180,1,8,0:0:0:0:
256,192,149362,1,0,0:0:0:0:
256,192,149543,1,8,0:0:0:0:
256,192,149725,1,8,0:0:0:0:
256,192,149816,1,8,0:0:0:0:
256,192,149907,1,0,0:0:0:0:
256,192,150089,1,8,0:0:0:0:
256,192,150271,1,0,0:0:0:0:
256,192,150362,1,0,0:0:0:0:
256,192,150453,1,8,0:0:0:0:
256,192,150543,1,0,0:0:0:0:
256,192,150634,1,0,0:0:0:0:
256,192,150816,1,8,0:0:0:0:
256,192,150998,1,0,0:0:0:0:
256,192,151059,1,8,0:0:0:0:
256,192,151119,1,8,0:0:0:0:
256,192,151180,1,0,0:0:0:0:
256,192,151271,1,0,0:0:0:0:
256,192,151362,1,8,0:0:0:0:
256,192,151543,1,0,0:0:0:0:
256,192,151725,1,8,0:0:0:0:
256,192,151907,1,8,0:0:0:0:
256,192,151998,1,8,0:0:0:0:
256,192,152089,1,0,0:0:0:0:
256,192,152271,1,8,0:0:0:0:
256,192,152453,1,0,0:0:0:0:
256,192,152634,1,0,0:0:0:0:
256,192,152725,1,0,0:0:0:0:
256,192,152816,1,8,0:0:0:0:
256,192,152998,1,0,0:0:0:0:
256,192,153180,1,8,0:0:0:0:
256,192,153271,1,8,0:0:0:0:
256,192,153362,1,0,0:0:0:0:
256,192,153453,1,8,0:0:0:0:
256,192,153543,1,8,0:0:0:0:
256,192,153725,1,8,0:0:0:0:
256,192,153907,1,0,0:0:0:0:
256,192,153968,1,0,0:0:0:0:
256,192,154028,1,0,0:0:0:0:
256,192,154089,1,8,0:0:0:0:
256,192,154180,1,8,0:0:0:0:
256,192,154271,1,0,0:0:0:0:
256,192,154453,1,0,0:0:0:0:
256,192,154543,1,0,0:0:0:0:
256,160,154634,1,12,0:0:0:0:
256,160,154816,1,12,0:0:0:0:
256,160,154998,1,12,0:0:0:0:
256,160,155180,1,4,0:0:0:0:
256,160,155725,1,4,0:0:0:0:
256,160,155907,1,4,0:0:0:0:
256,160,156089,1,4,0:0:0:0:
256,160,156271,1,12,0:0:0:0:
256,192,156634,1,8,0:0:0:0:
256,192,156725,1,8,0:0:0:0:
256,192,156816,1,0,0:0:0:0:
256,192,156907,1,0,0:0:0:0:
256,192,156998,1,8,0:0:0:0:
256,192,157089,1,0,0:0:0:0:
256,192,157180,1,8,0:0:0:0:
256,192,157271,1,0,0:0:0:0:
256,192,157362,1,0,0:0:0:0:
256,192,157453,1,0,0:0:0:0:
256,160,157543,1,12,0:0:0:0:
256,160,157725,1,12,0:0:0:0:
256,160,157907,1,12,0:0:0:0:
256,160,158089,1,4,0:0:0:0:
256,192,158271,1,8,0:0:0:0:
256,192,158362,1,8,0:0:0:0:
256,192,158453,1,8,0:0:0:0:
256,192,158543,1,8,0:0:0:0:
256,160,158634,1,4,0:0:0:0:
256,160,158816,1,4,0:0:0:0:
256,160,158998,1,4,0:0:0:0:
256,160,159180,1,12,0:0:0:0:
256,192,159362,1,0,0:0:0:0:
256,192,159453,1,0,0:0:0:0:
256,192,159543,1,8,0:0:0:0:
256,192,159634,1,0,0:0:0:0:
256,160,159725,1,12,0:0:0:0:
256,192,159907,1,0,0:0:0:0:
256,192,159998,1,0,0:0:0:0:
256,192,160089,1,8,0:0:0:0:
256,192,160149,1,0,0:0:0:0:
256,192,160210,1,0,0:0:0:0:
256,192,160271,1,8,0:0:0:0:
256,192,160331,1,0,0:0:0:0:
256,192,160392,1,0,0:0:0:0:
256,192,160453,1,8,0:0:0:0:
256,192,160543,1,8,0:0:0:0:
256,192,160634,1,0,0:0:0:0:
256,192,160725,1,0,0:0:0:0:
256,192,160816,1,8,0:0:0:0:
256,192,160907,1,0,0:0:0:0:
256,192,160998,1,0,0:0:0:0:
256,192,161089,1,0,0:0:0:0:
256,192,161180,1,8,0:0:0:0:
256,192,161271,1,8,0:0:0:0:
256,192,161362,1,0,0:0:0:0:
256,192,161453,1,0,0:0:0:0:
256,192,161543,1,8,0:0:0:0:
256,192,161634,1,8,0:0:0:0:
256,192,161725,1,8,0:0:0:0:
256,192,161816,1,0,0:0:0:0:
256,192,161907,1,8,0:0:0:0:
256,192,161998,1,8,0:0:0:0:
256,192,162089,1,8,0:0:0:0:
256,192,162180,1,8,0:0:0:0:
256,192,162271,1,0,0:0:0:0:
256,192,162362,1,0,0:0:0:0:
256,192,162453,1,8,0:0:0:0:
256,192,162543,1,0,0:0:0:0:
256,192,162634,1,8,0:0:0:0:
256,192,162725,1,8,0:0:0:0:
256,192,162816,1,0,0:0:0:0:
256,192,162907,1,8,0:0:0:0:
256,192,162998,1,8,0:0:0:0:
256,192,163089,1,0,0:0:0:0:
256,192,163180,1,8,0:0:0:0:
256,192,163271,1,8,0:0:0:0:
256,192,163362,1,0,0:0:0:0:
256,192,163422,1,0,0:0:0:0:
256,192,163483,1,0,0:0:0:0:
256,192,163543,1,8,0:0:0:0:
256,192,163634,1,0,0:0:0:0:
256,192,163725,1,8,0:0:0:0:
256,192,163786,1,0,0:0:0:0:
256,192,163846,1,0,0:0:0:0:
256,192,163907,1,8,0:0:0:0:
256,192,163998,1,0,0:0:0:0:
256,192,164089,1,8,0:0:0:0:
256,192,164149,1,8,0:0:0:0:
256,192,164210,1,8,0:0:0:0:
256,192,164271,1,0,0:0:0:0:
256,192,164362,1,0,0:0:0:0:
256,192,164453,1,8,0:0:0:0:
256,192,164513,1,8,0:0:0:0:
256,192,164574,1,8,0:0:0:0:
256,192,164634,1,0,0:0:0:0:
256,192,164725,1,0,0:0:0:0:
256,160,164816,1,12,0:0:0:0:
256,160,165089,1,4,0:0:0:0:
256,160,165362,1,4,0:0:0:0:
256,160,165543,1,12,0:0:0:0:
256,192,165907,1,0,0:0:0:0:
256,192,166089,1,8,0:0:0:0:
256,160,166271,1,4,0:0:0:0:
256,192,166453,1,8,0:0:0:0:
256,192,166543,1,0,0:0:0:0:
256,192,166634,1,8,0:0:0:0:
256,192,166725,1,8,0:0:0:0:
256,192,166816,1,0,0:0:0:0:
256,192,166907,1,0,0:0:0:0:
256,192,166998,1,8,0:0:0:0:
256,192,167180,1,0,0:0:0:0:
256,192,167271,1,0,0:0:0:0:
256,192,167362,1,8,0:0:0:0:
256,192,167543,1,8,0:0:0:0:
256,192,167634,1,8,0:0:0:0:
256,192,167725,1,0,0:0:0:0:
256,192,167816,1,0,0:0:0:0:
256,192,167907,1,8,0:0:0:0:
256,192,167998,1,0,0:0:0:0:
256,192,168089,1,8,0:0:0:0:
256,192,168271,1,8,0:0:0:0:
256,192,168362,1,8,0:0:0:0:
256,192,168453,1,0,0:0:0:0:
256,192,168634,1,8,0:0:0:0:
256,192,168695,1,8,0:0:0:0:
256,192,168756,1,8,0:0:0:0:
256,192,168816,1,0,0:0:0:0:
256,192,168998,1,0,0:0:0:0:
256,192,169180,1,8,0:0:0:0:
256,192,169271,1,8,0:0:0:0:
256,192,169362,1,0,0:0:0:0:
256,192,169453,1,0,0:0:0:0:
256,192,169543,1,8,0:0:0:0:
256,192,169634,1,0,0:0:0:0:
256,192,169725,1,8,0:0:0:0:
256,192,169816,1,8,0:0:0:0:
256,192,169907,1,0,0:0:0:0:
256,192,170089,1,0,0:0:0:0:
256,192,170180,1,8,0:0:0:0:
256,192,170362,1,8,0:0:0:0:
256,192,170453,1,0,0:0:0:0:
256,192,170543,1,0,0:0:0:0:
256,192,170634,1,8,0:0:0:0:
256,192,170725,1,8,0:0:0:0:
256,192,170816,1,8,0:0:0:0:
256,192,170907,1,0,0:0:0:0:
256,192,170998,1,8,0:0:0:0:
256,192,171180,1,0,0:0:0:0:
256,192,171271,1,0,0:0:0:0:
256,192,171362,1,8,0:0:0:0:
256,192,171543,1,0,0:0:0:0:
256,192,171604,1,0,0:0:0:0:
256,192,171665,1,0,0:0:0:0:
256,192,171725,1,8,0:0:0:0:
256,192,171907,1,8,0:0:0:0:
256,192,172089,1,0,0:0:0:0:
256,192,172180,1,0,0:0:0:0:
256,192,172271,1,8,0:0:0:0:
256,192,172362,1,0,0:0:0:0:
256,192,172453,1,8,0:0:0:0:
256,192,172543,1,0,0:0:0:0:
256,192,172634,1,8,0:0:0:0:
256,192,172725,1,8,0:0:0:0:
256,192,172816,1,0,0:0:0:0:
256,192,172998,1,8,0:0:0:0:
256,192,173059,1,0,0:0:0:0:
256,192,173119,1,0,0:0:0:0:
256,192,173180,1,8,0:0:0:0:
256,192,173362,1,0,0:0:0:0:
256,192,173453,1,8,0:0:0:0:
256,192,173543,1,0,0:0:0:0:
256,192,173725,1,0,0:0:0:0:
256,192,173816,1,8,0:0:0:0:
256,192,173907,1,0,0:0:0:0:
256,192,173998,1,0,0:0:0:0:
256,192,174089,1,8,0:0:0:0:
256,192,174180,1,0,0:0:0:0:
256,192,174271,1,8,0:0:0:0:
256,192,174453,1,0,0:0:0:0:
256,192,174513,1,8,0:0:0:0:
256,192,174574,1,8,0:0:0:0:
256,192,174634,1,0,0:0:0:0:
256,192,174816,1,8,0:0:0:0:
256,192,174907,1,8,0:0:0:0:
256,192,174998,1,0,0:0:0:0:
256,192,175089,1,8,0:0:0:0:
256,192,175180,1,0,0:0:0:0:
256,192,175271,1,0,0:0:0:0:
256,192,175362,1,8,0:0:0:0:
256,192,175453,1,0,0:0:0:0:
256,192,175543,1,0,0:0:0:0:
256,192,175634,1,0,0:0:0:0:
256,192,175725,1,8,0:0:0:0:
256,192,175907,1,8,0:0:0:0:
256,192,175998,1,0,0:0:0:0:
256,192,176180,1,0,0:0:0:0:
256,192,176271,1,8,0:0:0:0:
256,192,176362,1,8,0:0:0:0:
256,192,176453,1,0,0:0:0:0:
256,192,176543,1,0,0:0:0:0:
256,192,176634,1,0,0:0:0:0:
256,192,176725,1,0,0:0:0:0:
256,192,176816,1,8,0:0:0:0:
256,192,176998,1,0,0:0:0:0:
256,192,177089,1,0,0:0:0:0:
256,192,177180,1,8,0:0:0:0:
256,192,177271,1,0,0:0:0:0:
256,192,177362,1,8,0:0:0:0:
256,192,177422,1,8,0:0:0:0:
256,192,177483,1,8,0:0:0:0:
256,192,177543,1,0,0:0:0:0:
256,192,177634,1,0,0:0:0:0:
256,192,177725,1,8,0:0:0:0:
256,192,177816,1,8,0:0:0:0:
256,160,177907,1,4,0:0:0:0:
256,192,178089,1,8,0:0:0:0:
256,192,178180,1,8,0:0:0:0:
256,192,178271,1,0,0:0:0:0:
256,192,178362,1,0,0:0:0:0:
256,192,178453,1,8,0:0:0:0:
256,192,178634,1,0,0:0:0:0:
256,192,178725,1,8,0:0:0:0:
256,192,178816,1,0,0:0:0:0:
256,192,178998,1,8,0:0:0:0:
256,192,179089,1,8,0:0:0:0:
256,192,179180,1,0,0:0:0:0:
256,192,179271,1,0,0:0:0:0:
256,192,179362,1,8,0:0:0:0:
256,192,179453,1,0,0:0:0:0:
256,192,179543,1,0,0:0:0:0:
256,192,179634,1,0,0:0:0:0:
256,192,179725,1,8,0:0:0:0:
256,192,179907,1,8,0:0:0:0:
256,192,179998,1,8,0:0:0:0:
256,192,180089,1,0,0:0:0:0:
256,192,180271,1,8,0:0:0:0:
256,192,180331,1,8,0:0:0:0:
256,192,180392,1,8,0:0:0:0:
256,192,180453,1,0,0:0:0:0:
256,192,180634,1,0,0:0:0:0:
256,192,180816,1,8,0:0:0:0:
256,192,180907,1,8,0:0:0:0:
256,192,180998,1,8,0:0:0:0:
256,192,181089,1,8,0:0:0:0:
256,192,181180,1,0,0:0:0:0:
256,192,181271,1,0,0:0:0:0:
256,192,181362,1,8,0:0:0:0:
256,192,181453,1,0,0:0:0:0:
256,192,181543,1,8,0:0:0:0:
256,192,181725,1,8,0:0:0:0:
256,192,181816,1,8,0:0:0:0:
256,192,181998,1,0,0:0:0:0:
256,192,182089,1,8,0:0:0:0:
256,192,182180,1,0,0:0:0:0:
256,192,182271,1,8,0:0:0:0:
256,192,182362,1,8,0:0:0:0:
256,192,182453,1,8,0:0:0:0:
256,192,182543,1,0,0:0:0:0:
256,192,182634,1,8,0:0:0:0:
256,192,182816,1,0,0:0:0:0:
256,192,182998,1,8,0:0:0:0:
256,192,183089,1,8,0:0:0:0:
256,192,183180,1,0,0:0:0:0:
256,192,183240,1,0,0:0:0:0:
256,192,183301,1,0,0:0:0:0:
256,192,183362,1,8,0:0:0:0:
256,192,183543,1,0,0:0:0:0:
256,160,183725,1,12,0:0:0:0:
256,192,183907,1,0,0:0:0:0:
256,192,183998,1,0,0:0:0:0:
256,192,184089,1,0,0:0:0:0:
256,192,184180,1,0,0:0:0:0:
256,192,184271,1,8,0:0:0:0:
256,192,184362,1,8,0:0:0:0:
256,192,184453,1,0,0:0:0:0:
256,192,184543,1,0,0:0:0:0:
256,192,184634,1,0,0:0:0:0:
256,192,184725,1,0,0:0:0:0:
256,192,184816,1,8,0:0:0:0:
256,192,184907,1,8,0:0:0:0:
256,192,184998,1,8,0:0:0:0:
256,192,185089,1,8,0:0:0:0:
256,192,185180,1,0,0:0:0:0:
256,192,185271,1,0,0:0:0:0:
256,192,185362,1,8,0:0:0:0:
256,192,185453,1,8,0:0:0:0:
256,192,185543,1,0,0:0:0:0:
256,192,185634,1,0,0:0:0:0:
256,192,185725,1,0,0:0:0:0:
256,192,185816,1,0,0:0:0:0:
256,192,185907,1,8,0:0:0:0:
256,192,185998,1,8,0:0:0:0:
256,192,186089,1,0,0:0:0:0:
256,192,186180,1,0,0:0:0:0:
256,192,186271,1,8,0:0:0:0:
256,192,186331,1,8,0:0:0:0:
256,192,186392,1,0,0:0:0:0:
256,192,186453,1,8,0:0:0:0:
256,192,186513,1,0,0:0:0:0:
256,192,186574,1,0,0:0:0:0:
256,160,186634,1,12,0:0:0:0:
256,192,186816,1,0,0:0:0:0:
256,192,186998,1,8,0:0:0:0:
256,192,187180,1,8,0:0:0:0:
256,192,187362,1,0,0:0:0:0:
256,192,187543,1,0,0:0:0:0:
256,192,187725,1,8,0:0:0:0:
256,192,187907,1,8,0:0:0:0:
256,192,187968,1,0,0:0:0:0:
256,192,188028,1,0,0:0:0:0:
256,160,188089,1,12,0:0:0:0:
256,160,188362,1,4,0:0:0:0:
256,160,188634,1,4,0:0:0:0:
256,160,188816,1,12,0:0:0:0:
256,160,189089,1,4,0:0:0:0:
256,160,189362,1,4,0:0:0:0:
256,160,189543,1,12,0:0:0:0:
256,192,189725,1,8,0:0:0:0:
256,192,189816,1,8,0:0:0:0:
256,192,189907,1,0,0:0:0:0:
256,192,189998,1,0,0:0:0:0:
256,192,190089,1,0,0:0:0:0:
256,192,190180,1,0,0:0:0:0:
256,192,190271,1,8,0:0:0:0:
256,192,190362,1,0,0:0:0:0:
256,192,190453,1,0,0:0:0:0:
256,192,190543,1,0,0:0:0:0:
256,192,190634,1,8,0:0:0:0:
256,192,190725,1,0,0:0:0:0:
256,192,190816,1,8,0:0:0:0:
256,192,190907,1,8,0:0:0:0:
256,192,190998,1,0,0:0:0:0:
256,192,191089,1,0,0:0:0:0:
256,192,191180,1,0,0:0:0:0:
256,192,191271,1,0,0:0:0:0:
256,192,191362,1,8,0:0:0:0:
256,192,191453,1,8,0:0:0:0:
256,192,191543,1,8,0:0:0:0:
256,192,191634,1,8,0:0:0:0:
256,192,191725,1,0,0:0:0:0:
256,192,191786,1,0,0:0:0:0:
256,192,191846,1,0,0:0:0:0:
256,192,191907,1,0,0:0:0:0:
256,192,191968,1,0,0:0:0:0:
256,192,192028,1,0,0:0:0:0:
256,160,192089,1,12,0:0:0:0:
256,160,192453,1,12,0:0:0:0:
256,192,192634,1,0,0:0:0:0:
256,192,192725,1,0,0:0:0:0:
256,192,192816,1,8,0:0:0:0:
256,192,192998,1,8,0:0:0:0:
256,192,193089,1,0,0:0:0:0:
256,192,193180,1,8,0:0:0:0:
256,192,193362,1,8,0:0:0:0:
256,192,193453,1,8,0:0:0:0:
256,192,193543,1,0,0:0:0:0:
256,192,193725,1,0,0:0:0:0:
256,192,193816,1,0,0:0:0:0:
256,192,193907,1,8,0:0:0:0:
256,192,193998,1,8,0:0:0:0:
256,192,194089,1,8,0:0:0:0:
256,192,194271,1,8,0:0:0:0:
256,192,194362,1,8,0:0:0:0:
256,192,194453,1,0,0:0:0:0:
256,192,194634,1,8,0:0:0:0:
256,192,194725,1,0,0:0:0:0:
256,192,194816,1,0,0:0:0:0:
256,192,194998,1,0,0:0:0:0:
256,192,195089,1,0,0:0:0:0:
256,192,195180,1,0,0:0:0:0:
256,192,195362,1,8,0:0:0:0:
256,192,195543,1,0,0:0:0:0:
256,192,195634,1,0,0:0:0:0:
256,192,195725,1,8,0:0:0:0:
256,192,195907,1,0,0:0:0:0:
256,192,195998,1,8,0:0:0:0:
256,192,196089,1,0,0:0:0:0:
256,192,196271,1,8,0:0:0:0:
256,192,196362,1,8,0:0:0:0:
256,192,196453,1,0,0:0:0:0:
256,192,196634,1,8,0:0:0:0:
256,192,196725,1,8,0:0:0:0:
256,192,196816,1,0,0:0:0:0:
256,192,196907,1,0,0:0:0:0:
256,192,196998,1,0,0:0:0:0:
256,192,197180,1,8,0:0:0:0:
256,192,197271,1,0,0:0:0:0:
256,192,197362,1,0,0:0:0:0:
256,192,197543,1,8,0:0:0:0:
256,192,197634,1,8,0:0:0:0:
256,192,197725,1,0,0:0:0:0:
256,192,197907,1,8,0:0:0:0:
256,192,197998,1,8,0:0:0:0:
256,192,198089,1,8,0:0:0:0:
256,192,198271,1,0,0:0:0:0:
256,192,198453,1,8,0:0:0:0:
256,192,198543,1,8,0:0:0:0:
256,192,198634,1,0,0:0:0:0:
256,192,198725,1,0,0:0:0:0:
256,192,198816,1,8,0:0:0:0:
256,192,198998,1,0,0:0:0:0:
256,192,199089,1,8,0:0:0:0:
256,192,199271,1,8,0:0:0:0:
256,192,199362,1,0,0:0:0:0:
256,192,199453,1,0,0:0:0:0:
256,192,199543,1,8,0:0:0:0:
256,192,199725,1,8,0:0:0:0:
256,192,199816,1,8,0:0:0:0:
256,192,199907,1,8,0:0:0:0:
256,192,200089,1,8,0:0:0:0:
256,192,200180,1,0,0:0:0:0:
256,192,200271,1,8,0:0:0:0:
256,192,200453,1,0,0:0:0:0:
256,192,200543,1,8,0:0:0:0:
256,192,200634,1,0,0:0:0:0:
256,192,200816,1,0,0:0:0:0:
256,192,200907,1,0,0:0:0:0:
256,192,200998,1,0,0:0:0:0:
256,192,201180,1,8,0:0:0:0:
256,192,201271,1,8,0:0:0:0:
256,192,201362,1,0,0:0:0:0:
256,192,201453,1,8,0:0:0:0:
256,192,201543,1,8,0:0:0:0:
256,192,201725,1,0,0:0:0:0:
256,192,201816,1,0,0:0:0:0:
256,192,201907,1,8,0:0:0:0:
256,192,201998,1,0,0:0:0:0:
256,192,202089,1,0,0:0:0:0:
256,192,202271,1,8,0:0:0:0:
256,192,202362,1,8,0:0:0:0:
256,192,202453,1,0,0:0:0:0:
256,192,202543,1,0,0:0:0:0:
256,192,202634,1,8,0:0:0:0:
256,192,202725,1,0,0:0:0:0:
256,192,202816,1,0,0:0:0:0:
256,192,202907,1,0,0:0:0:0:
256,192,202998,1,8,0:0:0:0:
256,192,203089,1,0,0:0:0:0:
256,192,203180,1,0,0:0:0:0:
256,192,203271,1,0,0:0:0:0:
256,192,203362,1,8,0:0:0:0:
256,192,203453,1,0,0:0:0:0:
256,192,203543,1,8,0:0:0:0:
256,192,203634,1,0,0:0:0:0:
256,192,203725,1,8,0:0:0:0:
256,192,203816,1,0,0:0:0:0:
256,192,203907,1,8,0:0:0:0:
256,192,203998,1,8,0:0:0:0:
256,160,204089,1,4,0:0:0:0:
256,192,204271,1,8,0:0:0:0:
256,192,204362,1,8,0:0:0:0:
256,192,204453,1,0,0:0:0:0:
256,192,204634,1,0,0:0:0:0:
256,192,204725,1,8,0:0:0:0:
256,192,204816,1,0,0:0:0:0:
256,192,204998,1,0,0:0:0:0:
256,192,205089,1,0,0:0:0:0:
256,192,205180,1,8,0:0:0:0:
256,192,205362,1,0,0:0:0:0:
256,192,205453,1,0,0:0:0:0:
256,192,205543,1,8,0:0:0:0:
256,192,205634,1,8,0:0:0:0:
256,192,205725,1,8,0:0:0:0:
256,192,205907,1,0,0:0:0:0:
256,192,205998,1,8,0:0:0:0:
256,192,206089,1,8,0:0:0:0:
256,192,206271,1,0,0:0:0:0:
256,192,206362,1,0,0:0:0:0:
256,192,206453,1,8,0:0:0:0:
256,192,206634,1,0,0:0:0:0:
256,192,206725,1,0,0:0:0:0:
256,192,206816,1,0,0:0:0:0:
256,192,206998,1,0,0:0:0:0:
256,192,207180,1,8,0:0:0:0:
256,192,207271,1,8,0:0:0:0:
256,192,207362,1,0,0:0:0:0:
256,192,207543,1,8,0:0:0:0:
256,192,207634,1,0,0:0:0:0:
256,192,207725,1,8,0:0:0:0:
256,192,207907,1,0,0:0:0:0:
256,192,207998,1,0,0:0:0:0:
256,192,208089,1,8,0:0:0:0:
256,192,208271,1,8,0:0:0:0:
256,192,208362,1,8,0:0:0:0:
256,192,208453,1,0,0:0:0:0:
256,192,208543,1,0,0:0:0:0:
256,192,208634,1,0,0:0:0:0:
256,192,208816,1,0,0:0:0:0:
256,192,208907,1,0,0:0:0:0:
256,192,208998,1,8,0:0:0:0:
256,192,209180,1,0,0:0:0:0:
256,192,209271,1,8,0:0:0:0:
256,192,209362,1,8,0:0:0:0:
256,192,209543,1,8,0:0:0:0:
256,192,209634,1,8,0:0:0:0:
256,192,209725,1,8,0:0:0:0:
256,160,209907,1,4,0:0:0:0:
256,192,210089,1,8,0:0:0:0:
256,192,210180,1,8,0:0:0:0:
256,192,210271,1,0,0:0:0:0:
256,192,210362,1,0,0:0:0:0:
256,192,210453,1,8,0:0:0:0:
256,192,210634,1,0,0:0:0:0:
256,192,210725,1,8,0:0:0:0:
256,192,210816,1,8,0:0:0:0:
256,192,210907,1,0,0:0:0:0:
256,192,210998,1,8,0:0:0:0:
256,192,211089,1,8,0:0:0:0:
256,192,211180,1,0,0:0:0:0:
256,160,211362,1,12,0:0:0:0:
256,192,211543,1,0,0:0:0:0:
256,192,211634,1,0,0:0:0:0:
256,192,211725,1,8,0:0:0:0:
256,192,211816,1,8,0:0:0:0:
256,192,211907,1,0,0:0:0:0:
256,192,212089,1,8,0:0:0:0:
256,192,212180,1,0,0:0:0:0:
256,192,212271,1,0,0:0:0:0:
256,192,212362,1,8,0:0:0:0:
256,192,212453,1,0,0:0:0:0:
256,192,212543,1,0,0:0:0:0:
256,192,212634,1,8,0:0:0:0:
256,192,212695,1,8,0:0:0:0:
256,192,212756,1,8,0:0:0:0:
256,160,212816,1,4,0:0:0:0:
256,192,212998,1,0,0:0:0:0:
256,192,213089,1,0,0:0:0:0:
256,192,213180,1,8,0:0:0:0:
256,192,213271,1,0,0:0:0:0:
256,192,213362,1,8,0:0:0:0:
256,192,213543,1,0,0:0:0:0:
256,192,213634,1,0,0:0:0:0:
256,192,213725,1,8,0:0:0:0:
256,192,213816,1,0,0:0:0:0:
256,192,213907,1,8,0:0:0:0:
256,192,213998,1,8,0:0:0:0:
256,192,214089,1,0,0:0:0:0:
256,192,214180,1,0,0:0:0:0:
256,160,214271,1,12,0:0:0:0:
256,192,214453,1,8,0:0:0:0:
256,192,214543,1,8,0:0:0:0:
256,192,214634,1,0,0:0:0:0:
256,192,214725,1,8,0:0:0:0:
256,192,214816,1,0,0:0:0:0:
256,192,214998,1,8,0:0:0:0:
256,192,215089,1,8,0:0:0:0:
256,192,215180,1,0,0:0:0:0:
256,192,215271,1,8,0:0:0:0:
256,192,215362,1,0,0:0:0:0:
256,192,215453,1,0,0:0:0:0:
256,192,215543,1,8,0:0:0:0:
256,192,215634,1,0,0:0:0:0:
256,192,215725,1,8,0:0:0:0:
256,192,215816,1,8,0:0:0:0:
256,192,215907,1,8,0:0:0:0:
256,192,215998,1,8,0:0:0:0:
256,192,216089,1,0,0:0:0:0:
256,192,216271,1,8,0:0:0:0:
256,192,216362,1,8,0:0:0:0:
256,192,216453,1,8,0:0:0:0:
256,192,216543,1,8,0:0:0:0:
256,192,216634,1,0,0:0:0:0:
256,192,216725,1,0,0:0:0:0:
256,192,216816,1,8,0:0:0:0:
256,192,216907,1,0,0:0:0:0:
256,192,216998,1,8,0:0:0:0:
256,192,217089,1,8,0:0:0:0:
256,192,217180,1,0,0:0:0:0:
256,192,217271,1,0,0:0:0:0:
256,192,217362,1,8,0:0:0:0:
256,192,217453,1,0,0:0:0:0:
256,192,217543,1,8,0:0:0:0:
256,192,217634,1,8,0:0:0:0:
256,192,217725,1,0,0:0:0:0:
256,192,217816,1,0,0:0:0:0:
256,192,217907,1,8,0:0:0:0:
256,192,217998,1,8,0:0:0:0:
256,192,218089,1,8,0:0:0:0:
256,192,218180,1,0,0:0:0:0:
256,192,218271,1,8,0:0:0:0:
256,192,218362,1,8,0:0:0:0:
256,192,218453,1,0,0:0:0:0:
256,192,218543,1,0,0:0:0:0:
256,192,218634,1,8,0:0:0:0:
256,192,218695,1,8,0:0:0:0:
256,192,218756,1,0,0:0:0:0:
256,192,218816,1,0,0:0:0:0:
256,192,218877,1,8,0:0:0:0:
256,192,218937,1,8,0:0:0:0:
256,192,218998,1,0,0:0:0:0:
256,192,219059,1,0,0:0:0:0:
256,192,219119,1,8,0:0:0:0:
256,192,219180,1,8,0:0:0:0:
256,192,219240,1,0,0:0:0:0:
256,192,219301,1,0,0:0:0:0:
256,160,219362,1,12,0:0:0:0:
256,160,219634,1,4,0:0:0:0:
256,160,219907,1,4,0:0:0:0:
256,160,220089,1,12,0:0:0:0:
256,192,221180,1,8,0:0:0:0:
256,160,221543,1,4,0:0:0:0:
256,192,221907,1,8,0:0:0:0:
256,192,222089,1,0,0:0:0:0:
256,192,222271,1,8,0:0:0:0:
256,192,222634,1,8,0:0:0:0:
256,192,222816,1,8,0:0:0:0:
256,192,222998,1,0,0:0:0:0:
256,192,223362,1,0,0:0:0:0:
256,192,223543,1,0,0:0:0:0:
256,192,223725,1,8,0:0:0:0:
256,192,224089,1,0,0:0:0:0:
256,192,224271,1,8,0:0:0:0:
256,192,224453,1,0,0:0:0:0:
256,192,224816,1,8,0:0:0:0:
256,192,224998,1,8,0:0:0:0:
256,192,225180,1,0,0:0:0:0:
256,192,225453,1,0,0:0:0:0:
256,192,225725,1,0,0:0:0:0:
256,192,225907,1,8,0:0:0:0:
256,192,226271,1,8,0:0:0:0:
256,192,226453,1,0,0:0:0:0:
256,192,226634,1,8,0:0:0:0:
256,192,226998,1,8,0:0:0:0:
256,192,227180,1,8,0:0:0:0:
256,192,227362,1,0,0:0:0:0:
256,192,227543,1,0,0:0:0:0:
256,192,227725,1,8,0:0:0:0:
256,192,227907,1,0,0:0:0:0:
256,192,228271,1,0,0:0:0:0:
256,192,228453,1,8,0:0:0:0:
256,192,228634,1,8,0:0:0:0:
256,192,228816,1,0,0:0:0:0:
256,192,228998,1,8,0:0:0:0:
256,192,229180,1,0,0:0:0:0:
256,192,229362,1,8,0:0:0:0:
256,192,229725,1,8,0:0:0:0:
256,192,229907,1,0,0:0:0:0:
256,192,230089,1,0,0:0:0:0:
256,192,230271,1,8,0:0:0:0:
256,192,230634,1,0,0:0:0:0:
256,192,230816,1,0,0:0:0:0:
256,192,230998,1,8,0:0:0:0:
256,192,231271,1,8,0:0:0:0:
256,192,231543,1,8,0:0:0:0:
256,192,231725,1,0,0:0:0:0:
256,192,232089,1,8,0:0:0:0:
256,192,232271,1,0,0:0:0:0:
256,192,232453,1,8,0:0:0:0:
256,192,232816,1,8,0:0:0:0:
256,192,232998,1,8,0:0:0:0:
256,160,233180,1,4,0:0:0:0:
256,192,233362,1,8,0:0:0:0:
256,192,233453,1,8,0:0:0:0:
256,192,233543,1,8,0:0:0:0:
256,192,233725,1,0,0:0:0:0:
256,192,233816,1,0,0:0:0:0:
256,192,233907,1,0,0:0:0:0:
256,192,234089,1,8,0:0:0:0:
256,192,234180,1,8,0:0:0:0:
256,192,234271,1,0,0:0:0:0:
256,192,234362,1,0,0:0:0:0:
256,192,234453,1,8,0:0:0:0:
256,192,234634,1,0,0:0:0:0:
256,192,234816,1,8,0:0:0:0:
256,192,234907,1,8,0:0:0:0:
256,192,234998,1,0,0:0:0:0:
256,192,235180,1,0,0:0:0:0:
256,192,235271,1,0,0:0:0:0:
256,192,235362,1,8,0:0:0:0:
256,192,235543,1,0,0:0:0:0:
256,192,235634,1,0,0:0:0:0:
256,192,235725,1,8,0:0:0:0:
256,192,235816,1,0,0:0:0:0:
256,192,235907,1,8,0:0:0:0:
256,192,235998,1,8,0:0:0:0:
256,192,236089,1,0,0:0:0:0:
256,192,236271,1,0,0:0:0:0:
256,192,236362,1,8,0:0:0:0:
256,192,236453,1,0,0:0:0:0:
256,192,236634,1,8,0:0:0:0:
256,192,236725,1,0,0:0:0:0:
256,192,236816,1,8,0:0:0:0:
256,192,236907,1,0,0:0:0:0:
256,192,236998,1,0,0:0:0:0:
256,192,237089,1,8,0:0:0:0:
256,192,237180,1,0,0:0:0:0:
256,192,237271,1,0,0:0:0:0:
256,192,237362,1,8,0:0:0:0:
256,192,237453,1,0,0:0:0:0:
256,192,237543,1,8,0:0:0:0:
256,192,237634,1,8,0:0:0:0:
256,192,237725,1,8,0:0:0:0:
256,192,237816,1,8,0:0:0:0:
256,192,237907,1,0,0:0:0:0:
256,192,237998,1,0,0:0:0:0:
256,192,238089,1,8,0:0:0:0:
256,192,238180,1,0,0:0:0:0:
256,192,238271,1,8,0:0:0:0:
256,192,238362,1,0,0:0:0:0:
256,192,238453,1,0,0:0:0:0:
256,192,238543,1,8,0:0:0:0:
256,192,238634,1,0,0:0:0:0:
256,192,238725,1,0,0:0:0:0:
256,192,238816,1,8,0:0:0:0:
256,192,238907,1,8,0:0:0:0:
256,192,238998,1,0,0:0:0:0:
256,192,239089,1,0,0:0:0:0:
256,192,239180,1,0,0:0:0:0:
256,192,239271,1,0,0:0:0:0:
256,192,239362,1,8,0:0:0:0:
256,192,239453,1,8,0:0:0:0:
256,192,239543,1,0,0:0:0:0:
256,192,239634,1,8,0:0:0:0:
256,192,239725,1,0,0:0:0:0:
256,192,239816,1,0,0:0:0:0:
256,192,239907,1,8,0:0:0:0:
256,192,239998,1,0,0:0:0:0:
256,192,240089,1,8,0:0:0:0:
256,192,240180,1,8,0:0:0:0:
256,192,240271,1,8,0:0:0:0:
256,192,240362,1,8,0:0:0:0:
256,192,240453,1,0,0:0:0:0:
256,192,240543,1,0,0:0:0:0:
256,192,240634,1,8,0:0:0:0:
256,192,240725,1,8,0:0:0:0:
256,192,240816,1,0,0:0:0:0:
256,192,240907,1,0,0:0:0:0:
256,192,240998,1,0,0:0:0:0:
256,192,241089,1,0,0:0:0:0:
256,192,241180,1,8,0:0:0:0:
256,192,241240,1,8,0:0:0:0:
256,192,241301,1,0,0:0:0:0:
256,192,241362,1,0,0:0:0:0:
256,192,241422,1,0,0:0:0:0:
256,192,241483,1,0,0:0:0:0:
256,192,241543,1,8,0:0:0:0:
256,192,241634,1,8,0:0:0:0:
256,192,241725,1,0,0:0:0:0:
256,192,241786,1,0,0:0:0:0:
256,192,241846,1,0,0:0:0:0:
256,160,241907,1,12,0:0:0:0:
256,160,242180,1,4,0:0:0:0:
256,160,242453,1,4,0:0:0:0:
256,160,242634,1,12,0:0:0:0:
256,160,242907,1,4,0:0:0:0:
256,192,243180,1,0,0:0:0:0:
256,192,243240,1,0,0:0:0:0:
256,192,243301,1,0,0:0:0:0:
256,160,243362,1,12,0:0:0:0:
256,160,243634,1,12,0:0:0:0:
256,160,243907,1,4,0:0:0:0:
256,160,244089,1,12,0:0:0:0:
256,160,244362,1,12,0:0:0:0:
256,160,244634,1,4,0:0:0:0:
256,192,244816,1,8,0:0:0:0:
256,192,244907,1,8,0:0:0:0:
256,192,244998,1,8,0:0:0:0:
256,192,245089,1,8,0:0:0:0:
256,160,245180,1,4,0:0:0:0:
256,192,245362,1,8,0:0:0:0:
256,192,245453,1,8,0:0:0:0:
256,192,245543,1,0,0:0:0:0:
256,192,245634,1,0,0:0:0:0:
256,192,245725,1,8,0:0:0:0:
256,192,245816,1,0,0:0:0:0:
256,192,245907,1,8,0:0:0:0:
256,192,246089,1,0,0:0:0:0:
256,192,246180,1,0,0:0:0:0:
256,192,246271,1,8,0:0:0:0:
256,192,246362,1,0,0:0:0:0:
256,192,246453,1,0,0:0:0:0:
256,192,246543,1,0,0:0:0:0:
256,192,246634,1,8,0:0:0:0:
256,192,246725,1,0,0:0:0:0:
256,192,246816,1,8,0:0:0:0:
256,192,246907,1,8,0:0:0:0:
256,192,246998,1,0,0:0:0:0:
256,192,247180,1,8,0:0:0:0:
256,192,247240,1,8,0:0:0:0:
256,192,247301,1,8,0:0:0:0:
256,192,247362,1,0,0:0:0:0:
256,192,247543,1,0,0:0:0:0:
256,192,247725,1,8,0:0:0:0:
256,192,247816,1,0,0:0:0:0:
256,192,247907,1,0,0:0:0:0:
256,192,247998,1,0,0:0:0:0:
256,192,248089,1,0,0:0:0:0:
256,192,248271,1,8,0:0:0:0:
256,192,248453,1,0,0:0:0:0:
256,192,248543,1,8,0:0:0:0:
256,192,248634,1,8,0:0:0:0:
256,192,248725,1,0,0:0:0:0:
256,192,248816,1,8,0:0:0:0:
256,192,248907,1,8,0:0:0:0:
256,192,248998,1,0,0:0:0:0:
256,192,249089,1,0,0:0:0:0:
256,192,249180,1,8,0:0:0:0:
256,192,249271,1,0,0:0:0:0:
256,192,249362,1,0,0:0:0:0:
256,192,249453,1,8,0:0:0:0:
256,192,249543,1,0,0:0:0:0:
256,192,249634,1,0,0:0:0:0:
256,192,249725,1,8,0:0:0:0:
256,192,249816,1,8,0:0:0:0:
256,192,249907,1,0,0:0:0:0:
256,192,250089,1,0,0:0:0:0:
256,192,250149,1,0,0:0:0:0:
256,192,250210,1,0,0:0:0:0:
256,192,250271,1,8,0:0:0:0:
256,192,250453,1,8,0:0:0:0:
256,192,250634,1,0,0:0:0:0:
256,192,250725,1,0,0:0:0:0:
256,192,250816,1,8,0:0:0:0:
256,192,250907,1,0,0:0:0:0:
256,192,250998,1,0,0:0:0:0:
256,192,251089,1,0,0:0:0:0:
256,192,251180,1,8,0:0:0:0:
256,192,251271,1,8,0:0:0:0:
256,192,251362,1,0,0:0:0:0:
256,192,251543,1,8,0:0:0:0:
256,192,251604,1,0,0:0:0:0:
256,192,251665,1,0,0:0:0:0:
256,192,251725,1,8,0:0:0:0:
256,192,251907,1,0,0:0:0:0:
256,192,251998,1,8,0:0:0:0:
256,192,252089,1,0,0:0:0:0:
256,192,252180,1,0,0:0:0:0:
256,192,252271,1,8,0:0:0:0:
256,192,252362,1,8,0:0:0:0:
256,192,252453,1,0,0:0:0:0:
256,192,252543,1,8,0:0:0:0:
256,192,252634,1,0,0:0:0:0:
256,192,252725,1,0,0:0:0:0:
256,192,252816,1,8,0:0:0:0:
256,192,252998,1,0,0:0:0:0:
256,192,253059,1,8,0:0:0:0:
256,192,253119,1,8,0:0:0:0:
256,192,253180,1,0,0:0:0:0:
256,192,253362,1,8,0:0:0:0:
256,192,253453,1,8,0:0:0:0:
256,192,253543,1,0,0:0:0:0:
256,192,253634,1,0,0:0:0:0:
256,192,253725,1,0,0:0:0:0:
256,192,253816,1,0,0:0:0:0:
256,192,253907,1,8,0:0:0:0:
256,192,254089,1,0,0:0:0:0:
256,192,254180,1,8,0:0:0:0:
256,192,254271,1,8,0:0:0:0:
256,192,254362,1,0,0:0:0:0:
256,192,254453,1,0,0:0:0:0:
256,192,254543,1,8,0:0:0:0:
256,192,254634,1,0,0:0:0:0:
256,192,254725,1,0,0:0:0:0:
256,192,254816,1,8,0:0:0:0:
256,192,254907,1,0,0:0:0:0:
256,192,254998,1,8,0:0:0:0:
256,192,255089,1,8,0:0:0:0:
256,192,255180,1,8,0:0:0:0:
256,192,255271,1,0,0:0:0:0:
256,192,255362,1,8,0:0:0:0:
256,192,255453,1,8,0:0:0:0:
256,192,255543,1,0,0:0:0:0:
256,192,255634,1,0,0:0:0:0:
256,192,255725,1,8,0:0:0:0:
256,192,255816,1,0,0:0:0:0:
256,192,255907,1,8,0:0:0:0:
256,192,255968,1,8,0:0:0:0:
256,192,256028,1,8,0:0:0:0:
256,192,256089,1,0,0:0:0:0:
256,192,256180,1,0,0:0:0:0:
256,192,256271,1,8,0:0:0:0:
256,192,256362,1,8,0:0:0:0:
256,160,256453,1,4,0:0:0:0:
256,192,256634,1,8,0:0:0:0:
256,192,256725,1,8,0:0:0:0:
256,192,256816,1,0,0:0:0:0:
256,192,256907,1,0,0:0:0:0:
256,192,256998,1,8,0:0:0:0:
256,192,257180,1,0,0:0:0:0:
256,192,257271,1,0,0:0:0:0:
256,192,257453,1,8,0:0:0:0:
256,192,257543,1,0,0:0:0:0:
256,192,257634,1,0,0:0:0:0:
256,192,257725,1,8,0:0:0:0:
256,192,257816,1,8,0:0:0:0:
256,192,257907,1,0,0:0:0:0:
256,192,257998,1,0,0:0:0:0:
256,192,258089,1,0,0:0:0:0:
256,192,258180,1,0,0:0:0:0:
256,192,258271,1,8,0:0:0:0:
256,192,258362,1,0,0:0:0:0:
256,192,258453,1,8,0:0:0:0:
256,192,258543,1,8,0:0:0:0:
256,192,258634,1,0,0:0:0:0:
256,192,258816,1,8,0:0:0:0:
256,192,258877,1,8,0:0:0:0:
256,192,258937,1,8,0:0:0:0:
256,192,258998,1,0,0:0:0:0:
256,192,259180,1,0,0:0:0:0:
256,192,259362,1,8,0:0:0:0:
256,192,259453,1,0,0:0:0:0:
256,192,259543,1,0,0:0:0:0:
256,192,259634,1,0,0:0:0:0:
256,192,259725,1,8,0:0:0:0:
256,192,259816,1,8,0:0:0:0:
256,192,259907,1,0,0:0:0:0:
256,192,259968,1,0,0:0:0:0:
256,192,260028,1,0,0:0:0:0:
256,192,260089,1,8,0:0:0:0:
256,192,260180,1,0,0:0:0:0:
256,192,260271,1,0,0:0:0:0:
256,192,260362,1,8,0:0:0:0:
256,192,260453,1,0,0:0:0:0:
256,192,260543,1,0,0:0:0:0:
256,192,260634,1,8,0:0:0:0:
256,192,260725,1,0,0:0:0:0:
256,160,260816,1,12,0:0:0:0:
256,192,260998,1,0,0:0:0:0:
256,192,261089,1,0,0:0:0:0:
256,192,261180,1,8,0:0:0:0:
256,192,261271,1,8,0:0:0:0:
256,192,261362,1,0,0:0:0:0:
256,192,261453,1,0,0:0:0:0:
256,192,261543,1,8,0:0:0:0:
256,192,261725,1,0,0:0:0:0:
256,192,261786,1,8,0:0:0:0:
256,192,261846,1,8,0:0:0:0:
256,192,261907,1,0,0:0:0:0:
256,192,262089,1,0,0:0:0:0:
256,160,262271,1,12,0:0:0:0:
256,192,262453,1,0,0:0:0:0:
256,192,262543,1,0,0:0:0:0:
256,192,262634,1,0,0:0:0:0:
256,192,262725,1,0,0:0:0:0:
256,192,262816,1,8,0:0:0:0:
256,192,262907,1,8,0:0:0:0:
256,192,262998,1,0,0:0:0:0:
256,192,263089,1,0,0:0:0:0:
256,192,263180,1,0,0:0:0:0:
256,192,263271,1,0,0:0:0:0:
256,192,263362,1,8,0:0:0:0:
256,192,263453,1,8,0:0:0:0:
256,192,263543,1,8,0:0:0:0:
256,192,263634,1,8,0:0:0:0:
256,192,263725,1,0,0:0:0:0:
256,192,263816,1,0,0:0:0:0:
256,192,263907,1,8,0:0:0:0:
256,192,263998,1,8,0:0:0:0:
256,192,264089,1,0,0:0:0:0:
256,192,264180,1,0,0:0:0:0:
256,192,264271,1,0,0:0:0:0:
256,192,264362,1,0,0:0:0:0:
256,192,264453,1,8,0:0:0:0:
256,192,264543,1,8,0:0:0:0:
256,192,264634,1,0,0:0:0:0:
256,192,264725,1,0,0:0:0:0:
256,192,264816,1,8,0:0:0:0:
256,192,264877,1,8,0:0:0:0:
256,192,264937,1,0,0:0:0:0:
256,192,264998,1,8,0:0:0:0:
256,192,265059,1,0,0:0:0:0:
256,192,265119,1,0,0:0:0:0:
256,160,265180,1,12,0:0:0:0:
256,192,265362,1,0,0:0:0:0:
256,192,265543,1,8,0:0:0:0:
256,192,265725,1,8,0:0:0:0:
256,192,265907,1,0,0:0:0:0:
256,192,266089,1,0,0:0:0:0:
256,192,266271,1,8,0:0:0:0:
256,192,266453,1,8,0:0:0:0:
256,192,266513,1,0,0:0:0:0:
256,192,266574,1,0,0:0:0:0:
256,160,266634,1,12,0:0:0:0:
256,160,266907,1,4,0:0:0:0:
256,160,267180,1,4,0:0:0:0:
256,160,267362,1,12,0:0:0:0:
256,160,267634,1,4,0:0:0:0:
256,160,267907,1,4,0:0:0:0:
256,160,268089,1,12,0:0:0:0:
256,192,268271,1,8,0:0:0:0:
256,192,268362,1,8,0:0:0:0:
256,192,268453,1,0,0:0:0:0:
256,192,268543,1,0,0:0:0:0:
256,192,268634,1,0,0:0:0:0:
256,192,268725,1,0,0:0:0:0:
256,192,268816,1,8,0:0:0:0:
256,192,268907,1,0,0:0:0:0:
256,192,268998,1,0,0:0:0:0:
256,192,269089,1,0,0:0:0:0:
256,192,269180,1,8,0:0:0:0:
256,192,269271,1,0,0:0:0:0:
256,192,269362,1,8,0:0:0:0:
256,192,269453,1,8,0:0:0:0:
256,192,269543,1,0,0:0:0:0:
256,192,269634,1,0,0:0:0:0:
256,192,269725,1,0,0:0:0:0:
256,192,269816,1,0,0:0:0:0:
256,192,269907,1,8,0:0:0:0:
256,192,269998,1,8,0:0:0:0:
256,192,270089,1,8,0:0:0:0:
256,192,270180,1,8,0:0:0:0:
256,192,270271,1,0,0:0:0:0:
256,192,270331,1,0,0:0:0:0:
256,192,270392,1,0,0:0:0:0:
256,192,270453,1,0,0:0:0:0:
256,192,270513,1,0,0:0:0:0:
256,192,270574,1,0,0:0:0:0:
256,160,270634,1,12,0:0:0:0:
256,160,270998,1,12,0:0:0:0:
256,192,271180,1,0,0:0:0:0:
256,192,271271,1,0,0:0:0:0:
256,192,271362,1,8,0:0:0:0:
256,192,271543,1,0,0:0:0:0:
256,192,271725,1,8,0:0:0:0:
256,192,271816,1,0,0:0:0:0:
256,192,271907,1,0,0:0:0:0:
256,192,271998,1,0,0:0:0:0:
256,192,272089,1,8,0:0:0:0:
256,192,272271,1,0,0:0:0:0:
256,192,272362,1,0,0:0:0:0:
256,192,272453,1,8,0:0:0:0:
256,192,272543,1,8,0:0:0:0:
256,192,272634,1,0,0:0:0:0:
256,192,272816,1,8,0:0:0:0:
256,192,272907,1,8,0:0:0:0:
256,192,272998,1,0,0:0:0:0:
256,192,273089,1,8,0:0:0:0:
256,192,273180,1,0,0:0:0:0:
256,192,273271,1,0,0:0:0:0:
256,192,273362,1,8,0:0:0:0:
256,192,273543,1,0,0:0:0:0:
256,192,273725,1,0,0:0:0:0:
256,192,273907,1,8,0:0:0:0:
256,192,274089,1,0,0:0:0:0:
256,192,274180,1,0,0:0:0:0:
256,192,274271,1,8,0:0:0:0:
256,192,274453,1,0,0:0:0:0:
256,192,274634,1,8,0:0:0:0:
256,192,274725,1,8,0:0:0:0:
256,192,274816,1,0,0:0:0:0:
256,192,274907,1,0,0:0:0:0:
256,192,274998,1,8,0:0:0:0:
256,192,275180,1,0,0:0:0:0:
256,192,275271,1,0,0:0:0:0:
256,192,275362,1,8,0:0:0:0:
256,192,275453,1,0,0:0:0:0:
256,192,275543,1,0,0:0:0:0:
256,192,275725,1,8,0:0:0:0:
256,192,275816,1,0,0:0:0:0:
256,192,275907,1,8,0:0:0:0:
256,192,275998,1,0,0:0:0:0:
256,192,276089,1,0,0:0:0:0:
256,192,276180,1,0,0:0:0:0:
256,192,276271,1,8,0:0:0:0:
256,192,276362,1,8,0:0:0:0:
256,192,276453,1,0,0:0:0:0:
256,192,276634,1,0,0:0:0:0:
256,192,276816,1,8,0:0:0:0:
256,192,276998,1,0,0:0:0:0:
256,192,277089,1,0,0:0:0:0:
256,192,277180,1,8,0:0:0:0:
256,192,277362,1,0,0:0:0:0:
256,192,277543,1,8,0:0:0:0:
256,192,277634,1,0,0:0:0:0:
256,192,277725,1,0,0:0:0:0:
256,192,277816,1,0,0:0:0:0:
256,192,277907,1,8,0:0:0:0:
256,192,278089,1,0,0:0:0:0:
256,192,278180,1,0,0:0:0:0:
256,192,278271,1,8,0:0:0:0:
256,192,278362,1,0,0:0:0:0:
256,192,278453,1,8,0:0:0:0:
256,192,278634,1,8,0:0:0:0:
256,192,278725,1,0,0:0:0:0:
256,192,278816,1,8,0:0:0:0:
256,192,278907,1,8,0:0:0:0:
256,192,278998,1,0,0:0:0:0:
256,192,279089,1,0,0:0:0:0:
256,192,279180,1,8,0:0:0:0:
256,192,279362,1,0,0:0:0:0:
256,192,279543,1,0,0:0:0:0:
256,192,279725,1,8,0:0:0:0:
256,192,279816,1,0,0:0:0:0:
256,192,279907,1,8,0:0:0:0:
256,192,280089,1,8,0:0:0:0:
256,192,280180,1,0,0:0:0:0:
256,192,280271,1,8,0:0:0:0:
256,192,280453,1,8,0:0:0:0:
256,192,280543,1,8,0:0:0:0:
256,192,280634,1,0,0:0:0:0:
256,192,280725,1,0,0:0:0:0:
256,192,280816,1,8,0:0:0:0:
256,192,280907,1,8,0:0:0:0:
256,192,280998,1,8,0:0:0:0:
256,192,281089,1,8,0:0:0:0:
256,192,281180,1,0,0:0:0:0:
256,192,281362,1,0,0:0:0:0:
256,192,281453,1,8,0:0:0:0:
256,192,281543,1,0,0:0:0:0:
256,192,281634,1,0,0:0:0:0:
256,192,281725,1,8,0:0:0:0:
256,192,281816,1,8,0:0:0:0:
256,192,281907,1,0,0:0:0:0:
256,192,282089,1,8,0:0:0:0:
256,192,282180,1,8,0:0:0:0:
256,192,282271,1,0,0:0:0:0:
256,192,282362,1,8,0:0:0:0:
256,192,282453,1,8,0:0:0:0:
256,192,282543,1,8,0:0:0:0:
256,160,282634,1,4,0:0:0:0:
256,192,282816,1,0,0:0:0:0:
256,192,282907,1,0,0:0:0:0:
256,192,282998,1,8,0:0:0:0:
256,192,283180,1,8,0:0:0:0:
256,192,283271,1,8,0:0:0:0:
256,192,283362,1,0,0:0:0:0:
256,192,283453,1,0,0:0:0:0:
256,192,283543,1,8,0:0:0:0:
256,192,283725,1,0,0:0:0:0:
256,192,283816,1,0,0:0:0:0:
256,192,283907,1,0,0:0:0:0:
256,192,283998,1,0,0:0:0:0:
256,192,284089,1,8,0:0:0:0:
256,192,284180,1,8,0:0:0:0:
256,192,284271,1,0,0:0:0:0:
256,192,284453,1,8,0:0:0:0:
256,192,284543,1,0,0:0:0:0:
256,192,284634,1,8,0:0:0:0:
256,192,284725,1,8,0:0:0:0:
256,192,284816,1,0,0:0:0:0:
256,192,284907,1,0,0:0:0:0:
256,192,284998,1,8,0:0:0:0:
256,192,285180,1,0,0:0:0:0:
256,192,285271,1,0,0:0:0:0:
256,192,285362,1,8,0:0:0:0:
256,192,285453,1,0,0:0:0:0:
256,192,285543,1,0,0:0:0:0:
256,192,285725,1,8,0:0:0:0:
256,192,285816,1,0,0:0:0:0:
256,192,285907,1,8,0:0:0:0:
256,192,286089,1,0,0:0:0:0:
256,192,286180,1,0,0:0:0:0:
256,192,286271,1,8,0:0:0:0:
256,192,286362,1,8,0:0:0:0:
256,192,286453,1,0,0:0:0:0:
256,192,286634,1,8,0:0:0:0:
256,192,286725,1,0,0:0:0:0:
256,192,286816,1,0,0:0:0:0:
256,192,286907,1,0,0:0:0:0:
256,192,286998,1,8,0:0:0:0:
256,192,287089,1,8,0:0:0:0:
256,192,287180,1,0,0:0:0:0:
256,192,287362,1,8,0:0:0:0:
256,192,287453,1,8,0:0:0:0:
256,192,287543,1,0,0:0:0:0:
256,192,287634,1,8,0:0:0:0:
256,192,287725,1,0,0:0:0:0:
256,192,287816,1,0,0:0:0:0:
256,192,287907,1,8,0:0:0:0:
256,192,288089,1,0,0:0:0:0:
256,192,288180,1,0,0:0:0:0:
256,192,288271,1,8,0:0:0:0:
256,192,288453,1,0,0:0:0:0:
256,192,288543,1,0,0:0:0:0:
256,192,288634,1,0,0:0:0:0:
256,192,288725,1,0,0:0:0:0:
256,192,288816,1,8,0:0:0:0:
256,192,288907,1,8,0:0:0:0:
256,192,288998,1,0,0:0:0:0:
256,192,289089,1,0,0:0:0:0:
256,192,289180,1,8,0:0:0:0:
256,192,289271,1,8,0:0:0:0:
256,192,289362,1,0,0:0:0:0:
256,192,289453,1,0,0:0:0:0:
256,192,289543,1,8,0:0:0:0:
256,192,289634,1,8,0:0:0:0:
256,192,289725,1,0,0:0:0:0:
256,192,289816,1,0,0:0:0:0:
256,192,289907,1,8,0:0:0:0:
256,192,289998,1,0,0:0:0:0:
256,192,290089,1,0,0:0:0:0:
256,192,290180,1,0,0:0:0:0:
256,192,290271,1,8,0:0:0:0:
256,192,290362,1,0,0:0:0:0:
256,192,290453,1,8,0:0:0:0:
256,192,290543,1,8,0:0:0:0:
256,192,290634,1,0,0:0:0:0:
256,192,290725,1,0,0:0:0:0:
256,192,290816,1,8,0:0:0:0:
256,192,290998,1,0,0:0:0:0:
256,192,291089,1,0,0:0:0:0:
256,192,291180,1,0,0:0:0:0:
256,192,291362,1,8,0:0:0:0:
256,192,291422,1,8,0:0:0:0:
256,192,291483,1,8,0:0:0:0:
256,192,291543,1,0,0:0:0:0:
256,192,291634,1,0,0:0:0:0:
256,192,291725,1,8,0:0:0:0:
256,192,291816,1,0,0:0:0:0:
256,192,291907,1,0,0:0:0:0:
256,192,291998,1,0,0:0:0:0:
256,192,292089,1,8,0:0:0:0:
256,192,292149,1,0,0:0:0:0:
256,192,292210,1,0,0:0:0:0:
256,192,292271,1,8,0:0:0:0:
256,192,292362,1,0,0:0:0:0:
256,192,292453,1,8,0:0:0:0:
256,192,292543,1,8,0:0:0:0:
256,192,292634,1,0,0:0:0:0:
256,192,292725,1,0,0:0:0:0:
256,192,292816,1,8,0:0:0:0:
256,192,292877,1,8,0:0:0:0:
256,192,292937,1,8,0:0:0:0:
256,192,292998,1,0,0:0:0:0:
256,192,293089,1,0,0:0:0:0:
256,192,293180,1,8,0:0:0:0:
256,192,293271,1,0,0:0:0:0:
256,192,293362,1,8,0:0:0:0:
256,192,293453,1,8,0:0:0:0:
256,192,293543,1,0,0:0:0:0:
256,192,293604,1,8,0:0:0:0:
256,192,293665,1,8,0:0:0:0:
256,192,293725,1,0,0:0:0:0:
256,192,293786,1,8,0:0:0:0:
256,192,293846,1,8,0:0:0:0:
256,192,293907,1,0,0:0:0:0:
256,192,293968,1,0,0:0:0:0:
256,192,294028,1,0,0:0:0:0:
256,192,294089,1,0,0:0:0:0:
256,192,294149,1,0,0:0:0:0:
256,192,294634,1,8,0:0:0:0:
256,192,294816,1,0,0:0:0:0:
256,192,294998,1,8,0:0:0:0:
256,192,295180,1,0,0:0:0:0:
256,192,295362,1,8,0:0:0:0:
256,192,295725,1,8,0:0:0:0:
256,192,295907,1,0,0:0:0:0:
256,192,296089,1,8,0:0:0:0:
256,192,296271,1,8,0:0:0:0:
256,192,296453,1,0,0:0:0:0:
256,192,296634,1,8,0:0:0:0:
256,192,296816,1,0,0:0:0:0:
256,192,296998,1,0,0:0:0:0:
256,160,297180,1,4,0:0:0:0:
256,192,297362,12,0,301543,0:0:0:0:
