osu file format v14

[General]
AudioFilename: audio.mp3
AudioLeadIn: 0
PreviewTime: 68384
Countdown: 0
SampleSet: Soft
StackLeniency: 0.7
Mode: 0
LetterboxInBreaks: 0
WidescreenStoryboard: 0

[Editor]
Bookmarks: 67056
DistanceSpacing: 1.7
BeatDivisor: 4
GridSize: 8
TimelineZoom: 1.7

[Metadata]
Title:Eclipse (TV Size)
TitleUnicode:Eclipse (TV Size)
Artist:Aoi Shouta
ArtistUnicode:蒼井翔太
Creator:HabiHolic
Version:Ex
Source:デビルズライン
Tags:devil's line opening Rock Japanese Anime j-rock jrock
BeatmapID:2351578
BeatmapSetID:1125468

[Difficulty]
HPDrainRate:7
CircleSize:4.3
OverallDifficulty:8
ApproachRate:9.3
SliderMultiplier:1.88
SliderTickRate:1

[Events]
//Background and Video events
0,0,"Devils.Line.full.2255126.jpg",0,0
Video,65,"Video.mp4"
//Break Periods
//Storyboard Layer 0 (Background)
//Storyboard Layer 1 (Fail)
//Storyboard Layer 2 (Pass)
//Storyboard Layer 3 (Foreground)
//Storyboard Layer 4 (Overlay)
//Storyboard Sound Samples

[TimingPoints]
1303,304.568527918782,4,2,0,50,1,0
1303,-133.333333333333,4,2,0,50,0,0
12267,-100,4,2,1,75,0,0
23231,-133.333333333333,4,2,1,50,0,0
32521,-181.818181818181,4,2,1,50,0,0
32978,-100,4,2,1,75,0,0
45160,-133.333333333333,4,2,1,75,0,0
52470,-76.9230769230769,4,2,1,75,0,0
53688,-100,4,2,1,75,0,0
64653,-200,4,2,1,75,0,0
66937,-100,4,2,1,75,0,0
69374,-83.3333333333333,4,2,1,75,0,1
69678,-100,4,2,1,75,0,0
79272,-133.333333333333,4,2,1,75,0,0

[Colours]
Combo1 : 157,60,255
Combo2 : 192,192,192
Combo3 : 181,0,90
Combo4 : 0,64,128
SliderBorder : 255,255,0

[HitObjects]
85,108,1303,6,0,L|71:37,2,70.5000026893617,2|0|0,0:0|0:0|0:0,0:0:0:0:
22,178,1759,1,2,0:0:0:0:
195,197,1912,2,0,L|208:127,1,70.5000026893617
225,43,2216,1,2,0:0:0:0:
187,219,2368,1,0,0:0:0:0:
325,162,2521,5,0,0:0:0:0:
140,114,2673,1,0,0:0:0:0:
187,308,2825,2,0,P|223:308|256:319,1,70.5000026893617,2|0,0:0|0:0,0:0:0:0:
490,269,3130,2,0,B|456:281|456:281|353:261,1,141.000005378723,0|2,0:0|0:0,0:0:0:0:
213,183,3587,6,0,L|288:170,2,70.5000026893617
130,232,4044,2,0,L|55:219,1,70.5000026893617,2|0,0:0|0:0,0:0:0:0:
192,313,4348,2,0,B|228:299|228:299|332:314,1,141.000005378723,0|2,0:0|0:0,0:0:0:0:
489,229,4805,6,0,B|453:243|453:243|349:228,1,141.000005378723
288,153,5262,1,2,0:0:0:0:
288,153,5414,1,0,0:0:0:0:
359,31,5566,2,0,P|367:65|367:100,1,70.5000026893617
276,169,5871,1,2,0:0:0:0:
124,69,6023,6,0,B|167:57|167:57|269:70,1,141.000005378723
172,148,6480,1,2,0:0:0:0:
41,122,6632,2,0,L|28:53,1,70.5000026893617
124,69,6937,1,0,0:0:0:0:
76,264,7089,2,0,P|40:262|9:247,1,70.5000026893617,2|0,0:0|0:0,0:0:0:0:
173,206,7394,6,0,L|153:351,1,141.000005378723
76,264,7851,1,2,0:0:0:0:
151,117,8003,2,0,P|186:115|219:126,1,70.5000026893617
293,180,8308,1,2,0:0:0:0:
51,159,8460,6,0,P|40:89|29:19,1,141.000005378723
173,84,8917,2,0,P|166:118|160:153,1,70.5000026893617,2|0,0:0|0:0,0:0:0:0:
0,283,9221,2,0,P|55:242|124:248,1,141.000005378723,0|2,0:0|0:0,0:0:0:0:
207,301,9678,1,0,0:0:0:0:
298,261,9830,6,0,P|304:226|309:191,1,70.5000026893617
194,122,10135,2,0,P|199:156|205:191,1,70.5000026893617,2|0,0:0|0:0,0:0:0:0:
272,51,10440,1,0,0:0:0:0:
100,117,10592,1,0,0:0:0:0:
305,172,10744,1,2,0:0:0:0:
79,111,10896,1,0,0:0:0:0:
256,192,11049,12,0,12115,0:0:0:0:
160,36,12267,5,8,0:0:0:0:
305,145,12419,1,0,1:0:0:0:
305,145,12495,1,0,1:0:0:0:
305,145,12572,1,0,1:0:0:0:
134,206,12724,2,0,L|148:261,1,47,8|0,0:0|1:0,0:0:0:0:
182,344,12876,5,0,1:0:0:0:
223,322,12952,1,0,1:0:0:0:
269,319,13028,1,0,1:0:0:0:
313,336,13105,1,0,1:0:0:0:
346,369,13181,2,0,L|359:323,1,47,0|0,1:0|1:0,0:0:0:0:
475,189,13333,2,0,L|460:240,1,47,0|0,1:0|1:0,0:0:0:0:
296,184,13485,6,0,P|205:195|138:133,1,188,4|10,0:0|0:0,0:0:0:0:
242,90,13942,1,0,0:0:0:0:
197,301,14094,1,2,1:2:0:0:
381,229,14247,1,0,1:2:0:0:
140,165,14399,1,10,0:0:0:0:
408,233,14551,6,0,B|433:165|433:165|431:120|431:120|458:51,1,188,2|2,1:2|1:2,0:0:0:0:
247,180,15008,2,0,L|264:273,1,94,10|0,0:0|0:0,0:0:0:0:
284,359,15313,1,0,1:0:0:0:
319,110,15465,1,0,1:0:0:0:
146,201,15617,1,10,0:0:0:0:
369,271,15770,1,0,0:0:0:0:
121,189,15922,5,6,1:2:0:0:
385,174,16074,1,2,1:2:0:0:
144,297,16226,2,0,L|49:274,1,94,10|2,0:0|0:0,0:0:0:0:
258,144,16531,1,2,1:2:0:0:
210,359,16683,1,0,1:0:0:0:
165,51,16835,1,10,0:0:0:0:
378,212,16988,6,0,B|394:156|394:156|414:127|414:127|415:92|415:92|434:29,1,188,6|0,0:0|1:0,0:0:0:0:
286,90,17445,1,10,0:0:0:0:
482,191,17597,1,0,0:0:0:0:
302,302,17749,1,10,0:0:0:0:
356,27,17901,1,0,1:0:0:0:
356,27,17978,1,0,1:0:0:0:
356,27,18054,1,10,0:0:0:0:
101,87,18206,2,0,L|113:136,1,47,2|0,1:2|1:0,0:0:0:0:
149,270,18358,6,0,B|249:269|227:216|326:216,1,188,6|10,0:0|0:0,0:0:0:0:
425,271,18815,1,0,0:0:0:0:
366,77,18967,1,2,1:2:0:0:
390,348,19120,1,0,1:2:0:0:
484,134,19272,1,10,0:0:0:0:
298,228,19424,6,0,L|113:199,1,188,2|2,1:2|1:2,0:0:0:0:
35,114,19881,1,10,0:0:0:0:
73,338,20033,1,0,0:0:0:0:
124,162,20186,1,0,1:0:0:0:
65,355,20338,1,0,1:0:0:0:
260,290,20490,1,10,0:0:0:0:
38,231,20643,1,0,0:0:0:0:
278,294,20795,6,0,P|292:249|298:202,1,94,2|2,1:2|1:2,0:0:0:0:
174,50,21099,2,0,L|189:142,1,94,10|0,0:0|0:0,0:0:0:0:
235,372,21404,1,2,1:2:0:0:
288,167,21556,1,2,1:2:0:0:
146,281,21709,1,10,0:0:0:0:
373,248,21861,6,0,L|409:60,1,188,6|0,0:0|1:0,0:0:0:0:
250,140,22318,1,10,0:0:0:0:
468,211,22470,1,0,1:0:0:0:
303,341,22622,1,10,0:0:0:0:
268,345,22698,1,0,1:0:0:0:
233,350,22775,1,0,1:0:0:0:
198,354,22851,1,0,1:0:0:0:
163,359,22927,2,0,L|117:351,1,47,8|0,0:0|1:0,0:0:0:0:
0,273,23079,2,0,L|46:265,1,47,0|0,1:0|1:0,0:0:0:0:
120,193,23231,6,0,P|110:124|100:54,2,141.000005378723,6|2|2,0:0|1:2|1:2,0:0:0:0:
178,274,23993,1,2,0:0:0:0:
265,233,24145,2,0,P|271:198|279:164,1,70.5000026893617,2|2,1:2|0:0,0:0:0:0:
185,32,24450,6,0,P|192:66|199:100,1,70.5000026893617,2|0,1:2|0:0,0:0:0:0:
278,164,24754,2,0,L|421:143,2,141.000005378723,2|0|0,1:2|1:0|1:2,0:0:0:0:
145,221,25516,1,2,0:0:0:0:
64,271,25668,6,0,P|132:262|194:293,1,141.000005378723,2|0,1:2|1:2,0:0:0:0:
289,253,26125,2,0,L|307:181,1,70.5000026893617,2|2,0:0|1:2,0:0:0:0:
329,90,26429,1,0,0:0:0:0:
157,30,26582,2,0,L|169:102,1,70.5000026893617,2|2,1:2|0:0,0:0:0:0:
289,253,26886,6,0,B|363:245|355:282|427:267,2,141.000005378723,2|0|0,1:2|1:0|1:0,0:0:0:0:
132,337,27648,2,0,L|209:323,1,70.5000026893617,2|0,0:0|1:0,0:0:0:0:
230,168,27952,1,2,0:0:0:0:
88,216,28105,5,2,1:2:0:0:
254,264,28257,1,2,0:0:0:0:
72,228,28409,2,0,L|51:157,1,70.5000026893617,0|0,1:2|0:0,0:0:0:0:
125,52,28714,2,0,L|146:123,1,70.5000026893617,2|0,1:2|0:0,0:0:0:0:
180,210,29018,1,2,1:2:0:0:
294,133,29171,1,2,0:0:0:0:
157,221,29323,6,0,P|164:256|166:291,1,70.5000026893617,2|2,1:2|0:0,0:0:0:0:
281,361,29627,2,0,P|282:326|288:292,1,70.5000026893617,0|2,1:2|0:0,0:0:0:0:
247,112,29932,2,0,P|254:151|256:185,1,70.5000026893617,0|0,1:0|0:0,0:0:0:0:
387,273,30237,2,0,P|389:237|395:203,1,70.5000026893617,0|0,1:0|0:0,0:0:0:0:
310,52,30541,5,0,1:0:0:0:
281,225,30693,1,2,0:0:0:0:
171,119,30846,1,2,1:2:0:0:
351,149,30998,1,2,0:0:0:0:
153,123,31150,2,0,L|166:50,1,70.5000026893617,2|0,1:2|0:0,0:0:0:0:
44,108,31455,2,0,L|56:180,1,70.5000026893617,0|0,1:2|0:0,0:0:0:0:
82,315,31759,5,4,0:0:0:0:
82,315,32368,5,2,2:1:0:0:
158,260,32521,2,0,B|228:262|209:298|282:296,1,129.250003944397,2|0,2:1|0:0,0:0:0:0:
355,255,32978,6,0,L|375:164,1,94,4|0,0:0|0:0,0:0:0:0:
210,25,33282,2,0,L|230:116,1,94,10|0,0:0|0:0,0:0:0:0:
223,261,33587,1,2,1:2:0:0:
314,81,33739,1,0,1:2:0:0:
141,190,33891,1,10,0:0:0:0:
384,156,34044,1,0,1:2:0:0:
388,172,34120,1,8,0:0:0:0:
393,191,34196,6,0,L|432:6,1,188,2|8,1:2|0:0,0:0:0:0:
254,74,34653,1,0,0:0:0:0:
306,284,34805,1,0,1:2:0:0:
349,24,34957,1,2,1:2:0:0:
139,121,35110,1,10,0:0:0:0:
361,162,35262,1,2,0:0:0:0:
67,199,35414,6,0,L|37:105,1,94,2|0,1:2|1:0,0:0:0:0:
184,27,35719,1,10,0:0:0:0:
154,290,35871,1,0,0:0:0:0:
95,80,36023,1,2,1:2:0:0:
302,187,36176,1,0,1:2:0:0:
130,317,36328,2,0,L|113:215,1,94,10|2,0:0|1:2,0:0:0:0:
110,197,36556,1,10,0:0:0:0:
110,197,36632,5,2,1:2:0:0:
231,93,36785,1,0,1:0:0:0:
16,137,36937,1,8,0:0:0:0:
257,206,37089,2,0,L|308:194,2,47,0|8|2,1:2|0:2|1:2,0:0:0:0:
101,63,37394,1,0,1:0:0:0:
158,311,37546,1,10,0:0:0:0:
192,317,37622,1,0,1:0:0:0:
227,323,37698,1,0,1:0:0:0:
262,329,37775,1,0,1:0:0:0:
296,335,37851,6,0,L|390:321,1,94,2|0,1:2|1:0,0:0:0:0:
486,226,38155,1,10,0:0:0:0:
301,134,38308,1,2,0:0:0:0:
427,36,38460,2,0,B|441:83|441:83|431:126,1,94,0|2,1:0|1:2,0:0:0:0:
323,215,38764,1,10,0:0:0:0:
167,118,38917,1,0,0:0:0:0:
211,317,39069,5,2,1:2:0:0:
231,37,39221,1,2,1:2:0:0:
20,163,39374,2,0,L|39:263,1,94,8|0,0:0|1:0,0:0:0:0:
59,340,39602,1,8,0:0:0:0:
59,340,39678,1,2,1:2:0:0:
216,221,39830,1,2,1:2:0:0:
23,137,39983,1,10,0:0:0:0:
176,340,40135,6,0,B|275:339|258:294|355:292,1,188,2|0,1:2|1:0,0:0:0:0:
432,355,40592,1,10,0:0:0:0:
471,189,40744,2,0,P|485:143|490:97,1,94,2|0,0:0|1:0,0:0:0:0:
333,10,41049,2,0,L|348:105,1,94,2|10,1:2|0:0,0:0:0:0:
292,266,41353,1,0,0:0:0:0:
159,125,41506,5,2,1:2:0:0:
374,200,41658,1,0,1:0:0:0:
203,327,41810,1,10,0:0:0:0:
231,56,41962,1,0,1:0:0:0:
239,66,42039,1,0,1:0:0:0:
246,76,42115,2,0,P|293:67|339:62,1,94,10|0,0:0|1:0,0:0:0:0:
135,202,42419,2,0,P|88:193|42:188,1,94,10|10,0:0|0:0,0:0:0:0:
294,266,42724,5,4,0:0:0:0:
256,192,42800,12,0,45008,0:0:0:0:
56,211,45160,6,0,P|41:180|36:145,1,70.5000026893617,4|0,0:0|1:0,0:0:0:0:
158,13,45465,2,0,L|126:153,1,141.000005378723,2|10,1:2|0:0,0:0:0:0:
154,300,45922,1,2,0:0:0:0:
286,210,46074,1,2,1:2:0:0:
201,367,46226,6,0,P|145:325|76:327,1,141.000005378723,2|10,1:2|0:0,0:0:0:0:
22,246,46683,1,2,0:0:0:0:
182,187,46835,1,2,1:2:0:0:
44,240,46988,2,0,P|28:207|18:172,1,70.5000026893617,10|0,0:0|0:0,0:0:0:0:
115,60,47292,2,0,L|103:144,1,70.5000026893617,10|2,0:0|0:0,0:0:0:0:
93,325,47597,6,0,B|167:315|159:353|231:339,1,141.000005378723,0|2,1:0|1:2,0:0:0:0:
326,266,48054,1,0,0:0:0:0:
198,176,48206,2,0,P|194:211|200:245,1,70.5000026893617,10|0,0:0|0:0,0:0:0:0:
346,275,48511,1,10,0:0:0:0:
354,94,48663,6,0,B|320:106|320:106|216:89,1,141.000005378723,2|10,1:2|0:0,0:0:0:0:
58,47,49120,2,0,L|128:39,1,70.5000026893617,2|0,1:2|0:0,0:0:0:0:
163,221,49424,2,0,L|19:201,1,141.000005378723,10|2,0:0|1:2,0:0:0:0:
255,38,50033,6,0,B|242:114|292:96|279:178,1,141.000005378723,4|10,0:0|0:0,0:0:0:0:
206,303,50490,1,0,0:0:0:0:
348,356,50643,2,0,L|419:342,1,70.5000026893617,2|4,1:2|3:0,0:0:0:0:
366,249,50947,1,10,3:2:0:0:
193,321,51099,6,0,L|40:296,1,141.000005378723,2|10,1:2|0:0,0:0:0:0:
12,201,51556,1,0,1:0:0:0:
188,134,51709,1,2,0:0:0:0:
58,23,51861,2,0,B|53:98|104:80|95:160,1,141.000005378723,2|10,1:2|0:0,0:0:0:0:
68,290,52318,1,2,0:0:0:0:
319,192,52470,6,0,P|401:229|447:306,2,183.299991609192,8|0|8,0:0|1:0|0:0,0:0:0:0:
185,135,53079,2,0,P|103:97|59:18,2,183.299991609192,8|0|8,0:0|1:0|0:0,0:0:0:0:
333,24,53688,5,10,0:0:0:0:
321,41,53764,1,0,1:0:0:0:
309,60,53841,2,0,L|319:109,1,47,0|0,1:2|1:0,0:0:0:0:
431,202,53993,2,0,L|441:156,1,47,8|0,0:0|1:0,0:0:0:0:
302,238,54145,2,0,L|312:283,1,47,0|0,1:2|1:0,0:0:0:0:
240,357,54297,2,0,B|162:354|180:315|100:311,1,141,0|0,1:2|1:0,0:0:0:0:
39,251,54602,1,8,0:0:0:0:
33,216,54678,1,0,1:0:0:0:
28,181,54754,1,0,1:0:0:0:
22,146,54830,1,0,1:0:0:0:
17,111,54907,5,0,1:2:0:0:
244,24,55059,1,0,1:2:0:0:
267,175,55211,2,0,L|175:159,1,94,10|0,0:0|0:0,0:0:0:0:
340,116,55516,1,2,1:2:0:0:
139,235,55668,1,0,1:2:0:0:
247,44,55820,1,10,0:0:0:0:
274,348,55973,1,0,0:0:0:0:
176,100,56125,5,2,1:2:0:0:
323,280,56277,2,0,L|420:260,1,94,0|10,1:2|0:0,0:0:0:0:
196,340,56582,2,0,B|125:329|125:329|79:337|79:337|7:322,1,188,2|2,1:2|1:2,0:0:0:0:
69,235,57039,1,10,0:0:0:0:
258,113,57191,1,0,0:0:0:0:
45,52,57343,5,0,1:0:0:0:
280,118,57495,1,2,1:2:0:0:
184,290,57648,2,0,L|167:194,1,94,10|0,0:0|0:0,0:0:0:0:
193,32,57952,1,2,1:2:0:0:
169,320,58105,1,0,1:2:0:0:
382,184,58257,1,10,0:0:0:0:
102,148,58409,1,0,0:0:0:0:
390,85,58561,6,0,P|436:97|467:129,1,94,2|0,1:2|1:0,0:0:0:0:
350,294,58866,1,10,0:0:0:0:
162,232,59018,2,0,L|125:43,1,188,2|0,1:2|1:2,0:0:0:0:
237,109,59475,1,8,0:0:0:0:
58,204,59627,1,0,0:0:0:0:
215,313,59780,6,0,P|261:303|307:295,1,94,10|0,0:0|1:0,0:0:0:0:
483,215,60084,2,0,P|436:205|390:197,1,94,0|0,1:2|0:0,0:0:0:0:
282,86,60389,1,10,0:0:0:0:
448,18,60541,2,0,P|460:68|449:111,1,94,8|0,3:0|1:2,0:0:0:0:
208,200,60846,6,0,B|136:188|136:188|92:193|92:193|23:177,1,188,12|0,0:0|1:0,0:0:0:0:
76,100,61303,1,2,1:2:0:0:
151,278,61455,1,8,3:0:0:0:
298,194,61607,2,0,P|314:149|316:102,1,94,2|0,1:2|1:0,0:0:0:0:
187,13,61912,2,0,L|205:109,1,94,8|4,3:2|3:0,0:0:0:0:
245,351,62216,5,4,0:0:0:0:
364,36,63434,5,4,0:0:0:0:
16,154,64653,6,0,B|186:136|136:282|326:242,1,329,4|0,0:0|0:0,0:0:0:0:
395,191,65871,6,0,L|406:144,1,47,4|0,3:0|0:0,0:0:0:0:
309,42,66176,2,0,L|319:97,1,47,4|0,3:0|0:0,0:0:0:0:
327,272,66480,1,0,1:0:0:0:
478,214,66632,1,0,1:0:0:0:
224,146,66785,1,0,1:0:0:0:
304,363,66937,5,0,1:0:0:0:
304,363,67013,1,0,1:0:0:0:
304,363,67089,1,10,0:0:0:0:
252,49,67242,1,0,1:0:0:0:
85,232,67394,1,8,0:0:0:0:
371,184,67546,1,0,1:0:0:0:
152,33,67698,5,10,0:0:0:0:
190,343,67851,1,2,1:2:0:0:
396,196,68003,1,2,1:2:0:0:
115,129,68155,1,10,0:0:0:0:
472,330,69374,6,0,L|249:296,1,225.599993115235,4|0,0:0|1:0,0:0:0:0:
45,200,69830,2,0,L|140:187,1,94,10|0,0:0|1:0,0:0:0:0:
225,172,70059,1,0,1:0:0:0:
225,172,70135,1,2,1:2:0:0:
317,38,70287,1,0,1:2:0:0:
149,112,70440,1,10,0:0:0:0:
301,233,70592,6,0,P|372:175|466:176,1,188,2|0,1:2|1:0,0:0:0:0:
327,356,71049,2,0,L|235:336,1,94,8|0,0:0|0:0,0:0:0:0:
98,297,71353,1,2,1:2:0:0:
177,133,71506,1,0,1:2:0:0:
12,227,71658,1,10,0:0:0:0:
122,49,71810,6,0,P|211:39|272:105,1,188,2|0,1:2|1:2,0:0:0:0:
308,252,72267,1,10,0:0:0:0:
372,67,72419,1,0,0:0:0:0:
301,270,72572,1,2,1:2:0:0:
228,129,72724,1,0,1:2:0:0:
417,197,72876,1,10,0:0:0:0:
252,362,73028,6,0,L|65:333,1,188,2|0,1:2|1:2,0:0:0:0:
6,224,73485,1,8,0:0:0:0:
184,124,73638,1,0,0:0:0:0:
17,71,73790,2,0,L|28:119,1,47,2|0,1:2|1:0,0:0:0:0:
147,311,73942,2,0,L|157:265,1,47,2|0,1:2|1:0,0:0:0:0:
193,96,74094,1,8,0:0:0:0:
337,247,74247,6,0,P|427:260|494:199,1,188,4|0,0:0|1:0,0:0:0:0:
396,155,74704,1,10,0:0:0:0:
179,196,74856,1,2,1:2:0:0:
179,196,74932,1,0,1:0:0:0:
179,196,75008,1,2,1:2:0:0:
349,62,75160,1,0,1:2:0:0:
283,320,75313,1,10,0:0:0:0:
158,206,75465,6,0,B|119:154|127:95|127:95|105:67|98:32,1,188,2|0,1:2|1:0,0:0:0:0:
271,49,75922,2,0,L|252:146,1,94,8|0,0:0|0:0,0:0:0:0:
207,342,76226,1,2,1:2:0:0:
343,201,76379,1,0,1:2:0:0:
127,258,76531,1,10,0:0:0:0:
416,312,76683,6,0,B|441:244|441:244|439:199|439:199|466:130,1,188,2|0,1:2|1:2,0:0:0:0:
245,28,77140,2,0,L|262:124,1,94,10|0,0:0|1:2,0:0:0:0:
281,206,77368,1,0,1:2:0:0:
286,226,77445,1,2,1:2:0:0:
367,80,77597,1,0,1:2:0:0:
323,324,77749,1,10,0:0:0:0:
161,191,77901,6,0,P|70:199|10:131,1,188,2|0,1:2|1:0,0:0:0:0:
278,28,78358,2,0,L|259:131,1,94,8|0,0:0|0:0,0:0:0:0:
215,309,78663,1,0,1:2:0:0:
161,74,78815,1,0,1:2:0:0:
161,74,78891,1,0,1:0:0:0:
161,74,78967,1,10,0:0:0:0:
161,74,79272,6,0,L|308:98,2,141.000005378723,4|0|10,0:0|1:0|0:0,0:0:0:0:
69,119,80033,2,0,P|62:80|53:45,1,70.5000026893617,0|2,1:0|0:0,0:0:0:0:
160,177,80338,6,0,L|140:317,1,141.000005378723,2|8,1:2|0:0,0:0:0:0:
58,226,80795,1,0,0:0:0:0:
58,226,80947,1,2,1:2:0:0:
247,263,81099,2,0,P|254:228|263:194,1,70.5000026893617,10|0,0:0|0:0,0:0:0:0:
173,59,81404,2,0,P|182:93|189:127,1,70.5000026893617,2|0,1:2|1:0,0:0:0:0:
346,230,81709,6,0,L|486:215,2,141.000005378723,0|2|10,1:0|1:2|0:0,0:0:0:0:
257,328,82470,2,0,L|183:314,1,70.5000026893617,0|2,0:0|0:0,0:0:0:0:
4,223,82775,6,0,B|43:209|43:209|145:224,1,141.000005378723,2|0,1:2|1:2,0:0:0:0:
231,174,83231,2,0,P|247:138|252:106,1,70.5000026893617,2|8,1:2|0:0,0:0:0:0:
192,27,83536,1,10,0:0:0:0:
234,267,83688,1,0,1:0:0:0:
397,115,83841,1,2,1:2:0:0:
121,162,83993,1,0,1:2:0:0:
421,109,84145,5,4,0:0:0:0:
69,61,85363,5,4,0:0:0:0:
69,61,86582,5,4,0:0:0:0:
69,61,86734,1,0,1:0:0:0:
162,114,86886,2,0,L|177:38,1,70.5000026893617,0|0,1:0|1:0,0:0:0:0:
74,162,87191,1,0,1:0:0:0:
256,94,87343,1,0,1:0:0:0:
213,272,87495,1,0,1:0:0:0:
149,90,87648,1,0,1:0:0:0:
308,220,87800,6,0,P|342:215|377:209,1,70.5000026893617,0|0,1:0|1:0,0:0:0:0:
192,290,88105,2,0,P|157:286|122:280,1,70.5000026893617,0|0,1:0|1:0,0:0:0:0:
66,163,88409,5,10,0:0:0:0:
293,62,88561,1,10,0:0:0:0:
273,329,88714,1,10,0:0:0:0:
146,40,88866,1,14,0:0:0:0:
