osu file format v14

[General]
AudioFilename: audio.mp3
AudioLeadIn: 0
PreviewTime: 379
Countdown: 0
SampleSet: Soft
StackLeniency: 0.8
Mode: 0
LetterboxInBreaks: 0
WidescreenStoryboard: 1

[Editor]
DistanceSpacing: 1
BeatDivisor: 4
GridSize: 32
TimelineZoom: 1.9

[Metadata]
Title:BAD END (TV Size)
TitleUnicode:BAD END (TV Size)
Artist:Aoi Shouta
ArtistUnicode:蒼井翔太
Creator:Agatsu
Version:Normal
Source:乙女ゲームの破滅フラグしかない悪役令嬢に転生してしまった…
Tags:coco cococolaco loli catgirl soop so0p kudosu Fuju My Next Life as a Villainess: All Routes Lead to Doom! Hamefura I Reincarnated into an Otome Game as a Villainess With Only Destruction Flags… Anime Japanese Ed Ending Otome Game no Hametsu Flag shika Nai Akuyaku Reijou ni Tensei shiteshimatta... Bakarina
BeatmapID:2479339
BeatmapSetID:1189904

[Difficulty]
HPDrainRate:3
CircleSize:3.5
OverallDifficulty:4
ApproachRate:5
SliderMultiplier:1
SliderTickRate:1

[Events]
//Background and Video events
0,0,"cropped-1920-1080-1058462.jpg",0,0
Video,-511,"cocobaka.mp4"
//Break Periods
2,11574,18355
//Storyboard Layer 0 (Background)
//Storyboard Layer 1 (Fail)
//Storyboard Layer 2 (Pass)
//Storyboard Layer 3 (Foreground)
//Storyboard Layer 4 (Overlay)
//Storyboard Sound Samples

[TimingPoints]
465,340.909090909091,4,2,1,35,1,0
465,-111.111111111111,4,2,1,35,0,0
4555,-100,4,2,1,60,0,0
5749,-100,4,2,1,70,0,0
20919,-100,4,2,1,50,0,0
33192,-111.111111111111,4,2,1,40,0,0
38476,-100,4,2,1,50,0,0
43930,-100,4,2,1,70,0,0

[Colours]
Combo1 : 237,175,203
Combo2 : 147,180,234
Combo3 : 160,138,219
Combo4 : 232,188,108

[HitObjects]
5,285,465,6,0,B|159:249|97:388|267:343,1,269.999991760254,2|2,0:0|0:0,0:0:0:0:
332,306,1828,1,2,0:0:0:0:
411,348,2169,1,0,0:0:0:0:
486,298,2510,2,0,L|492:194,1,89.999997253418,2|2,0:3|0:0,0:0:0:0:
435,137,3192,2,0,P|379:123|330:137,1,89.999997253418,2|0,0:0|0:0,0:0:0:0:
309,152,3703,2,0,L|156:140,1,134.999995880127,0|2,0:0|0:0,0:0:0:0:
75,159,4555,6,0,L|80:96,1,50,8|0,0:0|3:0,0:0:0:0:
38,79,4896,2,0,L|38:15,1,50,8|8,0:0|0:0,0:0:0:0:
84,6,5237,1,8,0:0:0:0:
84,6,5408,1,8,0:0:0:0:
176,44,5749,6,0,L|298:49,1,100,6|0,3:2|3:0,0:0:0:0:
325,52,6260,1,10,0:0:0:0:
428,46,6601,1,0,3:0:0:0:
428,46,6771,1,2,3:2:0:0:
480,131,7112,2,0,P|497:180|485:247,1,100,2|0,3:2|3:0,0:0:0:0:
473,273,7624,1,8,0:0:0:0:
390,329,7965,2,0,L|400:382,2,50,0|0|10,0:0|3:0|0:0,0:0:0:0:
294,297,8646,6,0,P|236:299|200:333,1,100,2|8,3:2|0:0,0:0:0:0:
174,364,9158,1,2,3:2:0:0:
83,322,9499,2,0,L|90:261,1,50,0|8,3:0|0:0,0:0:0:0:
59,231,9840,2,0,L|53:118,1,100,6|8,3:2|0:0,0:0:0:0:
46,86,10351,1,8,0:0:0:0:
46,86,10521,2,0,L|159:81,1,100,0|0,3:0|3:0,0:0:0:0:
196,75,11033,1,8,0:3:0:0:
274,13,11374,5,4,3:2:0:0:
487,212,19555,6,0,L|502:45,2,150,8|8|4,0:3|0:3|0:3,0:0:0:0:
412,279,20919,1,8,0:0:0:0:
412,279,21090,1,8,0:0:0:0:
317,247,21430,1,8,0:0:0:0:
311,147,21771,1,8,0:0:0:0:
235,81,22112,6,0,P|195:66|121:83,1,100,6|0,3:2|3:0,0:0:0:0:
96,100,22624,1,10,0:0:0:0:
38,181,22965,2,0,L|45:289,1,100,2|8,3:2|0:0,0:0:0:0:
51,330,23476,1,2,0:0:0:0:
140,384,23817,1,0,3:0:0:0:
140,384,23987,1,10,0:0:0:0:
230,342,24328,2,0,P|275:336|344:362,1,100,2|8,0:0|0:0,0:0:0:0:
369,377,24840,6,0,L|377:269,1,100,2|0,0:0|0:0,0:0:0:0:
381,227,25351,1,10,0:0:0:0:
300,167,25692,2,0,L|294:105,1,50,0|2,3:0|3:2,3:0:0:0:
291,17,26203,2,0,P|341:5|402:13,1,100,2|0,0:0|0:0,0:0:0:0:
437,22,26715,1,8,0:0:0:0:
437,22,26885,1,8,0:0:0:0:
490,106,27226,2,0,L|486:167,1,50,8|8,0:0|0:0,0:0:0:0:
448,188,27567,6,0,L|455:303,1,100,6|0,3:2|0:0,0:0:0:0:
459,337,28078,1,8,0:0:0:0:
362,373,28419,2,0,P|298:372|258:336,1,100,2|8,3:2|0:0,0:0:0:0:
238,257,29101,2,0,L|231:144,1,100,2|8,3:2|0:0,0:0:0:0:
241,57,29783,1,2,0:0:0:0:
156,2,30124,1,10,0:0:0:0:
66,46,30465,6,0,L|1:40,2,50,2|0|8,3:2|0:0|0:0,0:0:0:0:
97,85,30976,2,0,L|85:202,1,100,2|0,0:0|3:0,0:0:0:0:
73,287,31658,1,10,0:0:0:0:
73,287,31828,2,0,P|116:302|180:289,1,100,8|8,0:0|0:0,0:0:0:0:
217,281,32340,1,4,3:2:0:0:
315,268,32680,2,0,L|310:204,1,50,4|0,3:2|0:2,0:2:0:0:
257,142,33192,6,0,P|266:62|356:20,1,179.999994506836,2|2,0:0|0:3,0:0:0:0:
437,32,34215,1,0,0:0:0:0:
492,102,34555,2,0,L|483:215,1,89.999997253418,2|0,0:0|0:0,0:0:0:0:
496,281,35237,1,2,0:3:0:0:
443,354,35578,1,0,0:0:0:0:
357,324,35919,6,0,P|313:317|258:337,1,89.999997253418,2|0,0:0|0:0,0:0:0:0:
189,369,36601,1,2,0:3:0:0:
107,331,36942,2,0,L|113:229,1,89.999997253418,0|2,0:0|0:0,0:0:0:0:
60,167,37624,1,0,0:0:0:0:
109,92,37965,1,12,0:2:0:0:
109,92,38135,1,8,0:0:0:0:
205,66,38476,6,0,P|229:118|221:177,1,100,6|8,3:2|0:0,0:0:0:0:
210,206,38987,1,0,3:0:0:0:
254,295,39328,1,8,0:0:0:0:
254,295,39499,1,8,0:0:0:0:
346,333,39840,2,0,L|461:324,1,100,6|8,3:2|0:3,0:0:0:0:
495,317,40351,1,0,3:0:0:0:
499,217,40692,1,0,3:0:0:0:
423,151,41033,1,2,3:2:0:0:
328,183,41374,6,0,P|279:195|219:178,1,100,6|0,3:2|3:0,0:0:0:0:
146,131,42055,1,0,3:0:0:0:
146,131,42226,1,2,3:2:0:0:
178,36,42567,2,0,L|294:27,1,100,6|0,3:2|0:0,0:0:0:0:
323,8,43078,2,0,L|411:13,1,50,8|8,0:0|0:0,0:0:0:0:
422,15,43419,1,8,0:0:0:0:
422,15,43590,1,8,0:0:0:0:
489,88,43930,5,6,3:2:0:0:
439,174,44271,1,2,0:0:0:0:
475,267,44612,1,2,0:0:0:0:
412,344,44953,1,2,3:2:0:0:
314,322,45294,2,0,P|305:273|324:215,1,100,2|0,3:2|3:0,0:0:0:0:
333,177,45805,2,0,L|343:95,1,50,10|0,0:0|3:0,0:0:0:0:
346,77,46146,1,2,0:0:0:0:
273,16,46487,1,8,0:0:0:0:
273,16,46658,6,0,L|144:28,1,100,2|0,0:0|0:0,0:0:0:0:
138,61,47169,2,0,L|72:57,1,50,10|0,0:0|0:0,0:0:0:0:
44,82,47510,1,0,3:0:0:0:
44,82,47680,1,2,3:2:0:0:
14,177,48021,1,2,3:2:0:0:
90,241,48362,1,0,3:0:0:0:
184,208,48703,1,2,3:2:0:0:
265,266,49044,2,0,L|260:331,1,50,8|8,0:0|0:0,0:0:0:0:
257,365,49385,1,8,0:0:0:0:
257,365,49555,6,0,P|316:354|381:368,1,100,4|8,3:2|0:0,0:0:0:0:
455,362,50237,2,0,P|471:308|455:238,1,100,2|8,3:2|0:0,0:0:0:0:
388,202,50919,2,0,L|272:198,1,100,2|8,0:0|0:0,0:0:0:0:
209,260,51601,1,2,3:2:0:0:
108,260,51942,1,10,0:0:0:0:
47,180,52283,6,0,L|-9:188,2,50,6|0|8,3:2|0:0|0:0,0:0:0:0:
79,141,52794,2,0,P|88:63|137:24,1,100,2|8,3:2|0:0,0:0:0:0:
137,14,53305,1,8,0:0:0:0:
137,14,53476,2,0,L|255:23,1,100,0|8,3:0|0:0,0:0:0:0:
286,28,53987,1,8,0:0:0:0:
357,98,54328,1,8,0:0:0:0:
357,98,54499,2,0,L|362:178,1,50,0|8,3:0|0:3,0:0:0:0:
361,198,54840,1,4,0:3:0:0:
361,198,55010,6,0,L|236:187,1,100,6|8,3:2|0:0,0:0:0:0:
212,179,55521,1,2,0:0:0:0:
129,122,55862,2,0,L|44:129,1,50,2|8,3:2|0:0,0:0:0:0:
35,158,56203,2,0,P|12:223|30:286,1,100,2|0,3:2|3:0,0:0:0:0:
37,297,56715,2,0,L|110:306,1,50,10|0,0:0|3:0,0:0:0:0:
135,314,57055,1,2,0:0:0:0:
221,263,57396,2,0,L|232:195,1,50,8|0,0:0|0:0,0:0:0:0:
240,164,57737,6,0,L|230:35,1,100,6|8,3:2|0:0,0:0:0:0:
225,14,58249,1,2,3:2:0:0:
319,45,58590,2,0,P|375:50|428:28,1,100,2|8,3:2|0:0,0:0:0:0:
460,13,59101,2,0,L|449:137,1,100,6|8,3:2|0:0,0:0:0:0:
451,162,59612,1,2,3:2:0:0:
373,225,59953,2,0,P|309:232|258:208,1,100,2|8,3:2|0:0,0:0:0:0:
241,184,60465,6,0,L|237:65,1,100,4|8,3:2|0:0,0:0:0:0:
149,35,61146,1,0,3:0:0:0:
149,35,61317,1,2,3:2:0:0:
58,78,61658,2,0,P|41:142|53:193,1,100,6|0,3:2|3:0,0:0:0:0:
70,218,62169,1,10,0:0:0:0:
136,292,62510,1,2,3:2:0:0:
234,272,62851,2,0,L|306:279,1,50,8|8,0:0|0:0,0:0:0:0:
333,283,63192,6,0,L|323:160,1,100,12|8,0:0|0:0,0:0:0:0:
379,99,63874,2,0,L|440:93,1,50,8|8,0:0|0:0,0:0:0:0:
473,70,64215,2,0,L|513:120,1,50,8|8,0:0|0:0,0:0:0:0:
510,158,64555,1,12,0:0:0:0:
469,249,64896,1,12,0:0:0:0:
381,297,65237,1,8,0:0:0:0:
381,297,65408,1,8,0:0:0:0:
286,263,65749,6,0,P|232:255|170:283,1,100,6|0,3:2|0:0,0:0:0:0:
153,303,66260,1,8,0:0:0:0:
153,303,66430,2,0,L|41:295,1,100,2|2,0:0|3:2,0:0:0:0:
4,282,66942,1,8,0:0:0:0:
4,282,67112,1,2,3:2:0:0:
4,181,67453,1,0,3:0:0:0:
4,181,67624,2,0,L|17:96,1,50,8|0,0:0|3:0,0:0:0:0:
4,81,67965,2,0,P|67:98|137:76,1,100,2|8,0:0|0:0,0:0:0:0:
146,73,68476,1,2,0:0:0:0:
234,120,68817,6,0,L|300:111,2,50,0|10|0,0:0|0:0|0:0,0:0:0:0:
205,161,69328,1,2,3:2:0:0:
205,161,69499,1,0,3:0:0:0:
164,252,69840,1,2,3:2:0:0:
216,336,70180,1,0,3:0:0:0:
314,353,70521,1,2,3:2:0:0:
401,304,70862,1,10,0:0:0:0:
401,304,71033,2,0,L|408:235,1,50,8|8,0:0|0:0,0:0:0:0:
445,222,71374,6,0,L|438:111,1,100,4|8,3:2|0:0,0:0:0:0:
377,42,72055,2,0,P|327:32|270:49,1,100,2|8,3:2|0:0,0:0:0:0:
208,113,72737,2,0,L|203:230,1,100,2|8,0:0|0:0,0:0:0:0:
252,300,73419,1,2,3:2:0:0:
180,369,73760,1,10,0:0:0:0:
85,337,74101,6,0,L|25:338,2,50,6|0|8,3:2|0:0|0:0,0:0:0:0:
111,294,74612,2,0,L|101:162,1,100,2|8,3:2|0:0,0:0:0:0:
68,157,75124,1,8,0:0:0:0:
68,157,75294,2,0,P|75:97|124:61,1,100,6|0,3:2|3:0,0:0:0:0:
148,54,75805,1,8,0:0:0:0:
237,98,76146,1,8,0:0:0:0:
237,98,76317,2,0,L|252:224,1,100,0|4,3:0|0:3,0:0:0:0:
244,247,76828,6,0,P|317:232|374:249,1,100,6|8,3:2|0:0,0:0:0:0:
387,255,77340,1,2,0:0:0:0:
474,207,77680,2,0,L|481:140,1,50,2|8,3:2|0:0,0:0:0:0:
503,113,78021,2,0,L|388:106,1,100,2|0,3:2|3:0,0:0:0:0:
360,79,78533,2,0,L|296:83,1,50,10|0,0:0|3:0,0:0:0:0:
263,101,78874,1,2,0:0:0:0:
183,40,79215,2,0,L|120:33,1,50,8|0,0:0|3:0,0:0:0:0:
84,23,79555,6,0,P|29:48|10:106,1,100,4|8,3:2|0:0,0:0:0:0:
7,131,80067,1,2,3:2:0:0:
53,219,80408,2,0,L|159:227,1,100,2|8,3:2|0:0,0:0:0:0:
202,225,80919,2,0,P|252:200|320:209,1,100,4|8,3:2|0:0,0:0:0:0:
344,210,81430,1,2,3:2:0:0:
441,189,81771,2,0,L|450:301,1,100,2|8,3:2|0:0,0:0:0:0:
472,333,82283,6,0,P|413:333|354:367,1,100,4|8,3:2|0:0,0:0:0:0:
277,366,82965,1,0,3:0:0:0:
277,366,83135,1,2,3:2:0:0:
185,325,83476,2,0,L|181:222,1,100,2|0,3:2|3:0,0:0:0:0:
183,174,83987,1,10,0:0:0:0:
233,87,84328,1,2,3:2:0:0:
157,21,84669,2,0,L|86:27,1,50,8|0,0:0|3:0,0:0:0:0:
57,30,85010,6,0,P|34:89|40:149,1,100,12|8,0:0|0:0,0:0:0:0:
94,205,85692,1,8,0:0:0:0:
31,281,86033,2,0,L|22:352,1,50,8|8,0:0|0:0,0:0:0:0:
57,368,86374,1,8,0:0:0:0:
57,368,86544,1,8,0:0:0:0:
154,345,86885,1,8,0:0:0:0:
251,366,87226,2,0,L|324:358,1,50,0|8,3:0|0:0,0:0:0:0:
350,354,87567,6,0,B|348:271|392:293|377:186,1,150,6|0,3:2|0:0,0:0:0:0:
