osu file format v14

[General]
AudioFilename: audio.mp3
AudioLeadIn: 0
PreviewTime: 42652
Countdown: 0
SampleSet: Soft
StackLeniency: 0.7
Mode: 0
LetterboxInBreaks: 0
WidescreenStoryboard: 0

[Editor]
DistanceSpacing: 1
BeatDivisor: 4
GridSize: 32
TimelineZoom: 4.399998

[Metadata]
Title:Tsuki o Ou Mayonaka (TV Size)
TitleUnicode:月を追う真夜中 (TV Size)
Artist:Aoi Eir
ArtistUnicode:藍井エイル
Creator:Nevertary
Version:Normal
Source:グランベルム
Tags:Midnight Chasing the Moon Following in Middle of Night Fragment Granbelm anime animation opening op japanese pop j-pop jpop Crunchyroll Nexus
BeatmapID:2480920
BeatmapSetID:1190716

[Difficulty]
HPDrainRate:4
CircleSize:3.5
OverallDifficulty:4
ApproachRate:6
SliderMultiplier:0.999999999999999
SliderTickRate:1

[Events]
//Background and Video events
0,0,"BG.jpg",0,0
Video,0,"BGvideo.avi"
//Break Periods
//Storyboard Layer 0 (Background)
//Storyboard Layer 1 (Fail)
//Storyboard Layer 2 (Pass)
//Storyboard Layer 3 (Foreground)
//Storyboard Layer 4 (Overlay)
//Storyboard Sound Samples

[TimingPoints]
588,320.855614973262,4,2,1,60,1,0
3154,-100,4,2,1,75,0,0
8288,-100,4,2,1,60,0,0
13422,-100,4,2,1,60,0,0
18555,-100,4,2,1,65,0,0
23689,-100,4,2,1,70,0,0
28823,-100,4,2,1,65,0,0
33956,-100,4,2,1,70,0,0
44063,-100,4,2,1,80,0,1
64117,-100,4,2,1,80,0,0
64598,-100,4,2,1,80,0,1
86577,-100,4,2,1,80,0,0
87700,-100,4,2,1,80,0,0
89144,-100,4,2,1,60,0,0
89465,-100,4,2,1,40,0,0
89785,-100,4,2,1,20,0,0
89946,-100,4,2,1,5,0,0

[Colours]
Combo1 : 208,119,117
Combo2 : 58,84,171

[HitObjects]
287,87,2513,6,0,L|359:79,1,50,8|0,3:0|1:0,0:0:0:0:
386,79,2833,1,12,0:0:0:0:
480,110,3154,6,0,P|494:160|474:219,1,99.9999999999999,6|10,1:2|0:0,0:0:0:0:
454,247,3636,1,2,1:2:0:0:
388,321,3956,1,2,1:2:0:0:
309,259,4277,1,2,0:0:0:0:
309,259,4438,2,0,L|237:251,1,50,2|2,1:2|1:2,0:0:0:0:
217,277,4759,1,10,0:0:0:0:
217,277,4919,2,0,L|94:263,1,99.9999999999999,2|0,1:2|1:0,0:0:0:0:
67,264,5400,1,10,0:0:0:0:
27,172,5721,6,0,P|17:113|35:66,1,99.9999999999999,14|2,0:0|1:2,0:0:0:0:
65,41,6202,2,0,P|124:31|171:49,1,99.9999999999999,14|2,0:0|1:2,0:0:0:0:
207,64,6684,1,10,0:0:0:0:
303,89,7005,2,0,P|362:99|409:81,1,99.9999999999999,14|0,0:0|1:0,0:0:0:0:
449,72,7486,1,12,0:0:0:0:
449,72,7646,2,0,P|439:131|457:178,1,99.9999999999999,2|12,1:2|0:0,0:0:0:0:
432,266,8288,6,0,L|309:280,1,99.9999999999999,6|0,1:2|1:0,0:0:0:0:
251,220,8930,2,0,L|265:97,1,99.9999999999999,2|2,1:2|1:2,0:0:0:0:
270,71,9411,1,2,0:0:0:0:
172,48,9732,2,0,B|101:27|101:99|19:71,1,150,2|2,0:0|1:2,0:0:0:0:
0,170,10534,1,2,1:2:0:0:
10,269,10855,6,0,P|58:258|106:271,1,99.9999999999999,6|2,1:2|1:2,0:0:0:0:
197,316,11497,2,0,P|187:257|205:209,1,99.9999999999999,2|2,1:2|1:2,0:0:0:0:
236,186,11978,2,0,B|307:165|307:237|389:209,1,150,2|0,0:0|1:0,0:0:0:0:
474,187,12780,2,0,L|480:236,2,50,0|8|2,1:0|3:0|3:2,0:0:0:0:
460,87,13422,6,0,P|417:44|367:34,1,99.9999999999999,6|2,1:2|1:2,0:0:0:0:
329,33,13903,2,0,B|258:12|258:84|176:56,1,150,2|2,0:0|1:2,0:0:0:0:
137,51,14545,2,0,B|158:122|86:122|114:204,1,150,2|0,0:0|1:0,0:0:0:0:
152,283,15347,1,2,1:2:0:0:
250,256,15668,1,2,1:2:0:0:
325,321,15989,6,0,P|384:331|431:312,1,99.9999999999999,6|2,1:2|1:2,0:0:0:0:
460,287,16470,2,0,B|439:216|511:216|483:134,1,150,2|2,0:0|1:2,0:0:0:0:
484,94,17112,1,8,3:0:0:0:
484,94,17272,1,8,0:0:0:0:
261,76,18235,5,14,0:0:0:0:
273,176,18555,2,0,L|287:299,1,99.9999999999999,6|2,1:2|1:2,0:0:0:0:
216,349,19197,2,0,P|157:359|110:340,1,99.9999999999999,2|2,1:2|1:2,0:0:0:0:
78,318,19678,1,2,0:0:0:0:
9,244,19999,2,0,L|23:121,1,99.9999999999999,2|0,0:0|0:0,0:0:0:0:
28,94,20481,1,2,1:2:0:0:
99,24,20801,1,10,0:0:0:0:
174,88,21122,6,0,L|297:74,1,99.9999999999999,2|2,1:2|1:2,0:0:0:0:
350,140,21764,2,0,L|473:126,1,99.9999999999999,2|2,1:2|1:2,0:0:0:0:
479,170,22245,1,2,0:0:0:0:
479,170,22406,2,0,B|513:224|501:287|485:330|485:330|438:338,1,200,0|0,1:0|1:0,0:0:0:0:
356,314,23368,1,10,0:0:0:0:
265,356,23689,6,0,P|206:366|159:347,1,99.9999999999999,6|10,1:2|0:0,0:0:0:0:
136,315,24170,2,0,P|126:256|145:209,1,99.9999999999999,2|0,0:0|1:0,0:0:0:0:
159,173,24652,1,8,0:0:0:0:
103,89,24973,2,0,L|-20:75,2,99.9999999999999,2|10|2,1:2|0:0|1:2,0:0:0:0:
202,87,25935,1,10,0:0:0:0:
296,118,26256,6,0,P|355:128|402:109,1,99.9999999999999,2|10,1:2|0:0,0:0:0:0:
438,95,26737,2,0,P|428:154|447:201,1,99.9999999999999,2|0,0:0|1:0,0:0:0:0:
463,235,27219,1,8,0:0:0:0:
394,307,27539,1,2,1:2:0:0:
311,250,27860,1,10,0:0:0:0:
247,326,28181,2,0,L|175:318,1,50,8|0,3:0|1:0,0:0:0:0:
152,342,28502,2,0,L|80:334,1,50,10|2,0:0|1:2,0:0:0:0:
53,324,28823,6,0,P|63:265|44:218,1,99.9999999999999,6|2,1:2|0:0,0:0:0:0:
28,182,29304,2,0,P|18:123|37:76,1,99.9999999999999,2|0,1:2|1:0,0:0:0:0:
56,42,29785,1,8,0:0:0:0:
153,19,30106,1,4,1:2:0:0:
232,80,30427,2,0,L|355:66,2,99.9999999999999,2|2|2,0:0|0:0|3:2,0:0:0:0:
143,127,31390,6,0,P|133:186|152:233,1,99.9999999999999,6|2,1:2|0:0,0:0:0:0:
165,269,31871,2,0,L|42:283,2,99.9999999999999,2|2|2,1:2|1:2|0:0,0:0:0:0:
214,264,32673,1,0,1:0:0:0:
305,224,32994,1,12,0:0:0:0:
378,294,33315,2,0,L|370:366,2,50,0|8|2,1:0|3:0|1:2,0:0:0:0:
412,257,33796,5,2,1:2:0:0:
412,257,33956,2,0,P|422:198|403:151,1,99.9999999999999,6|10,1:2|0:0,0:0:0:0:
388,115,34438,2,0,L|265:101,1,99.9999999999999,2|2,0:0|0:0,0:0:0:0:
239,94,34919,1,10,0:0:0:0:
153,146,35240,2,0,L|30:132,1,99.9999999999999,0|8,1:0|0:0,0:0:0:0:
24,175,35721,1,2,0:0:0:0:
24,175,35882,2,0,P|20:210|27:245,1,50,2|2,1:2|0:0,0:0:0:0:
29,273,36202,1,10,0:0:0:0:
97,339,36523,6,0,L|220:325,1,99.9999999999999,6|8,1:2|0:0,0:0:0:0:
232,292,37005,1,2,0:0:0:0:
232,292,37165,2,0,L|355:278,1,99.9999999999999,2|8,1:2|0:0,0:0:0:0:
420,235,37807,2,0,P|430:294|411:341,2,99.9999999999999,2|10|2,1:2|0:0|1:2,0:0:0:0:
406,186,38609,1,2,0:0:0:0:
406,186,38769,1,10,0:0:0:0:
357,98,39090,6,0,P|298:88|251:107,1,99.9999999999999,6|2,1:2|1:2,0:0:0:0:
215,122,39571,2,0,P|156:132|109:113,1,99.9999999999999,10|0,0:0|1:0,0:0:0:0:
74,96,40053,1,10,0:0:0:0:
42,191,40374,2,0,P|52:250|33:297,1,99.9999999999999,4|0,1:2|1:0,0:0:0:0:
32,336,40855,2,0,P|91:326|138:345,1,99.9999999999999,10|0,0:0|1:0,0:0:0:0:
174,357,41336,1,8,0:0:0:0:
266,319,41657,6,0,L|271:368,2,50,10|2|2,0:0|1:2|3:2,0:0:0:0:
241,275,42138,2,0,L|227:152,1,99.9999999999999,10|2,0:0|1:2,0:0:0:0:
247,128,42620,2,0,L|241:78,1,50,10|2,0:0|0:0,0:0:0:0:
214,36,42940,1,2,1:2:0:0:
214,36,44063,6,0,P|273:26|320:45,1,99.9999999999999,6|0,1:2|1:0,0:0:0:0:
356,58,44545,1,10,0:0:0:0:
430,125,44866,2,0,L|479:119,2,50,2|0|10,1:2|1:0|0:0,0:0:0:0:
404,168,45347,1,2,0:0:0:0:
404,168,45507,2,0,P|394:227|413:274,1,99.9999999999999,2|10,1:2|0:0,0:0:0:0:
424,310,45989,1,2,0:0:0:0:
324,298,46309,2,0,L|275:292,1,50,2|8,1:2|0:0,0:0:0:0:
231,317,46630,6,0,L|131:305,1,99.9999999999999,2|0,0:0|0:0,0:0:0:0:
85,300,47112,1,10,0:0:0:0:
85,300,47272,1,2,0:0:0:0:
24,220,47593,2,0,L|30:171,1,50,2|8,1:2|0:0,0:0:0:0:
45,122,47914,2,0,P|104:112|151:131,1,99.9999999999999,2|0,0:0|1:0,0:0:0:0:
182,153,48395,1,8,0:0:0:0:
182,153,48555,1,2,0:0:0:0:
244,227,48876,1,2,1:2:0:0:
244,227,49037,2,0,L|250:276,1,50,10|10,0:0|0:0,0:0:0:0:
283,313,49358,6,0,P|342:323|389:304,1,99.9999999999999,6|10,1:2|0:0,0:0:0:0:
420,282,49839,1,2,0:0:0:0:
456,188,50160,2,0,L|462:139,1,50,2|8,1:2|0:0,0:0:0:0:
464,88,50481,2,0,L|341:74,1,99.9999999999999,2|0,0:0|0:0,0:0:0:0:
315,66,50962,1,10,0:0:0:0:
223,107,51283,2,0,L|174:101,1,50,2|0,1:2|1:0,0:0:0:0:
123,94,51604,1,10,0:0:0:0:
45,159,51924,6,0,P|7:205|1:256,1,99.9999999999999,6|8,1:2|0:0,0:0:0:0:
6,293,52406,1,2,1:2:0:0:
94,339,52727,2,0,L|143:333,1,50,2|10,1:2|0:0,0:0:0:0:
185,304,53047,1,2,1:2:0:0:
185,304,53208,2,0,L|308:290,1,99.9999999999999,4|8,1:2|0:0,0:0:0:0:
378,326,53850,2,0,L|384:375,2,50,0|8|8,1:0|0:0|0:0,0:0:0:0:
451,256,54491,6,0,P|461:197|442:150,1,99.9999999999999,6|10,1:2|0:0,0:0:0:0:
401,76,55133,2,0,L|352:70,1,50,2|0,1:2|1:0,0:0:0:0:
301,65,55454,1,10,0:0:0:0:
210,108,55775,2,0,P|151:118|104:99,1,99.9999999999999,2|10,1:2|0:0,0:0:0:0:
71,78,56256,1,2,0:0:0:0:
57,177,56577,2,0,L|43:300,1,99.9999999999999,2|0,1:2|0:0,0:0:0:0:
56,325,57058,6,0,P|113:341|162:327,1,99.9999999999999,2|8,1:2|0:0,0:0:0:0:
188,298,57539,1,2,0:0:0:0:
188,298,57700,2,0,L|194:249,1,50,2|0,1:2|1:0,0:0:0:0:
198,198,58021,1,10,0:0:0:0:
208,98,58342,2,0,P|267:88|314:107,1,99.9999999999999,2|8,1:2|0:0,0:0:0:0:
354,123,58823,1,2,0:0:0:0:
354,123,58983,2,0,L|403:117,1,50,2|0,1:2|1:0,0:0:0:0:
452,108,59304,1,8,0:0:0:0:
470,206,59625,6,0,L|481:305,1,99.9999999999999,6|10,1:2|0:0,0:0:0:0:
488,355,60106,1,2,0:0:0:0:
390,332,60427,2,0,L|341:326,1,50,2|8,1:2|0:0,0:0:0:0:
293,343,60748,2,0,L|194:332,1,99.9999999999999,2|0,0:0|1:0,0:0:0:0:
147,330,61229,1,10,0:0:0:0:
147,330,61390,1,2,0:0:0:0:
52,363,61710,2,0,L|46:314,1,50,2|8,1:2|0:0,0:0:0:0:
41,267,62031,5,2,0:0:0:0:
41,267,62192,2,0,L|30:168,1,99.9999999999999,4|8,1:2|0:0,0:0:0:0:
94,91,62833,2,0,L|143:85,1,50,10|0,0:0|1:0,0:0:0:0:
193,80,63154,1,8,0:0:0:0:
277,131,63475,2,0,L|283:180,2,50,10|8|8,0:0|0:0|0:0,0:0:0:0:
355,67,64117,5,2,1:2:0:0:
355,67,64277,1,2,1:2:0:0:
440,119,64598,6,0,P|449:177|430:225,1,99.9999999999999,6|0,1:2|1:0,0:0:0:0:
409,257,65079,1,14,0:0:0:0:
320,303,65400,2,0,L|271:297,1,50,2|0,1:2|1:0,0:0:0:0:
221,291,65721,1,10,0:0:0:0:
154,216,66042,2,0,L|55:205,1,99.9999999999999,2|10,1:2|0:0,0:0:0:0:
4,199,66523,1,2,0:0:0:0:
23,100,66844,2,0,L|72:94,1,50,2|8,1:2|0:0,0:0:0:0:
122,88,67165,6,0,L|221:77,1,99.9999999999999,2|0,0:0|0:0,0:0:0:0:
275,74,67646,1,10,0:0:0:0:
275,74,67807,1,2,0:0:0:0:
259,171,68128,2,0,L|253:220,1,50,2|8,1:2|0:0,0:0:0:0:
248,273,68448,1,2,0:0:0:0:
248,273,68609,1,2,1:2:0:0:
298,360,68930,1,10,0:0:0:0:
396,374,69251,1,2,1:2:0:0:
459,296,69571,2,0,L|465:247,1,50,10|10,0:0|0:0,0:0:0:0:
492,204,69892,6,0,L|503:104,1,99.9999999999999,6|10,1:2|0:0,0:0:0:0:
508,59,70374,1,2,0:0:0:0:
413,47,70694,2,0,L|364:41,1,50,2|8,1:2|0:0,0:0:0:0:
323,59,71015,2,0,L|223:48,1,99.9999999999999,2|0,0:0|0:0,0:0:0:0:
179,43,71497,1,10,0:0:0:0:
102,106,71817,2,0,L|96:155,1,50,2|0,1:2|1:0,0:0:0:0:
90,205,72138,1,10,0:0:0:0:
150,284,72459,6,0,L|144:333,2,50,14|0|0,0:0|1:0|1:0,0:0:0:0:
183,246,72940,2,0,P|242:236|289:255,1,99.9999999999999,14|2,0:0|1:2,0:0:0:0:
329,271,73422,1,10,0:0:0:0:
329,271,73582,2,0,P|388:281|435:262,1,99.9999999999999,2|0,1:2|1:0,0:0:0:0:
468,243,74063,1,8,0:0:0:0:
507,155,74384,2,0,L|501:106,1,50,8|2,0:0|3:0,0:0:0:0:
495,55,74705,1,12,0:0:0:0:
397,32,75026,6,0,P|338:22|291:41,1,99.9999999999999,6|14,1:2|0:0,0:0:0:0:
259,64,75507,1,2,0:0:0:0:
163,38,75828,2,0,L|114:44,1,50,2|8,1:2|0:0,0:0:0:0:
66,61,76149,2,0,P|56:120|75:167,1,99.9999999999999,2|0,0:0|1:0,0:0:0:0:
89,202,76630,1,10,0:0:0:0:
188,190,76951,2,0,L|237:184,1,50,2|0,1:2|1:0,0:0:0:0:
287,179,77272,1,10,0:0:0:0:
376,223,77593,6,0,P|435:233|482:214,1,99.9999999999999,2|8,1:2|0:0,0:0:0:0:
512,190,78074,1,2,0:0:0:0:
512,190,78235,2,0,P|522:131|503:84,1,99.9999999999999,2|8,1:2|0:0,0:0:0:0:
477,63,78716,1,2,0:0:0:0:
477,63,78876,2,0,P|418:53|371:72,1,99.9999999999999,2|10,1:2|0:0,0:0:0:0:
301,126,79518,2,0,L|295:175,1,50,2|0,1:2|1:0,0:0:0:0:
287,225,79839,1,8,0:0:0:0:
235,310,80160,6,0,P|176:320|129:301,1,99.9999999999999,6|10,1:2|0:0,0:0:0:0:
98,277,80641,1,2,0:0:0:0:
41,194,80962,2,0,L|35:145,1,50,2|8,1:2|0:0,0:0:0:0:
33,94,81283,2,0,P|92:104|139:85,1,99.9999999999999,2|0,0:0|1:0,0:0:0:0:
176,70,81764,1,10,0:0:0:0:
176,70,81924,1,2,0:0:0:0:
269,106,82245,2,0,L|275:155,1,50,2|8,1:2|0:0,0:0:0:0:
292,207,82566,5,2,0:0:0:0:
292,207,82727,2,0,P|351:197|398:216,1,99.9999999999999,4|8,1:2|0:0,0:0:0:0:
480,246,83368,2,0,L|474:295,1,50,8|2,0:0|1:2,0:0:0:0:
469,345,83689,1,10,0:0:0:0:
373,373,84010,2,0,L|324:367,1,50,8|0,0:0|1:0,0:0:0:0:
274,358,84331,1,8,0:0:0:0:
209,281,84652,2,0,L|160:275,1,50,8|2,0:0|1:2,0:0:0:0:
110,266,84973,1,14,0:0:0:0:
49,186,85293,6,0,P|39:127|58:80,1,99.9999999999999,2|10,1:2|1:2,0:0:0:0:
87,54,85775,2,0,L|136:48,1,50,10|8,0:0|1:2,0:0:0:0:
182,67,86096,2,0,L|231:61,1,50,10|8,0:0|1:2,0:0:0:0:
273,39,86416,1,10,0:0:0:0:
273,39,86577,1,0,1:0:0:0:
256,192,87700,12,0,89946,0:0:0:0:
