osu file format v14

[General]
AudioFilename: audio.mp3
AudioLeadIn: 0
PreviewTime: 42652
Countdown: 0
SampleSet: Soft
StackLeniency: 0.5
Mode: 0
LetterboxInBreaks: 0
WidescreenStoryboard: 0

[Editor]
DistanceSpacing: 0.3
BeatDivisor: 4
GridSize: 32
TimelineZoom: 4.399998

[Metadata]
Title:Tsuki o Ou Mayonaka (TV Size)
TitleUnicode:月を追う真夜中 (TV Size)
Artist:Aoi Eir
ArtistUnicode:藍井エイル
Creator:Nevertary
Version:Insane
Source:グランベルム
Tags:Midnight Chasing the Moon Following in Middle of Night Fragment Granbelm anime animation opening op japanese pop j-pop jpop Crunchyroll Nexus
BeatmapID:2480919
BeatmapSetID:1190716

[Difficulty]
HPDrainRate:5.5
CircleSize:4
OverallDifficulty:8
ApproachRate:9
SliderMultiplier:1.6
SliderTickRate:1

[Events]
//Background and Video events
0,0,"BG.jpg",0,0
Video,0,"BGvideo.avi"
//Break Periods
//Storyboard Layer 0 (Background)
//Storyboard Layer 1 (Fail)
//Storyboard Layer 2 (Pass)
//Storyboard Layer 3 (Foreground)
//Storyboard Layer 4 (Overlay)
//Storyboard Sound Samples

[TimingPoints]
588,320.855614973262,4,2,1,60,1,0
2432,-100,4,2,1,5,0,0
2513,-100,4,2,1,60,0,0
2833,-83.3333333333333,4,2,1,70,0,0
3074,-83.3333333333333,4,2,1,5,0,0
3154,-90.9090909090909,4,2,1,75,0,0
8208,-90.9090909090909,4,2,1,5,0,0
8288,-133.333333333333,4,2,1,60,0,0
13342,-133.333333333333,4,2,1,5,0,0
13422,-133.333333333333,4,2,1,60,0,0
18235,-83.3333333333333,4,2,1,60,0,0
18475,-83.3333333333333,4,2,1,5,0,0
18555,-117.647058823529,4,2,1,65,0,0
23689,-100,4,2,1,70,0,0
28823,-111.111111111111,4,2,1,65,0,0
32914,-111.111111111111,4,2,1,5,0,0
32994,-111.111111111111,4,2,1,65,0,0
33956,-100,4,2,1,70,0,0
44063,-83.3333333333333,4,2,1,80,0,1
47031,-83.3333333333333,4,2,1,5,0,1
47112,-83.3333333333333,4,2,1,80,0,1
49598,-83.3333333333333,4,2,1,5,0,1
49678,-83.3333333333333,4,2,1,80,0,1
50882,-83.3333333333333,4,2,1,5,0,1
50962,-83.3333333333333,4,2,1,80,0,1
56015,-83.3333333333333,4,2,1,5,0,1
56096,-83.3333333333333,4,2,1,80,0,1
59866,-83.3333333333333,4,2,1,5,0,1
59946,-83.3333333333333,4,2,1,80,0,1
64117,-83.3333333333333,4,2,1,80,0,0
64598,-83.3333333333333,4,2,1,80,0,1
67566,-83.3333333333333,4,2,1,5,0,1
67646,-83.3333333333333,4,2,1,80,0,1
70133,-83.3333333333333,4,2,1,5,0,1
70213,-83.3333333333333,4,2,1,80,0,1
71416,-83.3333333333333,4,2,1,5,0,1
71497,-83.3333333333333,4,2,1,80,0,1
74705,-71.4285714285714,4,2,1,80,0,1
74946,-71.4285714285714,4,2,1,5,0,1
75026,-83.3333333333333,4,2,1,80,0,1
75267,-83.3333333333333,4,2,1,5,0,1
75347,-83.3333333333333,4,2,1,80,0,1
80400,-83.3333333333333,4,2,1,5,0,1
80481,-83.3333333333333,4,2,1,80,0,1
86577,-83.3333333333333,4,2,1,80,0,0
86657,-83.3333333333333,4,2,1,5,0,0
87700,-83.3333333333333,4,2,1,80,0,0
89144,-83.3333333333333,4,2,1,60,0,0
89465,-83.3333333333333,4,2,1,40,0,0
89785,-83.3333333333333,4,2,1,20,0,0
89946,-83.3333333333333,4,2,1,5,0,0

[Colours]
Combo1 : 208,119,117
Combo2 : 58,84,171

[HitObjects]
256,192,1229,12,0,2432,0:0:0:0:
71,141,2513,5,8,3:0:0:0:
164,67,2673,1,0,1:0:0:0:
164,67,2753,1,0,1:0:0:0:
164,67,2833,2,0,B|238:41|238:110|312:83,1,143.999995605469,12|0,0:0|0:0,0:0:0:0:
339,70,3154,6,0,P|318:138|308:248,1,176.000005371094,6|10,1:2|0:0,0:0:0:0:
313,373,3636,2,0,P|288:331|235:310,1,88.000002685547,2|0,1:2|0:0,0:0:0:0:
108,381,3956,2,0,P|149:356|170:303,1,88.000002685547,2|8,1:2|0:0,0:0:0:0:
171,153,4277,5,2,0:0:0:0:
89,297,4438,1,2,1:2:0:0:
230,222,4598,1,2,1:2:0:0:
84,136,4759,1,10,0:0:0:0:
273,298,4919,2,0,L|468:282,1,176.000005371094,2|0,1:2|1:0,0:0:0:0:
348,161,5400,2,0,L|356:256,1,88.000002685547,10|0,0:0|0:0,0:0:0:0:
305,88,5721,6,0,P|352:76|404:97,1,88.000002685547,14|0,0:0|0:0,0:0:0:0:
355,248,6042,1,2,1:2:0:0:
207,88,6202,2,0,P|160:76|108:97,1,88.000002685547,14|0,0:0|0:0,0:0:0:0:
157,248,6523,1,0,1:0:0:0:
305,88,6684,2,0,P|352:76|404:97,1,88.000002685547,10|0,0:0|0:0,0:0:0:0:
225,313,7005,5,14,0:0:0:0:
256,168,7165,1,0,1:0:0:0:
368,266,7325,1,0,1:0:0:0:
492,114,7486,5,14,0:0:0:0:
461,258,7646,1,2,1:2:0:0:
348,161,7806,1,0,1:0:0:0:
225,313,7967,2,0,P|165:304|90:312,1,132.00000402832,12|0,0:0|0:0,0:0:0:0:
29,362,8288,6,0,P|54:312|41:247,1,120.000004577637,6|0,1:2|1:0,0:0:0:0:
135,51,8930,2,0,P|110:101|123:166,1,120.000004577637,2|2,1:2|1:2,0:0:0:0:
191,267,9411,2,0,L|198:192,1,60.0000022888184,2|0,0:0|1:0,0:0:0:0:
285,98,9732,2,0,L|297:243,1,120.000004577637,2|0,0:0|0:0,0:0:0:0:
398,320,10213,2,0,P|370:288|342:276,1,60.0000022888184,2|0,1:2|0:0,0:0:0:0:
231,345,10534,2,0,P|262:318|274:290,1,60.0000022888184,2|0,1:2|0:0,0:0:0:0:
116,196,10855,6,0,L|104:341,2,120.000004577637,6|2|2,1:2|1:2|1:2,0:0:0:0:
285,98,11817,1,2,1:2:0:0:
285,98,11978,2,0,L|297:243,1,120.000004577637,2|0,0:0|0:0,0:0:0:0:
303,306,12459,1,0,1:0:0:0:
414,216,12780,1,0,1:0:0:0:
414,216,12940,1,8,3:0:0:0:
494,253,13101,2,0,P|500:185|509:143,1,90.0000034332277,2|0,3:2|0:0,0:0:0:0:
512,119,13422,6,0,P|488:64|435:38,1,120.000004577637,6|2,1:2|1:2,0:0:0:0:
356,115,13903,2,0,P|409:91|436:39,1,120.000004577637,2|0,0:0|0:0,0:0:0:0:
351,28,14384,1,2,1:2:0:0:
268,111,14545,2,0,L|123:99,1,120.000004577637,2|0,0:0|0:0,0:0:0:0:
77,48,15026,1,0,1:0:0:0:
119,263,15347,2,0,P|146:232|174:220,1,60.0000022888184,2|0,1:2|0:0,0:0:0:0:
237,341,15668,2,0,P|210:310|182:298,1,60.0000022888184,2|0,1:2|0:0,0:0:0:0:
0,273,15989,6,0,L|145:261,1,120.000004577637,6|2,1:2|1:2,0:0:0:0:
207,171,16470,2,0,L|62:159,1,120.000004577637,2|0,0:0|0:0,0:0:0:0:
205,257,16951,1,2,0:0:0:0:
294,150,17112,2,0,L|297:179,1,30.0000011444092,8|2,3:0|3:0,0:0:0:0:
305,294,17272,5,8,0:0:0:0:
305,294,18074,5,0,1:0:0:0:
305,294,18154,1,0,1:0:0:0:
305,294,18235,2,0,B|379:268|379:337|453:310,1,143.999995605469,14|0,0:0|0:0,0:0:0:0:
481,309,18555,6,0,L|488:227,1,68.0000012969971,6|0,1:2|0:0,0:0:0:0:
389,149,18876,2,0,L|396:231,1,68.0000012969971,2|0,1:2|0:0,0:0:0:0:
452,88,19197,2,0,P|384:63|313:101,1,136.000002593994,2|2,1:2|1:2,0:0:0:0:
224,196,19678,6,0,P|254:175|276:140,1,68.0000012969971,2|0,0:0|1:0,0:0:0:0:
65,121,19999,2,0,P|133:96|204:134,1,136.000002593994,2|0,0:0|0:0,0:0:0:0:
134,253,20481,2,0,L|127:171,1,68.0000012969971,2|0,1:2|0:0,0:0:0:0:
256,65,20801,1,10,0:0:0:0:
256,65,21122,6,0,P|292:58|332:67,1,68.0000012969971,2|0,1:2|0:0,0:0:0:0:
448,128,21443,2,0,P|412:121|372:130,1,68.0000012969971,2|0,1:2|0:0,0:0:0:0:
303,279,21764,2,0,L|290:140,1,136.000002593994,2|2,1:2|1:2,0:0:0:0:
213,241,22245,1,2,0:0:0:0:
386,222,22406,6,0,P|451:252|475:329,2,136.000002593994,0|0|0,1:0|1:0|1:0,0:0:0:0:
213,241,23368,1,10,0:0:0:0:
213,241,23689,6,0,P|130:222|51:222,1,160,6|10,1:2|0:0,0:0:0:0:
102,302,24170,1,2,0:0:0:0:
239,159,24331,2,0,P|279:185|298:225,1,80,0|0,1:0|0:0,0:0:0:0:
384,345,24652,2,0,P|344:319|324:278,1,80,10|0,0:0|0:0,0:0:0:0:
417,183,24973,6,0,L|407:284,1,80,2|0,1:2|0:0,0:0:0:0:
335,159,25293,2,0,P|362:119|401:100,1,80,10|0,0:0|0:0,0:0:0:0:
226,211,25614,2,0,L|125:201,1,80,2|0,1:2|0:0,0:0:0:0:
250,296,25935,2,0,P|290:269|309:230,1,80,10|0,0:0|0:0,0:0:0:0:
512,304,26256,6,0,P|440:273|369:304,1,160,2|10,1:2|0:0,0:0:0:0:
305,366,26737,1,2,0:0:0:0:
258,216,26898,2,0,L|250:295,1,80,0|0,1:0|0:0,0:0:0:0:
404,196,27219,2,0,P|377:156|338:137,1,80,8|2,0:0|0:0,0:0:0:0:
272,130,27459,5,2,0:0:0:0:
272,130,27539,2,0,L|192:122,1,80,2|0,1:2|0:0,0:0:0:0:
51,191,27860,2,0,L|131:183,1,80,10|0,0:0|0:0,0:0:0:0:
221,320,28181,1,8,3:0:0:0:
213,238,28342,1,0,1:0:0:0:
43,273,28502,1,10,0:0:0:0:
51,191,28663,1,2,1:2:0:0:
213,238,28823,6,0,P|288:221|369:221,1,143.999995605469,6|2,1:2|0:0,0:0:0:0:
446,343,29304,2,0,P|414:322|392:283,1,71.9999978027344,2|0,1:2|0:0,0:0:0:0:
355,220,29625,1,0,1:0:0:0:
478,124,29785,2,0,P|457:155|418:177,1,71.9999978027344,8|0,0:0|0:0,0:0:0:0:
240,127,30106,5,4,1:2:0:0:
240,127,30427,2,0,L|142:117,1,71.9999978027344,2|0,0:0|1:0,0:0:0:0:
43,194,30748,2,0,L|141:184,1,71.9999978027344,2|8,0:0|3:0,0:0:0:0:
155,32,31069,1,2,3:2:0:0:
155,32,31390,6,0,P|230:15|311:15,1,143.999995605469,6|2,1:2|0:0,0:0:0:0:
422,101,31871,2,0,P|401:69|362:47,1,71.9999978027344,2|0,1:2|0:0,0:0:0:0:
293,182,32192,2,0,P|313:150|352:128,1,71.9999978027344,2|8,1:2|0:0,0:0:0:0:
431,256,32513,1,2,0:0:0:0:
293,182,32673,6,0,P|234:167|171:167,1,107.999996704102,0|0,1:0|0:0,0:0:0:0:
136,213,32994,2,0,P|167:194|187:165,1,71.9999978027344,12|0,0:0|0:0,0:0:0:0:
144,87,33315,1,0,1:0:0:0:
144,87,33475,1,8,3:0:0:0:
50,182,33636,1,2,1:2:0:0:
51,192,33716,1,0,1:0:0:0:
52,202,33796,1,2,1:2:0:0:
53,212,33876,1,0,1:0:0:0:
54,222,33956,6,0,P|84:278|185:280,1,160,6|10,1:2|0:0,0:0:0:0:
300,193,34438,2,0,L|199:203,1,80,2|0,0:0|1:0,0:0:0:0:
322,275,34759,1,2,0:0:0:0:
362,133,34919,1,10,0:0:0:0:
300,193,35079,1,2,0:0:0:0:
460,296,35240,6,0,P|479:213|479:134,1,160,0|8,1:0|0:0,0:0:0:0:
422,72,35721,1,2,0:0:0:0:
362,133,35882,1,2,1:2:0:0:
339,49,36042,1,2,0:0:0:0:
300,193,36202,1,10,0:0:0:0:
281,109,36363,1,2,0:0:0:0:
239,252,36523,6,0,P|167:283|96:252,1,160,6|8,1:2|0:0,0:0:0:0:
42,183,37005,1,2,0:0:0:0:
162,115,37165,2,0,L|172:216,1,80,2|0,1:2|0:0,0:0:0:0:
319,301,37486,2,0,L|329:200,1,80,8|0,0:0|0:0,0:0:0:0:
448,112,37807,6,0,P|421:151|382:170,1,80,2|0,1:2|0:0,0:0:0:0:
311,33,38128,2,0,P|352:59|371:98,1,80,10|0,0:0|0:0,0:0:0:0:
225,172,38448,1,2,1:2:0:0:
288,115,38609,1,2,0:0:0:0:
266,267,38769,1,10,0:0:0:0:
373,174,38930,1,2,0:0:0:0:
185,249,39090,6,0,B|109:215|109:298|24:262,1,160,6|2,1:2|1:2,0:0:0:0:
53,108,39571,2,0,L|63:209,1,80,10|0,0:0|0:0,0:0:0:0:
246,107,39892,1,0,0:0:0:0:
185,249,40053,1,10,0:0:0:0:
174,158,40214,1,2,0:0:0:0:
103,354,40374,6,0,P|186:335|265:335,1,160,4|0,1:2|1:0,0:0:0:0:
381,290,40855,1,10,0:0:0:0:
294,176,41015,2,0,L|301:255,1,80,2|0,0:0|1:0,0:0:0:0:
460,344,41336,2,0,L|467:264,1,80,8|0,0:0|0:0,0:0:0:0:
489,73,41657,5,10,0:0:0:0:
391,204,41817,1,2,1:2:0:0:
391,204,41898,1,0,1:0:0:0:
391,204,41978,1,2,3:2:0:0:
314,65,42138,1,10,0:0:0:0:
314,65,42459,5,2,1:2:0:0:
477,197,42620,1,10,0:0:0:0:
281,206,42780,1,2,0:0:0:0:
459,113,42940,1,2,1:2:0:0:
459,113,44063,6,0,B|366:71|366:171|265:125,1,191.999994140625,6|0,1:2|1:0,0:0:0:0:
126,37,44545,2,0,P|171:64|193:114,1,95.9999970703126,10|0,0:0|0:0,0:0:0:0:
113,220,44866,2,0,L|104:111,1,95.9999970703126,2|0,1:2|1:0,0:0:0:0:
178,285,45186,1,10,0:0:0:0:
26,245,45347,1,2,0:0:0:0:
200,198,45507,6,0,P|245:225|267:275,1,95.9999970703126,2|0,1:2|1:0,0:0:0:0:
113,220,45828,1,10,0:0:0:0:
148,39,45989,2,0,L|139:148,1,95.9999970703126,2|0,0:0|1:0,0:0:0:0:
318,8,46309,2,0,L|327:117,1,95.9999970703126,2|8,1:2|0:0,0:0:0:0:
345,277,46630,1,2,0:0:0:0:
512,210,46791,6,0,P|441:188|352:188,1,143.999995605469,0|0,1:0|0:0,0:0:0:0:
333,190,47112,1,10,0:0:0:0:
363,362,47272,2,0,P|408:334|430:284,1,95.9999970703126,2|0,0:0|1:0,0:0:0:0:
314,106,47593,2,0,P|268:133|246:183,1,95.9999970703126,2|8,1:2|0:0,0:0:0:0:
217,312,47914,1,2,0:0:0:0:
88,221,48074,5,0,1:0:0:0:
183,228,48235,1,0,1:0:0:0:
34,296,48395,1,8,0:0:0:0:
80,125,48555,2,0,L|89:234,1,95.9999970703126,2|0,0:0|1:0,0:0:0:0:
152,68,48876,1,2,1:2:0:0:
0,87,49037,1,10,0:0:0:0:
211,143,49197,5,10,0:0:0:0:
211,143,49277,1,8,0:0:0:0:
211,143,49358,2,0,P|282:121|371:121,1,143.999995605469,6|0,1:2|0:0,0:0:0:0:
388,122,49678,1,10,0:0:0:0:
500,264,49839,2,0,P|472:219|422:197,1,95.9999970703126,2|0,0:0|1:0,0:0:0:0:
331,294,50160,2,0,P|359:339|409:361,1,95.9999970703126,2|8,1:2|0:0,0:0:0:0:
345,202,50481,1,2,0:0:0:0:
241,289,50641,6,0,L|91:277,1,143.999995605469,0|0,1:0|0:0,0:0:0:0:
13,252,50962,2,0,L|122:243,1,95.9999970703126,10|0,0:0|0:0,0:0:0:0:
243,169,51283,2,0,L|134:160,1,95.9999970703126,2|0,1:2|1:0,0:0:0:0:
13,89,51604,2,0,L|122:80,1,95.9999970703126,10|0,0:0|0:0,0:0:0:0:
359,29,51924,6,0,P|314:57|292:107,1,95.9999970703126,6|0,1:2|0:0,0:0:0:0:
366,274,52245,5,8,0:0:0:0:
384,116,52406,1,2,1:2:0:0:
261,327,52566,5,8,0:0:0:0:
243,169,52727,1,2,1:2:0:0:
421,349,52887,5,10,0:0:0:0:
439,191,53048,1,2,1:2:0:0:
261,327,53208,5,4,1:2:0:0:
112,222,53368,1,8,1:2:0:0:
112,222,53448,1,8,0:0:0:0:
112,222,53529,2,0,L|51:217,3,47.9999985351563,8|0|0|0,0:0|1:0|1:0|1:0,0:0:0:0:
195,172,53850,2,0,L|256:167,3,47.9999985351563,8|0|0|0,1:2|1:0|1:0|1:0,0:0:0:0:
193,261,54170,5,8,0:0:0:0:
191,284,54250,1,8,0:0:0:0:
189,308,54330,1,8,0:0:0:0:
187,332,54410,1,8,0:0:0:0:
185,356,54491,6,0,P|213:311|263:289,1,95.9999970703126,6|0,1:2|0:0,0:0:0:0:
429,333,54812,2,0,P|376:331|331:298,1,95.9999970703126,10|0,0:0|0:0,0:0:0:0:
286,134,55133,2,0,P|310:180|305:235,1,95.9999970703126,2|0,1:2|1:0,0:0:0:0:
125,206,55454,2,0,L|234:197,1,95.9999970703126,10|0,0:0|0:0,0:0:0:0:
365,68,55775,6,0,P|294:46|205:46,1,143.999995605469,2|0,1:2|0:0,0:0:0:0:
188,47,56095,1,10,0:0:0:0:
309,222,56256,2,0,P|350:198|374:157,1,95.9999970703126,2|0,0:0|1:0,0:0:0:0:
365,68,56577,1,2,1:2:0:0:
203,222,56737,2,0,P|161:198|137:157,1,95.9999970703126,8|0,0:0|0:0,0:0:0:0:
11,358,57058,6,0,P|84:285|173:316,1,191.999994140625,2|8,1:2|0:0,0:0:0:0:
294,356,57539,1,2,0:0:0:0:
279,167,57700,2,0,L|288:276,1,95.9999970703126,2|0,1:2|1:0,0:0:0:0:
438,106,58021,2,0,L|429:215,1,95.9999970703126,10|0,0:0|0:0,0:0:0:0:
269,74,58342,6,0,B|176:32|176:132|75:86,1,191.999994140625,2|8,1:2|0:0,0:0:0:0:
7,255,58823,1,2,0:0:0:0:
102,249,58984,1,2,1:2:0:0:
50,172,59144,1,0,1:0:0:0:
59,332,59304,1,8,0:0:0:0:
196,240,59465,5,8,0:0:0:0:
196,240,59545,1,8,0:0:0:0:
196,240,59625,2,0,P|267:218|356:218,1,143.999995605469,6|0,1:2|0:0,0:0:0:0:
373,219,59945,1,10,0:0:0:0:
278,81,60106,2,0,P|237:105|213:146,1,95.9999970703126,2|0,0:0|1:0,0:0:0:0:
131,304,60427,2,0,P|172:280|196:239,1,95.9999970703126,2|8,1:2|0:0,0:0:0:0:
133,106,60748,1,2,0:0:0:0:
28,244,60908,6,0,L|19:135,1,95.9999970703126,0|0,1:0|1:0,0:0:0:0:
81,34,61229,1,10,0:0:0:0:
216,162,61390,2,0,L|225:53,1,95.9999970703126,2|0,0:0|1:0,0:0:0:0:
354,244,61710,2,0,L|345:135,1,95.9999970703126,2|8,1:2|0:0,0:0:0:0:
308,323,62031,1,2,0:0:0:0:
155,233,62192,6,0,P|109:220|63:233,1,95.9999970703126,4|0,1:2|0:0,0:0:0:0:
198,320,62513,5,8,0:0:0:0:
216,162,62674,1,0,1:0:0:0:
354,244,62833,5,10,0:0:0:0:
336,86,62994,1,0,1:0:0:0:
155,233,63154,5,8,0:0:0:0:
173,75,63315,1,0,1:0:0:0:
354,244,63475,6,0,L|415:239,3,47.9999985351563,10|8|8|8,0:0|0:0|0:0|0:0,0:0:0:0:
265,257,63796,5,8,0:0:0:0:
263,280,63876,1,8,0:0:0:0:
261,304,63956,1,8,0:0:0:0:
259,328,64036,1,8,0:0:0:0:
257,353,64117,5,2,1:2:0:0:
216,162,64277,1,2,1:2:0:0:
216,162,64598,6,0,B|123:120|123:220|22:174,1,191.999994140625,6|0,1:2|1:0,0:0:0:0:
240,76,65079,2,0,P|281:100|305:141,1,95.9999970703126,14|0,0:0|0:0,0:0:0:0:
241,305,65400,2,0,P|200:281|176:240,1,95.9999970703126,2|0,1:2|1:0,0:0:0:0:
335,262,65721,2,0,L|326:371,1,95.9999970703126,10|0,0:0|0:0,0:0:0:0:
469,174,66042,6,0,L|478:283,1,95.9999970703126,2|0,1:2|1:0,0:0:0:0:
395,118,66363,1,10,0:0:0:0:
256,212,66523,2,0,P|210:224|164:212,1,95.9999970703126,2|0,0:0|1:0,0:0:0:0:
0,161,66844,2,0,P|45:148|91:161,1,95.9999970703126,2|8,1:2|0:0,0:0:0:0:
168,308,67165,1,2,0:0:0:0:
256,212,67325,6,0,P|327:190|416:190,1,143.999995605469,0|0,1:0|0:0,0:0:0:0:
433,191,67645,1,10,0:0:0:0:
340,50,67807,2,0,P|299:74|275:115,1,95.9999970703126,2|0,0:0|1:0,0:0:0:0:
276,299,68128,2,0,P|317:275|341:234,1,95.9999970703126,2|8,1:2|0:0,0:0:0:0:
177,142,68448,1,2,0:0:0:0:
13,246,68609,6,0,L|4:137,1,95.9999970703126,2|0,1:2|0:0,0:0:0:0:
118,306,68930,2,0,L|109:197,1,95.9999970703126,10|0,0:0|0:0,0:0:0:0:
223,366,69251,2,0,L|214:257,1,95.9999970703126,2|0,1:2|1:0,0:0:0:0:
275,114,69571,1,10,0:0:0:0:
386,297,69732,5,10,0:0:0:0:
386,297,69812,1,8,0:0:0:0:
386,297,69892,2,0,P|408:226|408:137,1,143.999995605469,6|0,1:2|0:0,0:0:0:0:
407,120,70212,1,10,0:0:0:0:
228,194,70374,2,0,P|273:206|319:194,1,95.9999970703126,2|0,0:0|1:0,0:0:0:0:
452,44,70694,2,0,P|406:31|360:44,1,95.9999970703126,2|8,1:2|0:0,0:0:0:0:
275,114,71015,1,2,0:0:0:0:
137,31,71176,6,0,L|125:181,1,143.999995605469,0|0,1:0|0:0,0:0:0:0:
93,260,71497,2,0,L|102:151,1,95.9999970703126,10|0,0:0|0:0,0:0:0:0:
241,311,71817,2,0,L|232:202,1,95.9999970703126,2|0,1:2|1:0,0:0:0:0:
59,345,72138,2,0,L|68:236,1,95.9999970703126,10|0,0:0|1:0,0:0:0:0:
362,345,72459,6,0,P|407:357|453:345,1,95.9999970703126,14|0,0:0|1:0,0:0:0:0:
320,176,72780,1,0,1:0:0:0:
150,345,72940,2,0,P|105:357|59:345,1,95.9999970703126,14|0,0:0|1:0,0:0:0:0:
192,176,73261,1,2,1:2:0:0:
256,320,73422,1,10,0:0:0:0:
256,106,73582,1,2,1:2:0:0:
129,245,73743,5,4,1:2:0:0:
70,82,73903,1,0,1:0:0:0:
70,82,73983,1,0,1:0:0:0:
70,82,74064,2,0,L|9:77,3,47.9999985351563,8|0|0|0,0:0|1:0|1:0|1:0,0:0:0:0:
137,146,74384,5,8,0:0:0:0:
135,169,74464,1,0,0:0:0:0:
133,193,74544,1,2,3:0:0:0:
131,217,74624,1,0,1:0:0:0:
129,245,74705,6,0,B|214:214|214:288|303:257,1,167.999994873047,12|0,0:0|0:0,0:0:0:0:
330,252,75026,6,0,P|332:180|354:111,1,143.999995605469,6|0,1:2|0:0,0:0:0:0:
372,78,75346,1,14,0:0:0:0:
503,249,75507,2,0,P|479:208|438:184,1,95.9999970703126,2|0,0:0|1:0,0:0:0:0:
352,339,75828,2,0,P|392:315|416:274,1,95.9999970703126,2|8,1:2|0:0,0:0:0:0:
372,78,76149,1,2,0:0:0:0:
230,176,76309,6,0,L|121:167,1,95.9999970703126,0|0,1:0|1:0,0:0:0:0:
259,88,76630,2,0,P|299:112|323:153,1,95.9999970703126,10|0,0:0|0:0,0:0:0:0:
266,361,76951,2,0,P|266:314|290:273,1,95.9999970703126,2|0,1:2|1:0,0:0:0:0:
495,216,77272,2,0,P|454:238|406:238,1,95.9999970703126,10|0,0:0|0:0,0:0:0:0:
377,51,77593,6,0,P|404:147|404:247,1,191.999994140625,2|8,1:2|0:0,0:0:0:0:
311,161,78074,1,2,0:0:0:0:
175,342,78235,2,0,P|177:247|204:155,1,191.999994140625,2|8,1:2|0:0,0:0:0:0:
270,265,78716,1,2,0:0:0:0:
112,143,78876,6,0,P|67:131|21:143,1,95.9999970703126,2|0,1:2|1:0,0:0:0:0:
140,229,79197,1,10,0:0:0:0:
194,104,79358,1,2,0:0:0:0:
270,265,79518,2,0,L|261:156,1,95.9999970703126,2|0,1:2|1:0,0:0:0:0:
121,53,79839,1,8,0:0:0:0:
317,93,79999,5,8,0:0:0:0:
317,93,80079,1,8,0:0:0:0:
317,93,80159,2,0,P|388:71|477:71,1,143.999995605469,6|0,1:2|0:0,0:0:0:0:
494,72,80481,1,10,0:0:0:0:
416,241,80641,2,0,P|375:217|351:176,1,95.9999970703126,2|0,0:0|1:0,0:0:0:0:
252,27,80962,2,0,P|292:50|316:91,1,95.9999970703126,2|8,1:2|0:0,0:0:0:0:
270,265,81283,1,2,0:0:0:0:
132,123,81443,6,0,L|241:114,1,95.9999970703126,0|0,1:0|1:0,0:0:0:0:
98,250,81764,1,10,0:0:0:0:
54,76,81924,2,0,P|41:121|54:167,1,95.9999970703126,2|0,0:0|1:0,0:0:0:0:
176,295,82245,2,0,P|188:249|176:203,1,95.9999970703126,2|8,1:2|0:0,0:0:0:0:
10,244,82566,1,2,0:0:0:0:
279,227,82727,6,0,L|388:218,1,95.9999970703126,4|0,1:2|0:0,0:0:0:0:
194,45,83047,5,8,0:0:0:0:
176,203,83208,1,2,1:2:0:0:
314,142,83368,5,8,0:0:0:0:
332,300,83529,1,2,1:2:0:0:
176,203,83689,6,0,L|67:194,1,95.9999970703126,10|0,0:0|1:0,0:0:0:0:
236,307,84010,2,0,L|345:298,1,95.9999970703126,8|0,0:0|1:0,0:0:0:0:
439,210,84331,5,8,0:0:0:0:
421,368,84492,1,2,1:2:0:0:
274,225,84652,5,8,0:0:0:0:
292,383,84813,1,2,1:2:0:0:
118,275,84973,6,0,L|9:266,1,95.9999970703126,14|0,0:0|0:0,0:0:0:0:
281,149,85293,5,2,1:2:0:0:
279,168,85373,1,0,1:0:0:0:
277,187,85453,1,8,0:0:0:0:
276,206,85533,1,8,0:0:0:0:
274,225,85613,1,10,1:2:0:0:
392,308,85775,5,10,0:0:0:0:
392,308,85855,1,8,0:0:0:0:
392,308,85936,2,0,L|397:369,3,47.9999985351563,8|8|10|8,1:2|0:0|0:0|0:0,0:0:0:0:
435,224,86256,5,8,1:2:0:0:
437,201,86336,1,8,0:0:0:0:
439,177,86416,1,10,0:0:0:0:
441,153,86496,1,8,0:0:0:0:
442,129,86577,6,0,L|445:81,1,47.9999985351563,0|0,1:0|0:0,0:0:0:0:
256,192,87700,5,6,1:2:0:0:
256,192,87780,12,0,89946,0:0:0:0:
