osu file format v14

[General]
AudioFilename: audio.mp3
AudioLeadIn: 0
PreviewTime: 42652
Countdown: 0
SampleSet: Soft
StackLeniency: 0.4
Mode: 0
LetterboxInBreaks: 0
WidescreenStoryboard: 0

[Editor]
DistanceSpacing: 1.3
BeatDivisor: 4
GridSize: 32
TimelineZoom: 4.399998

[Metadata]
Title:Tsuki o Ou Mayonaka (TV Size)
TitleUnicode:月を追う真夜中 (TV Size)
Artist:Aoi Eir
ArtistUnicode:藍井エイル
Creator:Nevertary
Version:Hard
Source:グランベルム
Tags:Midnight Chasing the Moon Following in Middle of Night Fragment Granbelm anime animation opening op japanese pop j-pop jpop Crunchyroll Nexus
BeatmapID:2480918
BeatmapSetID:1190716

[Difficulty]
HPDrainRate:5
CircleSize:3.8
OverallDifficulty:6
ApproachRate:8
SliderMultiplier:1.4
SliderTickRate:1

[Events]
//Background and Video events
0,0,"BG.jpg",0,0
Video,0,"BGvideo.avi"
//Break Periods
//Storyboard Layer 0 (Background)
//Storyboard Layer 1 (Fail)
//Storyboard Layer 2 (Pass)
//Storyboard Layer 3 (Foreground)
//Storyboard Layer 4 (Overlay)
//Storyboard Sound Samples

[TimingPoints]
588,320.855614973262,4,2,1,60,1,0
2833,-100,4,2,1,70,0,0
3074,-100,4,2,1,5,0,0
3154,-105.263157894737,4,2,1,75,0,0
8288,-117.647058823529,4,2,1,60,0,0
13342,-117.647058823529,4,2,1,5,0,0
13422,-117.647058823529,4,2,1,60,0,0
18475,-117.647058823529,4,2,1,5,0,0
18555,-111.111111111111,4,2,1,65,0,0
23689,-105.263157894737,4,2,1,70,0,0
28823,-111.111111111111,4,2,1,65,0,0
33956,-105.263157894737,4,2,1,70,0,0
44063,-100,4,2,1,80,0,1
64117,-100,4,2,1,80,0,0
64598,-100,4,2,1,80,0,1
74946,-100,4,2,1,5,0,1
75026,-100,4,2,1,80,0,1
86577,-100,4,2,1,80,0,0
87700,-100,4,2,1,80,0,0
89144,-100,4,2,1,60,0,0
89465,-100,4,2,1,40,0,0
89785,-100,4,2,1,20,0,0
89946,-100,4,2,1,5,0,0

[Colours]
Combo1 : 208,119,117
Combo2 : 58,84,171

[HitObjects]
232,49,2513,5,8,3:0:0:0:
316,97,2673,1,0,1:0:0:0:
316,97,2753,1,0,1:0:0:0:
316,97,2833,2,0,L|454:83,1,105,12|0,0:0|0:0,0:0:0:0:
462,79,3154,6,0,P|443:164|442:221,1,132.999996448517,6|10,1:2|0:0,0:0:0:0:
401,287,3636,2,0,L|319:279,1,66.4999982242585,2|0,1:2|0:0,0:0:0:0:
262,325,3956,2,0,L|180:317,1,66.4999982242585,2|8,1:2|0:0,0:0:0:0:
127,265,4277,1,2,0:0:0:0:
49,304,4438,6,0,L|41:386,2,66.4999982242585,2|2|10,1:2|1:2|0:0,0:0:0:0:
21,221,4919,2,0,P|25:154|41:90,1,132.999996448517,2|0,1:2|1:0,0:0:0:0:
68,10,5400,2,0,P|106:34|122:58,1,66.4999982242585,10|0,0:0|0:0,0:0:0:0:
173,155,5721,6,0,P|240:132|299:160,1,132.999996448517,14|2,0:0|1:2,0:0:0:0:
297,242,6202,2,0,P|230:265|171:237,1,132.999996448517,14|2,0:0|1:2,0:0:0:0:
97,203,6684,2,0,L|15:195,1,66.4999982242585,10|0,0:0|1:0,0:0:0:0:
0,89,7005,6,0,L|82:81,1,66.4999982242585,14|0,0:0|1:0,0:0:0:0:
139,127,7325,1,0,1:0:0:0:
205,71,7486,1,12,0:0:0:0:
280,113,7646,2,0,L|362:105,1,66.4999982242585,2|0,1:2|1:0,0:0:0:0:
406,43,7967,2,0,L|488:35,1,66.4999982242585,12|0,0:0|0:0,0:0:0:0:
494,155,8288,6,0,P|478:228|478:295,1,119.000002269745,6|0,1:2|1:0,0:0:0:0:
354,368,8930,2,0,P|281:352|214:352,1,119.000002269745,2|2,1:2|1:2,0:0:0:0:
156,356,9411,1,2,0:0:0:0:
48,245,9732,2,0,P|32:175|58:127,1,119.000002269745,2|0,0:0|0:0,0:0:0:0:
105,74,10213,1,2,1:2:0:0:
223,173,10534,1,2,1:2:0:0:
331,63,10855,6,0,L|468:49,1,119.000002269745,6|2,1:2|1:2,0:0:0:0:
512,205,11497,2,0,P|473:265|421:281,1,119.000002269745,2|2,1:2|1:2,0:0:0:0:
351,264,11978,2,0,L|337:127,1,119.000002269745,2|0,0:0|0:0,0:0:0:0:
331,63,12459,1,0,1:0:0:0:
227,205,12780,1,0,1:0:0:0:
227,205,12940,1,8,3:0:0:0:
164,147,13101,2,0,P|159:88|153:56,1,89.2500017023087,2|0,3:2|0:0,0:0:0:0:
137,35,13422,6,0,P|67:19|19:45,1,119.000002269745,6|2,1:2|1:2,0:0:0:0:
0,117,13903,2,0,P|16:190|16:257,1,119.000002269745,2|0,0:0|0:0,0:0:0:0:
52,309,14385,1,2,1:2:0:0:
125,267,14545,2,0,P|195:251|243:277,1,119.000002269745,2|0,0:0|0:0,0:0:0:0:
298,326,15026,1,0,1:0:0:0:
435,348,15347,1,2,1:2:0:0:
508,215,15668,1,2,1:2:0:0:
408,104,15989,6,0,L|271:90,1,119.000002269745,6|2,1:2|1:2,0:0:0:0:
214,56,16470,2,0,P|156:85|140:155,1,119.000002269745,2|2,0:0|0:0,0:0:0:0:
158,213,16951,2,0,P|166:253|168:281,1,59.5000011348725,2|8,1:2|3:0,0:0:0:0:
174,306,17192,1,2,3:0:0:0:
174,306,17272,1,8,0:0:0:0:
174,306,18074,5,0,1:0:0:0:
174,306,18154,1,0,1:0:0:0:
174,306,18235,2,0,P|230:297|285:297,1,89.2500017023087,14|0,0:0|0:0,0:0:0:0:
303,300,18555,6,0,P|367:318|434:286,1,125.999996154785,6|2,1:2|1:2,0:0:0:0:
507,157,19197,2,0,P|443:175|376:143,1,125.999996154785,2|2,1:2|1:2,0:0:0:0:
322,106,19678,2,0,L|236:98,1,62.9999980773926,2|0,0:0|1:0,0:0:0:0:
177,91,19999,2,0,P|190:163|190:221,1,125.999996154785,2|0,0:0|0:0,0:0:0:0:
179,297,20481,2,0,P|217:292|253:299,1,62.9999980773926,2|0,1:2|0:0,0:0:0:0:
317,325,20801,1,10,0:0:0:0:
468,263,21122,6,0,P|469:200|481:138,1,125.999996154785,2|2,1:2|1:2,0:0:0:0:
349,39,21764,2,0,P|286:37|224:25,1,125.999996154785,2|2,1:2|1:2,0:0:0:0:
142,17,22245,1,2,0:0:0:0:
91,81,22406,2,0,L|79:222,2,125.999996154785,0|0|0,1:0|1:0|1:0,0:0:0:0:
246,28,23368,1,10,0:0:0:0:
400,106,23689,6,0,P|422:172|384:240,1,132.999996448517,6|10,1:2|0:0,0:0:0:0:
334,287,24170,1,2,0:0:0:0:
254,252,24331,2,0,P|185:241|110:241,1,132.999996448517,0|10,1:0|0:0,0:0:0:0:
40,270,24812,1,0,0:0:0:0:
5,192,24973,6,0,L|12:115,1,66.4999982242585,2|0,1:2|0:0,0:0:0:0:
59,54,25293,2,0,L|136:61,1,66.4999982242585,10|0,0:0|0:0,0:0:0:0:
191,116,25614,2,0,L|257:122,1,66.4999982242585,2|0,1:2|0:0,0:0:0:0:
329,74,25935,2,0,L|406:81,1,66.4999982242585,10|0,0:0|0:0,0:0:0:0:
467,128,26256,6,0,P|489:204|456:255,1,132.999996448517,2|10,1:2|0:0,0:0:0:0:
403,308,26737,1,2,0:0:0:0:
325,268,26898,2,0,P|256:257|181:257,1,132.999996448517,0|8,1:0|0:0,0:0:0:0:
107,273,27379,5,2,0:0:0:0:
107,273,27459,1,2,0:0:0:0:
107,273,27539,2,0,P|113:222|104:195,1,66.4999982242585,2|0,1:2|0:0,0:0:0:0:
76,127,27860,2,0,P|70:76|79:49,1,66.4999982242585,10|0,0:0|0:0,0:0:0:0:
153,28,28181,1,8,3:0:0:0:
153,28,28342,1,0,1:0:0:0:
234,67,28502,1,10,0:0:0:0:
234,67,28662,1,2,1:2:0:0:
343,26,28823,6,0,P|328:98|328:172,1,125.999996154785,6|2,1:2|0:0,0:0:0:0:
331,232,29304,2,0,P|261:222|213:259,1,125.999996154785,2|0,1:2|1:0,0:0:0:0:
157,307,29785,2,0,L|82:300,1,62.9999980773926,8|0,0:0|0:0,0:0:0:0:
31,247,30106,1,4,1:2:0:0:
61,86,30427,6,0,P|93:80|129:87,1,62.9999980773926,2|0,0:0|1:0,0:0:0:0:
200,113,30748,2,0,P|232:119|268:112,1,62.9999980773926,2|8,0:0|3:0,0:0:0:0:
342,99,31069,1,2,3:2:0:0:
451,220,31390,6,0,P|466:148|466:74,1,125.999996154785,6|2,1:2|0:0,0:0:0:0:
424,25,31871,2,0,L|349:18,1,62.9999980773926,2|0,1:2|0:0,0:0:0:0:
279,15,32192,2,0,L|272:90,1,62.9999980773926,2|8,1:2|0:0,0:0:0:0:
263,161,32513,1,2,0:0:0:0:
182,133,32673,6,0,P|150:127|114:134,1,62.9999980773926,0|0,1:0|0:0,0:0:0:0:
55,184,32994,2,0,P|49:216|56:252,1,62.9999980773926,12|0,0:0|0:0,0:0:0:0:
79,330,33315,1,0,1:0:0:0:
79,330,33475,1,8,3:0:0:0:
160,344,33636,2,0,L|210:339,3,31.4999990386963,2|0|2|0,1:2|1:0|1:2|1:0,0:0:0:0:
208,310,33956,6,0,P|229:234|201:184,1,132.999996448517,6|10,1:2|0:0,0:0:0:0:
190,102,34438,2,0,P|254:118|320:122,1,132.999996448517,2|2,0:0|0:0,0:0:0:0:
395,78,34919,1,10,0:0:0:0:
474,106,35079,1,2,0:0:0:0:
502,187,35240,6,0,P|490:264|444:299,1,132.999996448517,0|8,1:0|0:0,0:0:0:0:
368,324,35721,1,2,0:0:0:0:
290,284,35882,2,0,L|208:276,1,66.4999982242585,2|2,1:2|0:0,0:0:0:0:
150,322,36202,2,0,L|68:314,1,66.4999982242585,10|2,0:0|0:0,0:0:0:0:
11,226,36523,6,0,P|22:148|68:113,1,132.999996448517,6|8,1:2|0:0,0:0:0:0:
141,80,37005,1,2,0:0:0:0:
213,126,37165,2,0,P|277:109|343:105,1,132.999996448517,2|8,1:2|0:0,0:0:0:0:
430,101,37646,1,0,0:0:0:0:
487,166,37807,6,0,P|495:205|489:239,1,66.4999982242585,2|0,1:2|0:0,0:0:0:0:
434,296,38128,2,0,P|395:304|361:298,1,66.4999982242585,10|0,0:0|0:0,0:0:0:0:
315,232,38448,2,0,P|307:193|313:159,1,66.4999982242585,2|2,1:2|0:0,0:0:0:0:
332,82,38769,1,10,0:0:0:0:
265,26,38930,1,2,0:0:0:0:
189,106,39090,6,0,P|124:89|58:85,1,132.999996448517,6|2,1:2|1:2,0:0:0:0:
13,161,39571,2,0,P|7:233|64:281,1,132.999996448517,10|0,0:0|1:0,0:0:0:0:
137,284,40053,1,10,0:0:0:0:
137,284,40213,1,2,0:0:0:0:
223,355,40374,6,0,P|287:338|353:334,1,132.999996448517,4|0,1:2|1:0,0:0:0:0:
434,370,40855,2,0,P|441:336|435:297,1,66.4999982242585,10|2,0:0|0:0,0:0:0:0:
414,218,41176,1,0,1:0:0:0:
330,240,41336,2,0,P|296:247|257:241,1,66.4999982242585,8|0,0:0|0:0,0:0:0:0:
186,208,41657,5,10,0:0:0:0:
129,273,41817,1,2,1:2:0:0:
129,273,41898,1,0,1:0:0:0:
129,273,41978,1,2,3:2:0:0:
56,215,42138,1,10,0:0:0:0:
51,36,42459,5,2,1:2:0:0:
121,102,42620,1,10,0:0:0:0:
187,31,42780,1,2,0:0:0:0:
256,97,42940,1,2,1:2:0:0:
256,97,44063,6,0,P|335:118|389:93,1,140,6|0,1:2|1:0,0:0:0:0:
471,62,44545,2,0,L|463:141,1,70,10|0,0:0|0:0,0:0:0:0:
405,201,44866,2,0,L|397:280,1,70,2|0,1:2|1:0,0:0:0:0:
348,346,45186,1,10,0:0:0:0:
279,286,45347,1,2,0:0:0:0:
208,343,45507,6,0,P|134:333|57:333,1,140,2|10,1:2|0:0,0:0:0:0:
17,256,45989,2,0,P|10:223|23:178,1,70,2|0,0:0|1:0,0:0:0:0:
81,124,46309,2,0,P|114:117|159:130,1,70,2|8,1:2|0:0,0:0:0:0:
225,173,46630,6,0,P|304:194|358:169,1,140,2|0,0:0|0:0,0:0:0:0:
425,113,47112,1,10,0:0:0:0:
377,35,47272,2,0,L|298:27,1,70,2|0,0:0|1:0,0:0:0:0:
228,74,47593,2,0,L|149:66,1,70,2|8,1:2|0:0,0:0:0:0:
67,59,47914,1,2,0:0:0:0:
36,144,48074,6,0,P|26:218|26:295,1,140,0|8,1:0|0:0,0:0:0:0:
88,347,48555,2,0,P|121:354|166:341,1,70,2|0,0:0|1:0,0:0:0:0:
243,320,48876,1,2,1:2:0:0:
321,366,49037,1,10,0:0:0:0:
417,301,49197,5,10,0:0:0:0:
417,301,49277,1,8,0:0:0:0:
417,301,49358,2,0,P|415:231|406:161,1,140,6|10,1:2|0:0,0:0:0:0:
347,92,49839,2,0,P|314:85|269:98,1,70,2|0,0:0|1:0,0:0:0:0:
194,126,50160,2,0,P|161:133|116:120,1,70,2|8,1:2|0:0,0:0:0:0:
46,169,50481,6,0,P|20:239|43:297,1,140,2|0,0:0|0:0,0:0:0:0:
115,352,50962,2,0,L|194:344,1,70,10|0,0:0|0:0,0:0:0:0:
262,294,51283,1,2,1:2:0:0:
262,294,51443,1,0,1:0:0:0:
270,203,51604,2,0,L|278:124,1,70,10|0,0:0|0:0,0:0:0:0:
343,31,51924,6,0,P|412:32|482:41,1,140,6|8,1:2|0:0,0:0:0:0:
507,130,52406,2,0,P|514:163|501:208,1,70,2|8,1:2|0:0,0:0:0:0:
474,283,52727,1,2,1:2:0:0:
401,337,52887,2,0,L|322:329,1,70,10|2,0:0|1:2,0:0:0:0:
253,372,53208,5,4,1:2:0:0:
182,316,53368,2,0,L|177:271,2,35,0|8|8,1:0|0:0|0:0,0:0:0:0:
91,265,53689,2,0,L|86:220,2,35,0|8|8,1:0|0:0|0:0,0:0:0:0:
5,215,54010,1,0,1:0:0:0:
5,215,54090,1,8,0:0:0:0:
5,215,54170,2,0,L|0:170,3,35,8|8|8|8,0:0|0:0|0:0|0:0,0:0:0:0:
0,145,54491,6,0,P|18:116|59:94,1,70,6|0,1:2|0:0,0:0:0:0:
135,118,54812,2,0,P|168:125|213:112,1,70,10|0,0:0|0:0,0:0:0:0:
288,82,55133,1,2,1:2:0:0:
288,82,55293,1,0,1:0:0:0:
369,34,55454,2,0,L|377:113,1,70,10|0,0:0|0:0,0:0:0:0:
384,193,55775,6,0,P|306:196|269:255,1,140,2|10,1:2|0:0,0:0:0:0:
232,323,56256,2,0,P|199:330|154:317,1,70,2|0,0:0|1:0,0:0:0:0:
86,274,56577,1,2,1:2:0:0:
8,320,56737,2,0,L|0:241,1,70,8|0,0:0|0:0,0:0:0:0:
9,159,57058,6,0,P|87:156|124:97,1,140,2|8,1:2|0:0,0:0:0:0:
196,59,57539,1,2,0:0:0:0:
268,116,57700,2,0,L|275:185,1,70,2|0,1:2|1:0,0:0:0:0:
225,262,58021,2,0,L|232:331,1,70,10|0,0:0|0:0,0:0:0:0:
317,364,58342,6,0,P|386:362|456:353,1,140,2|8,1:2|0:0,0:0:0:0:
509,278,58823,1,2,0:0:0:0:
499,187,58983,2,0,L|491:117,1,70,2|0,1:2|1:0,0:0:0:0:
440,41,59304,1,8,0:0:0:0:
354,107,59465,5,8,0:0:0:0:
354,107,59545,1,8,0:0:0:0:
354,107,59625,2,0,P|284:97|214:96,1,140,6|10,1:2|0:0,0:0:0:0:
126,74,60106,2,0,L|133:143,1,70,2|0,0:0|1:0,0:0:0:0:
87,222,60427,2,0,L|94:291,1,70,2|8,1:2|0:0,0:0:0:0:
164,349,60748,6,0,P|230:372|296:342,1,140,2|0,0:0|1:0,0:0:0:0:
358,283,61229,1,10,0:0:0:0:
440,321,61390,2,0,L|447:251,1,70,2|0,0:0|1:0,0:0:0:0:
502,179,61710,2,0,L|509:109,1,70,2|8,1:2|0:0,0:0:0:0:
468,27,62031,1,2,0:0:0:0:
378,97,62192,6,0,P|345:104|300:91,1,70,4|0,1:2|0:0,0:0:0:0:
223,66,62513,2,0,P|190:59|145:72,1,70,8|0,0:0|1:0,0:0:0:0:
82,119,62833,1,10,0:0:0:0:
82,119,62994,1,0,1:0:0:0:
126,203,63154,1,8,0:0:0:0:
126,203,63315,1,0,1:0:0:0:
100,290,63475,6,0,L|105:335,3,35,10|8|8|8,0:0|0:0|0:0|0:0,0:0:0:0:
149,328,63796,2,0,L|153:362,3,35,8|8|8|8,0:0|0:0|0:0|0:0,0:0:0:0:
199,361,64117,5,2,1:2:0:0:
295,287,64277,1,2,1:2:0:0:
295,287,64598,6,0,P|305:217|306:147,1,140,6|0,1:2|1:0,0:0:0:0:
339,63,65079,2,0,P|306:56|261:69,1,70,14|0,0:0|0:0,0:0:0:0:
196,114,65400,1,2,1:2:0:0:
196,114,65561,1,0,1:0:0:0:
118,66,65721,2,0,L|48:59,1,70,10|0,0:0|0:0,0:0:0:0:
31,148,66042,6,0,P|2:215|52:287,1,140,2|10,1:2|0:0,0:0:0:0:
112,307,66523,2,0,L|182:300,1,70,2|0,0:0|1:0,0:0:0:0:
256,247,66844,2,0,L|263:177,1,70,2|8,1:2|0:0,0:0:0:0:
269,86,67165,6,0,P|343:108|409:72,1,140,2|0,0:0|0:0,0:0:0:0:
480,45,67646,1,10,0:0:0:0:
493,134,67807,2,0,L|486:204,1,70,2|0,0:0|1:0,0:0:0:0:
428,274,68128,2,0,L|358:267,1,70,2|8,1:2|0:0,0:0:0:0:
268,253,68448,1,2,0:0:0:0:
204,318,68609,6,0,P|171:325|126:312,1,70,2|0,1:2|0:0,0:0:0:0:
50,348,68930,2,0,P|43:315|56:270,1,70,10|0,0:0|0:0,0:0:0:0:
74,191,69251,2,0,P|81:158|68:113,1,70,2|0,1:2|1:0,0:0:0:0:
108,39,69571,1,10,0:0:0:0:
195,112,69732,5,10,0:0:0:0:
195,112,69812,1,8,0:0:0:0:
195,112,69892,2,0,P|265:102|335:101,1,140,6|10,1:2|0:0,0:0:0:0:
421,72,70374,2,0,L|414:142,1,70,2|0,0:0|1:0,0:0:0:0:
471,211,70694,2,0,L|464:281,1,70,2|8,1:2|0:0,0:0:0:0:
401,347,71015,6,0,P|327:369|261:333,1,140,2|0,0:0|0:0,0:0:0:0:
183,322,71497,2,0,L|113:315,1,70,10|0,0:0|0:0,0:0:0:0:
38,273,71817,1,2,1:2:0:0:
38,273,71978,1,0,1:0:0:0:
49,182,72138,2,0,L|56:112,1,70,10|0,0:0|1:0,0:0:0:0:
161,61,72459,6,0,P|179:32|220:10,2,70,14|0|0,0:0|1:0|1:0,0:0:0:0:
179,150,72940,2,0,P|189:220|190:290,1,140,14|2,0:0|1:2,0:0:0:0:
253,355,73422,1,10,0:0:0:0:
324,297,73582,2,0,P|371:288|394:293,1,70,2|4,1:2|1:2,1:2:0:0:
490,277,73903,5,0,1:0:0:0:
490,277,73983,1,0,1:0:0:0:
490,277,74064,2,0,L|495:232,3,35,8|0|0|0,0:0|1:0|1:0|1:0,0:0:0:0:
474,200,74384,2,0,L|479:155,3,35,8|8|2|0,0:0|3:0|3:0|1:0,0:0:0:0:
445,133,74705,2,0,P|390:120|331:140,1,105,12|0,0:0|0:0,0:0:0:0:
298,140,75026,6,0,P|228:130|158:129,1,140,6|14,1:2|0:0,0:0:0:0:
88,186,75507,2,0,P|81:219|94:264,1,70,2|0,0:0|1:0,0:0:0:0:
136,332,75828,2,0,L|206:325,1,70,2|8,1:2|0:0,0:0:0:0:
296,317,76149,6,0,P|370:339|436:303,1,140,2|0,0:0|1:0,0:0:0:0:
478,240,76630,2,0,L|471:170,1,70,10|0,0:0|0:0,0:0:0:0:
414,103,76951,1,2,1:2:0:0:
414,103,77112,1,0,1:0:0:0:
324,117,77272,2,0,P|291:124|246:111,1,70,10|0,0:0|0:0,0:0:0:0:
166,98,77593,6,0,P|156:168|155:238,1,140,2|8,1:2|0:0,0:0:0:0:
172,326,78074,1,2,0:0:0:0:
240,265,78235,2,0,P|314:243|380:279,1,140,2|8,1:2|0:0,0:0:0:0:
442,321,78716,1,2,0:0:0:0:
473,235,78876,6,0,P|471:165|461:95,1,140,2|10,1:2|0:0,0:0:0:0:
403,24,79358,1,2,0:0:0:0:
321,68,79518,2,0,P|288:75|243:62,1,70,2|0,1:2|1:0,0:0:0:0:
168,31,79839,1,8,0:0:0:0:
81,101,79999,5,8,0:0:0:0:
81,101,80079,1,8,0:0:0:0:
81,101,80160,2,0,P|71:171|70:241,1,140,6|10,1:2|0:0,0:0:0:0:
131,307,80641,2,0,P|164:314|209:301,1,70,2|0,0:0|1:0,0:0:0:0:
270,249,80962,2,0,P|277:216|264:171,1,70,2|8,1:2|0:0,0:0:0:0:
256,90,81283,6,0,P|330:112|396:76,1,140,2|0,0:0|1:0,0:0:0:0:
457,33,81764,1,10,0:0:0:0:
477,121,81924,2,0,L|470:191,1,70,2|0,0:0|1:0,0:0:0:0:
425,270,82245,2,0,P|392:277|347:264,1,70,2|8,1:2|0:0,0:0:0:0:
270,249,82566,1,2,0:0:0:0:
187,330,82727,6,0,P|154:337|109:324,1,70,4|0,1:2|0:0,0:0:0:0:
36,305,83047,1,8,0:0:0:0:
36,305,83208,1,2,1:2:0:0:
79,227,83368,1,8,0:0:0:0:
79,227,83529,1,2,1:2:0:0:
35,147,83689,2,0,P|28:114|41:69,1,70,10|0,0:0|1:0,0:0:0:0:
106,21,84010,6,0,P|139:14|184:27,1,70,8|0,0:0|1:0,0:0:0:0:
258,57,84331,1,8,0:0:0:0:
258,57,84491,1,2,1:2:0:0:
343,23,84652,1,8,0:0:0:0:
343,23,84812,1,2,1:2:0:0:
428,56,84973,2,0,P|435:89|422:134,1,70,14|0,0:0|0:0,0:0:0:0:
369,222,85293,6,0,L|299:215,1,70,2|8,1:2|0:0,0:0:0:0:
257,210,85534,1,8,0:0:0:0:
257,210,85614,1,10,1:2:0:0:
180,253,85775,1,10,0:0:0:0:
180,253,85855,1,8,0:0:0:0:
180,253,85935,2,0,L|175:298,3,35,8|8|10|8,1:2|0:0|0:0|0:0,0:0:0:0:
133,303,86256,2,0,L|128:348,3,35,8|8|10|8,1:2|0:0|0:0|0:0,0:0:0:0:
90,363,86577,5,0,1:0:0:0:
256,192,87700,5,6,1:2:0:0:
256,192,87780,12,0,89946,0:0:0:0:
