osu file format v14

[General]
AudioFilename: audio.mp3
AudioLeadIn: 0
PreviewTime: 42652
Countdown: 0
SampleSet: Soft
StackLeniency: 0.6
Mode: 0
LetterboxInBreaks: 0
WidescreenStoryboard: 0

[Editor]
DistanceSpacing: 1.1
BeatDivisor: 4
GridSize: 32
TimelineZoom: 4.399998

[Metadata]
Title:Tsuki o Ou Mayonaka (TV Size)
TitleUnicode:月を追う真夜中 (TV Size)
Artist:Aoi Eir
ArtistUnicode:藍井エイル
Creator:Nevertary
Version:Easy
Source:グランベルム
Tags:Midnight Chasing the Moon Following in Middle of Night Fragment Granbelm anime animation opening op japanese pop j-pop jpop Crunchyroll Nexus
BeatmapID:2480917
BeatmapSetID:1190716

[Difficulty]
HPDrainRate:3
CircleSize:3
OverallDifficulty:3
ApproachRate:4
SliderMultiplier:0.799999999999999
SliderTickRate:1

[Events]
//Background and Video events
0,0,"BG.jpg",0,0
Video,0,"BGvideo.avi"
//Break Periods
//Storyboard Layer 0 (Background)
//Storyboard Layer 1 (Fail)
//Storyboard Layer 2 (Pass)
//Storyboard Layer 3 (Foreground)
//Storyboard Layer 4 (Overlay)
//Storyboard Sound Samples

[TimingPoints]
588,320.855614973262,4,2,1,60,1,0
3154,-100,4,2,1,75,0,0
8288,-100,4,2,1,60,0,0
13422,-100,4,2,1,60,0,0
18555,-100,4,2,1,65,0,0
23689,-100,4,2,1,70,0,0
28823,-100,4,2,1,65,0,0
33956,-100,4,2,1,70,0,0
44063,-100,4,2,1,80,0,1
64117,-100,4,2,1,80,0,0
64598,-100,4,2,1,80,0,1
86577,-100,4,2,1,80,0,0
87700,-100,4,2,1,80,0,0
89144,-100,4,2,1,60,0,0
89465,-100,4,2,1,40,0,0
89785,-100,4,2,1,20,0,0
89946,-100,4,2,1,5,0,0

[Colours]
Combo1 : 208,119,117
Combo2 : 58,84,171

[HitObjects]
174,76,2513,5,8,3:0:0:0:
235,139,2833,1,12,0:0:0:0:
279,63,3154,6,0,L|416:49,2,120,6|2|8,1:2|1:2|0:0,0:0:0:0:
235,139,4438,2,0,L|98:125,2,120,2|2|10,1:2|1:2|0:0,0:0:0:0:
321,152,5721,6,0,P|384:190|401:247,1,120,14|14,0:0|0:0,0:0:0:0:
318,335,6684,1,10,0:0:0:0:
234,362,7005,2,0,P|179:312|173:253,1,120,14|12,0:0|0:0,0:0:0:0:
207,142,7967,1,12,0:0:0:0:
273,84,8288,6,0,B|350:49|350:125|432:92,1,160,6|2,1:2|1:2,0:0:0:0:
504,252,9571,2,0,P|481:332|414:364,1,160,0|2,1:0|1:2,0:0:0:0:
336,326,10534,1,2,1:2:0:0:
255,364,10855,6,0,P|167:354|89:354,1,160,6|2,1:2|1:2,0:0:0:0:
6,201,12138,2,0,P|29:121|96:89,1,160,0|0,1:0|1:0,0:0:0:0:
181,84,13101,1,2,3:2:0:0:
261,48,13422,6,0,P|322:31|382:53,2,120,6|2|2,1:2|0:0|1:2,0:0:0:0:
181,84,14705,2,0,L|163:252,1,160,2|2,1:2|1:2,0:0:0:0:
156,331,15668,1,2,1:2:0:0:
241,353,15989,6,0,P|302:370|362:348,2,120,6|2|2,1:2|0:0|1:2,0:0:0:0:
156,331,17272,1,8,0:0:0:0:
0,210,18235,5,14,0:0:0:0:
25,126,18555,2,0,L|120:116,1,79.9999999999999,6|2,1:2|1:2,0:0:0:0:
165,54,19197,2,0,P|191:108|173:175,1,120,2|2,1:2|0:0,0:0:0:0:
164,251,19999,2,0,L|301:236,1,120,2|2,0:0|1:2,0:0:0:0:
371,231,20801,1,10,0:0:0:0:
448,189,21122,6,0,P|457:244|446:278,1,79.9999999999999,2|2,1:2|1:2,0:0:0:0:
412,345,21764,1,2,1:2:0:0:
296,281,22245,2,0,B|249:252|202:266|197:301|149:317|106:292,1,200,2|0,0:0|1:0,0:0:0:0:
33,244,23368,1,10,0:0:0:0:
49,157,23689,6,0,P|39:85|8:36,2,120,6|2|10,1:2|0:0|0:0,0:0:0:0:
33,244,24973,2,0,P|24:299|35:333,1,79.9999999999999,2|10,1:2|0:0,0:0:0:0:
103,369,25614,1,2,1:2:0:0:
156,299,25935,1,10,0:0:0:0:
233,341,26256,6,0,P|305:331|354:300,2,120,2|2|8,1:2|0:0|0:0,0:0:0:0:
156,299,27539,2,0,P|147:244|158:210,1,79.9999999999999,2|10,1:2|0:0,0:0:0:0:
179,137,28181,1,8,3:0:0:0:
251,186,28502,1,10,0:0:0:0:
313,123,28823,6,0,L|450:109,2,120,6|2|8,1:2|1:2|0:0,0:0:0:0:
251,186,30106,1,4,1:2:0:0:
179,137,30427,2,0,P|124:128|90:139,2,79.9999999999999,2|2|2,0:0|0:0|3:2,0:0:0:0:
251,186,31390,6,0,L|265:323,2,120,6|2|8,1:2|1:2|0:0,0:0:0:0:
313,123,32673,1,0,1:0:0:0:
385,173,32994,2,0,L|480:163,1,79.9999999999999,12|0,0:0|1:0,0:0:0:0:
508,241,33636,1,2,1:2:0:0:
454,310,33956,6,0,P|401:337|341:343,2,120,6|2|10,1:2|0:0|0:0,0:0:0:0:
508,241,35240,2,0,P|517:186|506:152,1,79.9999999999999,0|8,1:0|0:0,0:0:0:0:
469,85,35882,1,2,1:2:0:0:
401,141,36202,1,10,0:0:0:0:
332,86,36523,6,0,B|255:51|255:127|173:94,1,160,6|2,1:2|1:2,0:0:0:0:
97,63,37486,1,8,0:0:0:0:
41,131,37807,2,0,L|51:226,2,79.9999999999999,2|10|2,1:2|0:0|1:2,0:0:0:0:
97,63,38769,1,10,0:0:0:0:
177,99,39090,6,0,P|229:72|289:66,2,120,6|10|10,1:2|0:0|0:0,0:0:0:0:
177,187,40374,2,0,P|229:214|289:220,2,120,6|10|8,1:2|0:0|0:0,0:0:0:0:
93,159,41657,6,0,L|79:296,1,120,10|10,0:0|0:0,0:0:0:0:
177,368,42620,1,8,0:0:0:0:
225,294,42940,1,2,1:2:0:0:
40,113,44063,6,0,P|87:156|153:156,1,120,6|10,1:2|0:0,0:0:0:0:
216,113,44866,1,2,1:2:0:0:
289,161,45186,1,10,0:0:0:0:
338,88,45507,2,0,L|475:74,1,120,2|2,1:2|0:0,0:0:0:0:
508,147,46309,1,2,1:2:0:0:
499,234,46630,6,0,P|485:312|412:353,1,160,2|2,0:0|0:0,0:0:0:0:
340,315,47593,1,2,1:2:0:0:
264,360,47914,2,0,L|127:346,1,120,2|8,0:0|0:0,0:0:0:0:
57,338,48716,1,0,1:0:0:0:
85,254,49037,1,10,0:0:0:0:
46,174,49358,6,0,P|25:110|50:52,1,120,6|2,1:2|0:0,0:0:0:0:
117,17,50160,1,2,1:2:0:0:
193,60,50481,2,0,L|330:46,1,120,2|10,0:0|0:0,0:0:0:0:
399,38,51283,1,2,1:2:0:0:
475,82,51604,1,10,0:0:0:0:
475,169,51924,6,0,P|451:223|399:250,1,120,6|2,1:2|1:2,0:0:0:0:
313,270,52727,1,2,1:2:0:0:
268,194,53047,2,0,L|254:57,1,120,2|8,1:2|0:0,0:0:0:0:
187,18,53850,1,0,1:0:0:0:
114,67,54170,1,8,0:0:0:0:
36,24,54491,6,0,P|27:79|38:113,1,79.9999999999999,6|10,1:2|0:0,0:0:0:0:
74,179,55133,1,2,1:2:0:0:
37,259,55454,1,10,0:0:0:0:
93,326,55775,2,0,L|230:312,1,120,2|2,1:2|0:0,0:0:0:0:
300,306,56577,1,2,1:2:0:0:
427,340,57058,6,0,L|443:174,1,160,2|2,1:2|1:2,0:0:0:0:
451,92,58021,1,10,0:0:0:0:
368,122,58342,2,0,B|291:157|291:81|209:114,1,160,2|2,1:2|1:2,0:0:0:0:
145,57,59304,1,8,0:0:0:0:
73,108,59625,6,0,L|59:245,1,120,6|2,1:2|0:0,0:0:0:0:
114,297,60427,1,2,1:2:0:0:
184,244,60748,2,0,P|257:217|336:250,1,160,2|2,0:0|0:0,0:0:0:0:
399,300,61710,1,2,1:2:0:0:
472,251,62031,6,0,L|486:114,1,120,2|8,0:0|0:0,0:0:0:0:
439,55,62833,1,10,0:0:0:0:
359,91,63154,1,8,0:0:0:0:
280,50,63475,2,0,P|271:105|282:139,1,79.9999999999999,10|8,0:0|0:0,0:0:0:0:
295,214,64117,2,0,L|290:264,1,40,2|2,1:2|1:2,0:0:0:0:
281,340,64598,6,0,L|144:326,1,120,6|14,1:2|0:0,0:0:0:0:
73,319,65400,1,2,1:2:0:0:
107,237,65721,1,10,0:0:0:0:
70,157,66042,2,0,P|49:93|74:35,1,120,2|2,1:2|0:0,0:0:0:0:
148,15,66844,1,2,1:2:0:0:
217,69,67165,6,0,P|290:96|369:63,1,160,2|2,0:0|0:0,0:0:0:0:
439,22,68128,1,2,1:2:0:0:
453,108,68448,2,0,L|467:245,1,120,2|10,0:0|0:0,0:0:0:0:
475,315,69251,1,2,1:2:0:0:
393,281,69571,1,10,0:0:0:0:
312,316,69892,6,0,P|257:335|189:313,1,120,6|2,1:2|0:0,0:0:0:0:
120,279,70694,1,2,1:2:0:0:
61,213,71015,2,0,L|75:76,1,120,2|10,0:0|0:0,0:0:0:0:
136,32,71817,1,2,1:2:0:0:
212,75,72138,1,10,0:0:0:0:
290,36,72459,6,0,P|345:17|413:41,1,120,14|14,0:0|0:0,0:0:0:0:
494,128,73422,1,10,0:0:0:0:
485,215,73743,2,0,L|475:310,1,79.9999999999999,4|8,1:2|0:0,0:0:0:0:
407,349,74384,1,8,0:0:0:0:
332,301,74705,1,12,0:0:0:0:
252,339,75026,6,0,P|197:358|129:334,1,120,6|2,1:2|0:0,0:0:0:0:
70,286,75828,1,2,1:2:0:0:
41,202,76149,2,0,L|27:65,1,120,2|10,0:0|0:0,0:0:0:0:
96,24,76951,1,2,1:2:0:0:
167,75,77272,1,10,0:0:0:0:
247,40,77593,6,0,L|342:30,1,79.9999999999999,2|8,1:2|0:0,0:0:0:0:
398,82,78235,2,0,P|407:137|396:171,1,79.9999999999999,2|8,1:2|0:0,0:0:0:0:
327,208,78876,2,0,L|232:198,1,79.9999999999999,2|10,1:2|0:0,0:0:0:0:
177,145,79518,1,2,1:2:0:0:
106,197,79839,1,8,0:0:0:0:
37,142,80160,6,0,P|17:198|34:254,1,120,6|2,1:2|0:0,0:0:0:0:
90,322,80962,1,2,1:2:0:0:
172,352,81283,2,0,L|349:334,1,160,2|2,0:0|0:0,0:0:0:0:
418,326,82245,1,2,1:2:0:0:
466,252,82566,6,0,P|485:195|467:139,1,120,2|8,0:0|0:0,0:0:0:0:
414,69,83368,1,8,0:0:0:0:
341,118,83689,1,10,0:0:0:0:
277,56,84010,2,0,L|182:46,1,79.9999999999999,8|8,0:0|0:0,0:0:0:0:
129,104,84652,1,8,0:0:0:0:
70,38,84973,1,14,0:0:0:0:
38,120,85293,6,0,P|21:176|38:233,1,120,2|10,1:2|0:0,0:0:0:0:
94,301,86096,1,10,0:0:0:0:
167,253,86416,2,0,L|217:248,1,40,10|0,0:0|1:0,0:0:0:0:
256,192,87700,12,0,89946,0:0:0:0:
