osu file format v14

[General]
AudioFilename: audio.mp3
AudioLeadIn: 0
PreviewTime: 42652
Countdown: 0
SampleSet: Soft
StackLeniency: 0.5
Mode: 0
LetterboxInBreaks: 0
WidescreenStoryboard: 0

[Editor]
DistanceSpacing: 0.3
BeatDivisor: 4
GridSize: 32
TimelineZoom: 4.399998

[Metadata]
Title:Tsuki o Ou Mayonaka (TV Size)
TitleUnicode:月を追う真夜中 (TV Size)
Artist:Aoi Eir
ArtistUnicode:藍井エイル
Creator:Nevertary
Version:Angelic Sparkle
Source:グランベルム
Tags:Midnight Chasing the Moon Following in Middle of Night Fragment Granbelm anime animation opening op japanese pop j-pop jpop Crunchyroll Nexus
BeatmapID:2480916
BeatmapSetID:1190716

[Difficulty]
HPDrainRate:6
CircleSize:4
OverallDifficulty:9
ApproachRate:9.2
SliderMultiplier:1.7
SliderTickRate:1

[Events]
//Background and Video events
0,0,"BG.jpg",0,0
Video,0,"BGvideo.avi"
//Break Periods
//Storyboard Layer 0 (Background)
//Storyboard Layer 1 (Fail)
//Storyboard Layer 2 (Pass)
//Storyboard Layer 3 (Foreground)
//Storyboard Layer 4 (Overlay)
//Storyboard Sound Samples

[TimingPoints]
588,320.855614973262,4,2,1,60,1,0
2432,-100,4,2,1,5,0,0
2513,-100,4,2,1,60,0,0
2593,-100,4,2,1,5,0,0
2673,-100,4,2,1,60,0,0
2833,-71.4285714285714,4,2,1,70,0,0
3074,-71.4285714285714,4,2,1,5,0,0
3154,-83.3333333333333,4,2,1,75,0,0
3395,-83.3333333333333,4,2,1,5,0,0
3475,-83.3333333333333,4,2,1,75,0,0
8208,-83.3333333333333,4,2,1,5,0,0
8288,-133.333333333333,4,2,1,60,0,0
13342,-133.333333333333,4,2,1,5,0,0
13422,-133.333333333333,4,2,1,60,0,0
18235,-71.4285714285714,4,2,1,60,0,0
18475,-71.4285714285714,4,2,1,5,0,0
18555,-117.647058823529,4,2,1,65,0,0
23689,-100,4,2,1,70,0,0
28823,-111.111111111111,4,2,1,65,0,0
32914,-111.111111111111,4,2,1,5,0,0
32994,-111.111111111111,4,2,1,65,0,0
33956,-100,4,2,1,70,0,0
39331,-100,4,2,1,5,0,0
39411,-100,4,2,1,70,0,0
44063,-71.4285714285714,4,2,1,80,0,1
47031,-71.4285714285714,4,2,1,5,0,1
47112,-71.4285714285714,4,2,1,80,0,1
49598,-71.4285714285714,4,2,1,5,0,1
49678,-71.4285714285714,4,2,1,80,0,1
54732,-71.4285714285714,4,2,1,5,0,1
54812,-71.4285714285714,4,2,1,80,0,1
56978,-71.4285714285714,4,2,1,5,0,1
57058,-71.4285714285714,4,2,1,80,0,1
59866,-71.4285714285714,4,2,1,5,0,1
59946,-71.4285714285714,4,2,1,80,0,1
64117,-71.4285714285714,4,2,1,80,0,0
64598,-71.4285714285714,4,2,1,80,0,1
67566,-71.4285714285714,4,2,1,5,0,1
67646,-71.4285714285714,4,2,1,80,0,1
70133,-71.4285714285714,4,2,1,5,0,1
70213,-71.4285714285714,4,2,1,80,0,1
74705,-62.5,4,2,1,80,0,1
74946,-62.5,4,2,1,5,0,1
75026,-71.4285714285714,4,2,1,80,0,1
75267,-71.4285714285714,4,2,1,5,0,1
75347,-71.4285714285714,4,2,1,80,0,1
80400,-71.4285714285714,4,2,1,5,0,1
80481,-71.4285714285714,4,2,1,80,0,1
86577,-71.4285714285714,4,2,1,80,0,0
86657,-71.4285714285714,4,2,1,5,0,0
87700,-71.4285714285714,4,2,1,80,0,0
89144,-71.4285714285714,4,2,1,60,0,0
89465,-71.4285714285714,4,2,1,40,0,0
89785,-71.4285714285714,4,2,1,20,0,0
89946,-71.4285714285714,4,2,1,5,0,0

[Colours]
Combo1 : 208,119,117
Combo2 : 58,84,171

[HitObjects]
256,192,1229,12,0,2432,0:0:0:0:
113,105,2513,6,0,L|172:99,1,42.5,8|0,3:0|0:0,0:0:0:0:
300,140,2673,5,0,1:0:0:0:
300,140,2753,1,0,1:0:0:0:
300,140,2833,2,0,B|249:121|210:142|209:180|174:200|122:175,1,178.499994552612,12|0,0:0|0:0,0:0:0:0:
9,127,3154,6,0,P|26:191|39:288,1,152.999995330811,6|0,1:2|0:0,0:0:0:0:
43,316,3475,1,10,0:0:0:0:
206,248,3636,2,0,P|152:214|135:169,1,101.999996887207,2|0,1:2|0:0,0:0:0:0:
365,231,3956,2,0,P|311:264|294:309,1,101.999996887207,2|8,1:2|0:0,0:0:0:0:
364,133,4277,1,2,0:0:0:0:
434,303,4438,5,2,1:2:0:0:
279,175,4598,1,2,1:2:0:0:
506,152,4759,1,10,0:0:0:0:
295,297,4919,2,0,B|129:280|129:280|98:317,1,203.999993774414,2|0,1:2|1:0,0:0:0:0:
30,129,5400,2,0,P|83:162|100:207,1,101.999996887207,10|0,0:0|0:0,0:0:0:0:
289,73,5721,6,0,L|277:190,1,101.999996887207,14|0,0:0|0:0,0:0:0:0:
380,23,6042,1,2,1:2:0:0:
502,218,6202,2,0,L|514:335,1,101.999996887207,14|0,0:0|0:0,0:0:0:0:
411,168,6523,1,2,1:2:0:0:
265,358,6684,1,10,0:0:0:0:
412,271,6844,1,0,1:0:0:0:
205,54,7005,5,14,0:0:0:0:
308,268,7165,1,0,1:0:0:0:
336,97,7325,1,0,1:0:0:0:
172,332,7486,6,0,L|143:273,1,50.9999984436036,12|0,0:0|0:0,0:0:0:0:
69,118,7646,1,2,1:2:0:0:
41,289,7806,1,0,1:0:0:0:
308,268,7967,6,0,B|425:256|425:256|398:282,1,152.999995330811,12|0,0:0|0:0,0:0:0:0:
304,183,8288,6,0,P|237:222|224:280,1,127.500004863739,6|0,1:2|1:0,0:0:0:0:
44,377,8930,2,0,P|111:338|124:280,1,127.500004863739,2|2,1:2|1:2,0:0:0:0:
33,225,9411,6,0,L|41:289,1,63.7500024318696,2|0,0:0|1:0,0:0:0:0:
108,167,9732,2,0,L|126:306,1,127.500004863739,2|0,0:0|0:0,0:0:0:0:
189,136,10213,2,0,P|171:109|147:89,1,63.7500024318696,2|0,1:2|0:0,0:0:0:0:
249,231,10534,2,0,P|269:200|300:179,1,63.7500024318696,2|0,1:2|0:0,0:0:0:0:
436,99,10855,6,0,L|428:162,1,63.7500024318696,6|0,1:2|0:0,0:0:0:0:
373,293,11176,2,0,L|365:229,1,63.7500024318696,2|0,1:2|0:0,0:0:0:0:
436,99,11497,2,0,P|378:121|306:87,1,127.500004863739,2|2,1:2|1:2,0:0:0:0:
241,51,11978,6,0,P|183:29|111:63,1,127.500004863739,2|0,0:0|0:0,0:0:0:0:
65,121,12459,1,0,1:0:0:0:
111,275,12780,1,0,1:0:0:0:
162,205,12940,1,8,3:0:0:0:
257,281,13101,2,0,P|312:267|374:267,1,95.6250036478044,2|0,3:2|0:0,0:0:0:0:
428,224,13422,6,0,P|370:246|298:212,1,127.500004863739,6|2,1:2|1:2,0:0:0:0:
223,137,13903,2,0,P|165:115|93:149,1,127.500004863739,2|0,0:0|0:0,0:0:0:0:
51,210,14384,1,2,1:2:0:0:
145,331,14545,2,0,L|163:197,1,127.500004863739,2|0,0:0|0:0,0:0:0:0:
245,284,15026,1,0,1:0:0:0:
406,168,15347,2,0,L|342:160,1,63.7500024318696,2|0,1:2|0:0,0:0:0:0:
221,102,15668,2,0,L|284:94,1,63.7500024318696,2|0,1:2|0:0,0:0:0:0:
362,284,15989,6,0,P|304:262|232:296,1,127.500004863739,6|2,1:2|1:2,0:0:0:0:
127,282,16470,2,0,P|185:304|257:270,1,127.500004863739,2|0,0:0|0:0,0:0:0:0:
296,168,16951,1,2,1:2:0:0:
362,284,17112,2,0,L|365:316,1,31.8750012159348,8|2,3:0|3:0,0:0:0:0:
335,85,17272,5,8,0:0:0:0:
335,85,18074,5,0,1:0:0:0:
335,85,18154,1,0,1:0:0:0:
335,85,18235,2,0,B|386:66|425:87|426:125|461:145|513:120,1,178.499994552612,14|0,0:0|0:0,0:0:0:0:
372,236,18555,6,0,L|362:150,1,72.2500013780594,6|0,1:2|0:0,0:0:0:0:
248,106,18876,2,0,L|238:192,1,72.2500013780594,2|0,1:2|0:0,0:0:0:0:
275,318,19197,2,0,P|248:279|210:260,1,72.2500013780594,2|0,1:2|0:0,0:0:0:0:
145,247,19518,1,2,1:2:0:0:
9,315,19678,6,0,P|47:288|66:250,1,72.2500013780594,2|0,0:0|1:0,0:0:0:0:
43,123,19999,2,0,L|60:267,1,144.500002756119,2|0,0:0|0:0,0:0:0:0:
153,175,20481,2,0,L|145:247,1,72.2500013780594,2|0,1:2|0:0,0:0:0:0:
217,111,20801,1,10,0:0:0:0:
217,111,21122,6,0,P|235:80|264:59,1,72.2500013780594,2|0,1:2|0:0,0:0:0:0:
345,190,21443,2,0,P|326:159|297:138,1,72.2500013780594,2|0,1:2|0:0,0:0:0:0:
216,270,21764,2,0,P|234:239|263:218,1,72.2500013780594,2|0,1:2|0:0,0:0:0:0:
381,327,22085,1,2,1:2:0:0:
299,297,22245,1,2,0:0:0:0:
430,168,22406,6,0,L|421:239,1,72.2500013780594,0|0,1:0|0:0,0:0:0:0:
336,118,22727,2,0,L|344:189,1,72.2500013780594,0|0,1:0|0:0,0:0:0:0:
508,38,23047,2,0,L|499:109,1,72.2500013780594,0|0,1:0|0:0,0:0:0:0:
323,32,23368,1,10,0:0:0:0:
323,32,23689,6,0,B|279:12|241:33|234:65|198:85|155:63,1,170,6|10,1:2|0:0,0:0:0:0:
22,38,24170,1,2,0:0:0:0:
81,183,24331,2,0,P|92:143|77:89,1,85,0|0,1:0|0:0,0:0:0:0:
0,282,24652,2,0,L|108:267,1,85,10|0,0:0|0:0,0:0:0:0:
221,168,24973,6,0,P|184:188|157:237,1,85,2|0,1:2|0:0,0:0:0:0:
258,336,25293,2,0,L|243:228,1,85,10|0,0:0|0:0,0:0:0:0:
385,123,25614,2,0,L|370:231,1,85,2|0,1:2|0:0,0:0:0:0:
472,99,25935,2,0,P|451:62|402:35,1,85,10|0,0:0|0:0,0:0:0:0:
229,166,26256,6,0,B|271:182|309:161|316:129|352:109|393:126,1,170,2|10,1:2|0:0,0:0:0:0:
386,292,26737,2,0,L|371:184,1,85,2|0,0:0|1:0,0:0:0:0:
240,81,27058,2,0,L|229:166,1,85,0|8,0:0|0:0,0:0:0:0:
203,315,27379,5,2,0:0:0:0:
203,315,27459,1,2,0:0:0:0:
203,315,27539,2,0,P|182:278|133:251,1,85,2|0,1:2|0:0,0:0:0:0:
52,147,27860,2,0,L|63:232,1,85,10|0,0:0|0:0,0:0:0:0:
170,79,28181,1,8,3:0:0:0:
162,169,28342,1,0,1:0:0:0:
269,14,28502,1,10,0:0:0:0:
277,104,28663,1,2,1:2:0:0:
72,7,28823,6,0,B|42:39|42:39|53:148,1,152.999995330811,6|2,1:2|0:0,0:0:0:0:
159,266,29304,2,0,P|137:228|82:205,1,76.4999976654053,2|0,1:2|0:0,0:0:0:0:
125,347,29625,1,0,1:0:0:0:
248,280,29785,2,0,L|332:268,1,76.4999976654053,8|0,0:0|0:0,0:0:0:0:
170,79,30106,5,4,1:2:0:0:
170,79,30427,2,0,L|182:163,1,76.4999976654053,2|0,0:0|1:0,0:0:0:0:
82,56,30748,2,0,L|94:140,1,76.4999976654053,2|8,0:0|3:0,0:0:0:0:
244,28,31069,1,2,3:2:0:0:
244,28,31390,6,0,P|316:55|389:15,1,152.999995330811,6|2,1:2|0:0,0:0:0:0:
337,168,31871,2,0,L|325:84,1,76.4999976654053,2|0,1:2|0:0,0:0:0:0:
459,214,32192,2,0,L|471:130,1,76.4999976654053,2|8,1:2|0:0,0:0:0:0:
352,254,32513,1,2,0:0:0:0:
215,164,32673,6,0,P|158:152|79:152,1,114.749996498108,0|0,1:0|0:0,0:0:0:0:
46,101,32994,2,0,P|84:123|106:177,1,76.4999976654053,12|0,0:0|0:0,0:0:0:0:
2,267,33315,1,0,1:0:0:0:
23,184,33475,1,8,3:0:0:0:
136,272,33636,1,2,1:2:0:0:
137,281,33716,1,0,1:0:0:0:
138,290,33796,1,2,1:2:0:0:
139,300,33876,1,0,1:0:0:0:
141,309,33956,6,0,B|268:291|268:291|236:328,1,170,6|10,1:2|0:0,0:0:0:0:
184,131,34438,2,0,L|199:239,1,85,2|0,0:0|1:0,0:0:0:0:
253,76,34759,1,2,0:0:0:0:
103,98,34919,1,10,0:0:0:0:
172,44,35079,1,2,0:0:0:0:
4,191,35240,6,0,B|-11:62|-11:62|13:51|27:55,1,170,0|8,1:0|0:0,0:0:0:0:
115,185,35721,1,2,0:0:0:0:
172,44,35882,1,2,1:2:0:0:
184,131,36042,1,2,0:0:0:0:
91,13,36202,1,10,0:0:0:0:
253,76,36363,1,2,0:0:0:0:
51,274,36523,6,0,B|77:230|77:230|207:212,1,170,6|8,1:2|0:0,0:0:0:0:
338,249,37005,1,2,0:0:0:0:
258,365,37165,2,0,P|246:324|261:270,1,85,2|0,1:2|0:0,0:0:0:0:
422,270,37486,2,0,P|401:306|352:333,1,85,8|0,0:0|0:0,0:0:0:0:
326,164,37807,6,0,L|338:249,1,85,2|0,1:2|0:0,0:0:0:0:
140,133,38128,2,0,L|125:241,1,85,10|0,0:0|0:0,0:0:0:0:
313,74,38448,1,2,1:2:0:0:
326,164,38609,1,2,0:0:0:0:
227,39,38769,1,10,0:0:0:0:
248,215,38930,1,2,0:0:0:0:
512,70,39090,6,0,P|475:26|390:24,1,127.5,6|0,1:2|0:0,0:0:0:0:
384,27,39411,1,2,1:2:0:0:
421,184,39571,2,0,L|436:76,1,85,10|0,0:0|0:0,0:0:0:0:
325,281,39892,1,0,1:0:0:0:
256,106,40053,1,10,0:0:0:0:
187,281,40213,1,2,0:0:0:0:
2,65,40374,6,0,P|75:30|155:74,1,170,4|0,1:2|1:0,0:0:0:0:
222,193,40855,1,10,0:0:0:0:
74,124,41015,1,2,0:0:0:0:
256,106,41176,1,0,1:0:0:0:
99,300,41336,2,0,L|84:192,1,85,8|0,0:0|0:0,0:0:0:0:
352,32,41657,5,10,0:0:0:0:
256,288,41817,1,2,1:2:0:0:
256,288,41898,1,0,1:0:0:0:
256,288,41978,1,2,3:2:0:0:
160,32,42138,1,10,0:0:0:0:
160,32,42459,5,2,1:2:0:0:
416,128,42620,1,10,0:0:0:0:
64,224,42780,1,2,0:0:0:0:
384,352,42940,1,2,1:2:0:0:
384,352,44063,6,0,L|126:315,1,237.999992736817,6|0,1:2|1:0,0:0:0:0:
300,124,44545,2,0,P|321:189|294:244,1,118.999996368408,10|0,0:0|0:0,0:0:0:0:
85,92,44866,1,2,1:2:0:0:
223,182,45026,1,0,1:0:0:0:
15,225,45186,1,10,0:0:0:0:
193,83,45347,1,2,0:0:0:0:
126,379,45507,6,0,L|106:239,1,118.999996368408,2|0,1:2|1:0,0:0:0:0:
85,92,45828,1,10,0:0:0:0:
298,279,45989,2,0,L|318:139,1,118.999996368408,2|0,0:0|1:0,0:0:0:0:
334,20,46309,1,2,1:2:0:0:
223,182,46470,1,8,0:0:0:0:
402,98,46630,1,2,0:0:0:0:
193,83,46791,6,0,B|50:62|50:62|13:104,1,178.499994552612,0|0,1:0|0:0,0:0:0:0:
7,119,47112,1,10,0:0:0:0:
92,359,47272,2,0,L|112:219,1,118.999996368408,2|0,0:0|1:0,0:0:0:0:
313,138,47593,1,2,1:2:0:0:
255,289,47753,1,8,0:0:0:0:
193,83,47914,1,2,0:0:0:0:
393,211,48074,6,0,L|409:93,1,118.999996368408,0|0,1:0|1:0,0:0:0:0:
378,317,48395,1,8,0:0:0:0:
223,182,48555,2,0,L|83:162,1,118.999996368408,2|0,0:0|1:0,0:0:0:0:
0,366,48876,1,2,1:2:0:0:
150,266,49037,1,10,0:0:0:0:
27,63,49197,5,10,0:0:0:0:
27,63,49277,1,8,0:0:0:0:
27,63,49358,2,0,B|-3:97|-3:97|17:240,1,178.499994552612,6|0,1:2|0:0,0:0:0:0:
21,265,49678,1,10,0:0:0:0:
223,182,49839,2,0,L|83:162,1,118.999996368408,2|0,0:0|1:0,0:0:0:0:
307,328,50160,1,2,1:2:0:0:
150,266,50320,1,8,0:0:0:0:
324,196,50481,1,2,0:0:0:0:
204,347,50641,6,0,P|137:363|82:336,1,118.999996368408,0|0,1:0|0:0,0:0:0:0:
133,148,50962,2,0,L|150:266,1,118.999996368408,10|0,0:0|0:0,0:0:0:0:
362,104,51283,1,2,1:2:0:0:
312,296,51443,1,0,1:0:0:0:
457,57,51604,1,10,0:0:0:0:
507,249,51764,1,0,0:0:0:0:
189,73,51924,6,0,P|124:54|69:81,1,118.999996368408,6|0,1:2|0:0,0:0:0:0:
390,211,52245,5,8,0:0:0:0:
133,148,52406,1,2,1:2:0:0:
425,361,52566,5,8,0:0:0:0:
362,104,52727,1,2,1:2:0:0:
128,334,52887,5,10,0:0:0:0:
189,73,53048,1,2,1:2:0:0:
320,348,53208,5,4,1:2:0:0:
177,246,53368,1,8,1:2:0:0:
177,246,53448,1,8,0:0:0:0:
177,246,53529,2,0,L|107:236,1,59.4999981842042,8|0,0:0|1:0,0:0:0:0:
12,152,53689,1,8,1:2:0:0:
12,152,53769,1,8,0:0:0:0:
12,152,53850,2,0,L|82:142,1,59.4999981842042,0|0,1:0|1:0,0:0:0:0:
189,73,54010,5,8,0:0:0:0:
236,59,54090,1,8,0:0:0:0:
285,65,54170,1,8,0:0:0:0:
329,87,54250,1,8,0:0:0:0:
374,109,54330,1,8,0:0:0:0:
422,117,54411,1,8,0:0:0:0:
471,106,54491,6,0,P|446:211|442:298,1,178.499994552612,6|0,1:2|0:0,0:0:0:0:
429,365,54812,2,0,P|397:303|339:283,1,118.999996368408,10|0,0:0|0:0,0:0:0:0:
161,351,55133,1,2,1:2:0:0:
335,379,55293,1,0,1:0:0:0:
156,256,55454,2,0,P|91:281|65:336,1,118.999996368408,10|0,0:0|0:0,0:0:0:0:
272,145,55775,6,0,L|255:263,1,118.999996368408,2|0,1:2|1:0,0:0:0:0:
286,40,56096,1,10,0:0:0:0:
481,262,56256,2,0,L|464:144,1,118.999996368408,2|0,0:0|1:0,0:0:0:0:
447,40,56577,1,2,1:2:0:0:
272,145,56737,2,0,B|182:107|182:191|93:154,1,178.499994552612,8|0,0:0|0:0,0:0:0:0:
48,69,57058,6,0,B|73:250|73:250|16:203,1,237.999992736817,2|8,1:2|0:0,0:0:0:0:
232,60,57539,1,2,0:0:0:0:
347,253,57700,2,0,L|364:135,1,118.999996368408,2|0,1:2|1:0,0:0:0:0:
110,324,58021,2,0,L|93:206,1,118.999996368408,10|0,0:0|0:0,0:0:0:0:
329,361,58342,6,0,B|272:391|218:367|213:318|161:294|105:326,1,237.999992736817,2|8,1:2|0:0,0:0:0:0:
277,133,58823,1,2,0:0:0:0:
215,298,58983,1,2,1:2:0:0:
372,133,59144,1,0,1:0:0:0:
434,298,59304,1,8,0:0:0:0:
191,193,59465,5,8,0:0:0:0:
191,193,59545,1,8,0:0:0:0:
191,193,59625,2,0,B|64:176|64:176|44:196|46:229,1,178.499994552612,6|0,1:2|0:0,0:0:0:0:
42,259,59946,1,10,0:0:0:0:
201,98,60106,2,0,P|263:129|283:187,1,118.999996368408,2|0,0:0|1:0,0:0:0:0:
254,359,60427,1,2,1:2:0:0:
191,193,60587,1,8,0:0:0:0:
127,359,60748,1,2,0:0:0:0:
312,272,60908,6,0,L|430:255,1,118.999996368408,0|0,1:0|1:0,0:0:0:0:
312,110,61229,1,10,0:0:0:0:
110,264,61390,2,0,L|93:146,1,118.999996368408,2|0,0:0|1:0,0:0:0:0:
75,16,61710,1,2,1:2:0:0:
193,143,61871,1,8,0:0:0:0:
1,174,62031,1,2,0:0:0:0:
256,36,62192,6,0,P|324:18|379:45,1,118.999996368408,4|0,1:2|0:0,0:0:0:0:
375,367,62513,5,8,0:0:0:0:
312,110,62674,1,0,1:0:0:0:
98,309,62833,5,10,0:0:0:0:
161,52,62994,1,0,1:0:0:0:
416,275,63154,5,8,0:0:0:0:
353,18,63315,1,0,1:0:0:0:
124,225,63475,5,10,0:0:0:0:
172,236,63555,1,8,0:0:0:0:
224,236,63635,1,8,0:0:0:0:
271,218,63715,1,8,0:0:0:0:
316,194,63795,1,8,0:0:0:0:
364,176,63876,1,8,0:0:0:0:
414,173,63956,1,8,0:0:0:0:
463,184,64036,1,8,0:0:0:0:
507,211,64117,5,2,1:2:0:0:
161,52,64277,1,2,1:2:0:0:
161,52,64598,6,0,L|419:15,1,237.999992736817,6|0,1:2|1:0,0:0:0:0:
201,263,65079,2,0,P|183:195|210:140,1,118.999996368408,14|0,0:0|0:0,0:0:0:0:
429,185,65400,1,2,1:2:0:0:
279,206,65561,1,0,1:0:0:0:
506,127,65721,2,0,P|524:195|497:250,1,118.999996368408,10|0,0:0|0:0,0:0:0:0:
379,384,66042,6,0,L|362:266,1,118.999996368408,2|0,1:2|1:0,0:0:0:0:
330,37,66363,1,10,0:0:0:0:
161,222,66523,2,0,L|279:205,1,118.999996368408,2|0,0:0|1:0,0:0:0:0:
429,185,66844,1,2,1:2:0:0:
248,91,67005,1,8,0:0:0:0:
432,66,67165,1,2,0:0:0:0:
326,298,67325,6,0,B|469:277|469:277|506:319,1,178.499994552612,0|0,1:0|0:0,0:0:0:0:
512,334,67646,1,10,0:0:0:0:
432,66,67807,2,0,P|371:101|351:159,1,118.999996368408,2|0,0:0|1:0,0:0:0:0:
247,377,68128,2,0,P|307:341|327:283,1,118.999996368408,2|8,1:2|0:0,0:0:0:0:
149,152,68448,1,2,0:0:0:0:
326,298,68609,5,2,1:2:0:0:
262,119,68769,1,0,0:0:0:0:
85,331,68930,1,10,0:0:0:0:
149,152,69090,1,0,0:0:0:0:
226,280,69251,1,2,1:2:0:0:
149,53,69411,1,0,1:0:0:0:
39,222,69571,1,10,0:0:0:0:
357,138,69732,5,10,0:0:0:0:
357,138,69812,1,8,0:0:0:0:
357,138,69892,2,0,B|488:119|488:119|509:136|515:166,1,178.499994552612,6|0,1:2|0:0,0:0:0:0:
512,194,70213,1,10,0:0:0:0:
343,44,70374,2,0,P|282:79|262:137,1,118.999996368408,2|0,0:0|1:0,0:0:0:0:
234,287,70694,1,2,1:2:0:0:
357,138,70855,1,8,0:0:0:0:
170,182,71015,1,2,0:0:0:0:
327,356,71176,6,0,L|344:238,1,118.999996368408,0|0,1:0|0:0,0:0:0:0:
70,140,71497,2,0,L|87:258,1,118.999996368408,10|0,0:0|0:0,0:0:0:0:
357,138,71817,1,2,1:2:0:0:
170,182,71978,1,0,1:0:0:0:
343,238,72138,1,10,0:0:0:0:
277,60,72299,1,0,1:0:0:0:
86,257,72459,5,14,0:0:0:0:
264,160,72620,1,0,1:0:0:0:
51,119,72780,1,0,1:0:0:0:
232,378,72940,6,0,L|249:260,1,118.999996368408,14|0,0:0|1:0,0:0:0:0:
277,60,73261,1,2,1:2:0:0:
343,238,73422,1,10,0:0:0:0:
159,89,73582,1,2,1:2:0:0:
394,35,73743,5,4,1:2:0:0:
264,160,73903,1,0,1:0:0:0:
264,160,73983,1,0,1:0:0:0:
264,160,74064,2,0,L|194:170,1,59.4999981842042,8|0,0:0|1:0,0:0:0:0:
343,238,74224,1,0,1:0:0:0:
343,238,74304,1,0,1:0:0:0:
343,238,74385,2,0,L|413:248,1,59.4999981842042,8|8,0:0|3:0,0:0:0:0:
483,101,74545,5,2,3:0:0:0:
483,101,74625,1,0,1:0:0:0:
483,100,74705,2,0,B|433:188|535:205|482:293,1,204,12|0,0:0|0:0,0:0:0:0:
434,365,75026,6,0,P|347:342|258:335,1,178.499994552612,6|0,1:2|0:0,0:0:0:0:
217,339,75347,1,14,0:0:0:0:
342,126,75507,2,0,P|360:194|333:249,1,118.999996368408,2|0,0:0|1:0,0:0:0:0:
155,20,75828,1,2,1:2:0:0:
263,183,75989,1,8,0:0:0:0:
79,126,76149,1,2,0:0:0:0:
267,49,76309,6,0,L|385:32,1,118.999996368408,0|0,1:0|1:0,0:0:0:0:
467,255,76630,2,0,L|349:238,1,118.999996368408,10|0,0:0|0:0,0:0:0:0:
185,117,76951,1,2,1:2:0:0:
369,139,77112,1,0,1:0:0:0:
189,351,77272,2,0,L|172:233,1,118.999996368408,10|0,0:0|0:0,0:0:0:0:
425,27,77593,6,0,L|388:291,1,237.999992736817,2|8,1:2|0:0,0:0:0:0:
512,158,78074,1,2,0:0:0:0:
304,130,78235,2,0,B|123:105|123:105|181:159,1,237.999992736817,2|8,1:2|0:0,0:0:0:0:
321,23,78716,1,2,0:0:0:0:
287,248,78876,6,0,L|304:130,1,118.999996368408,2|0,1:2|1:0,0:0:0:0:
512,42,79197,1,10,0:0:0:0:
401,204,79358,1,2,0:0:0:0:
321,23,79518,1,2,1:2:0:0:
497,214,79678,1,0,1:0:0:0:
417,32,79839,1,8,0:0:0:0:
287,248,79999,5,8,0:0:0:0:
287,248,80079,1,8,0:0:0:0:
287,248,80159,2,0,B|156:229|156:229|135:246|129:276,1,178.499994552612,6|0,1:2|0:0,0:0:0:0:
120,300,80480,1,10,0:0:0:0:
303,151,80641,2,0,P|363:186|383:244,1,118.999996368408,2|0,0:0|1:0,0:0:0:0:
206,139,80962,1,2,1:2:0:0:
369,75,81122,1,8,0:0:0:0:
287,248,81283,1,2,0:0:0:0:
130,62,81443,6,0,L|248:45,1,118.999996368408,0|0,1:0|1:0,0:0:0:0:
391,204,81764,1,10,0:0:0:0:
512,16,81924,2,0,L|495:134,1,118.999996368408,2|0,0:0|1:0,0:0:0:0:
470,280,82245,1,2,1:2:0:0:
401,103,82406,1,8,0:0:0:0:
287,248,82566,1,2,0:0:0:0:
130,62,82727,6,0,P|62:44|7:71,1,118.999996368408,4|0,1:2|0:0,0:0:0:0:
130,322,83047,5,8,0:0:0:0:
233,63,83208,1,2,1:2:0:0:
411,384,83368,5,8,0:0:0:0:
308,125,83529,1,2,1:2:0:0:
130,322,83689,6,0,P|62:340|7:313,1,118.999996368408,10|0,0:0|1:0,0:0:0:0:
308,125,84010,5,8,0:0:0:0:
75,244,84170,1,0,1:0:0:0:
395,306,84331,5,8,0:0:0:0:
162,187,84491,1,2,1:2:0:0:
482,117,84652,5,8,0:0:0:0:
249,236,84812,1,2,1:2:0:0:
496,371,84973,6,0,L|513:253,1,118.999996368408,14|0,0:0|0:0,0:0:0:0:
313,36,85293,5,2,1:2:0:0:
318,72,85373,1,0,1:0:0:0:
324,109,85453,1,8,0:0:0:0:
329,146,85533,1,8,0:0:0:0:
335,183,85613,1,10,1:2:0:0:
61,306,85775,5,10,0:0:0:0:
102,293,85855,1,8,0:0:0:0:
146,291,85935,1,8,1:2:0:0:
188,307,86015,1,8,0:0:0:0:
228,329,86095,1,10,0:0:0:0:
266,353,86176,1,8,0:0:0:0:
307,369,86256,1,8,1:2:0:0:
351,372,86336,1,8,0:0:0:0:
395,363,86416,1,10,0:0:0:0:
432,337,86497,1,8,0:0:0:0:
458,298,86577,6,0,L|449:239,1,59.4999981842042,0|0,1:0|0:0,0:0:0:0:
256,192,87700,5,6,1:2:0:0:
256,192,87780,12,0,89946,0:0:0:0:
