osu file format v14

[General]
AudioFilename: audio.mp3
AudioLeadIn: 0
PreviewTime: 134254
Countdown: 0
SampleSet: Soft
StackLeniency: 0.3
Mode: 0
LetterboxInBreaks: 0
WidescreenStoryboard: 0

[Editor]
Bookmarks: 248904
DistanceSpacing: 1
BeatDivisor: 4
GridSize: 32
TimelineZoom: 2.7

[Metadata]
Title:RYUSEI
TitleUnicode:流星
Artist:Aoi Eir
ArtistUnicode:藍井エイル
Creator:Cappu
Version:Battle Royal
Source:
Tags:
BeatmapID:1735067
BeatmapSetID:828086

[Difficulty]
HPDrainRate:5.5
CircleSize:4
OverallDifficulty:8.4
ApproachRate:9.3
SliderMultiplier:2.6
SliderTickRate:1

[Events]
//Background and Video events
0,0,"BG.jpg",0,0
//Break Periods
2,177156,189189
2,220992,223595
//Storyboard Layer 0 (Background)
//Storyboard Layer 1 (Fail)
//Storyboard Layer 2 (Pass)
//Storyboard Layer 3 (Foreground)
//Storyboard Sound Samples

[TimingPoints]
-746,419.58041958042,4,2,0,75,1,0
14358,-142.857142857143,4,2,0,75,0,0
27785,-125,4,2,0,75,0,0
37855,-111.111111111111,4,2,0,75,0,0
41212,-99.9999999999999,4,2,0,75,0,0
47925,-83.3333333333333,4,2,0,75,0,0
51281,-71.4285714285714,4,2,0,75,0,0
51596,-142.857142857143,4,2,0,75,0,0
51911,-71.4285714285714,4,2,0,75,0,0
52226,-142.857142857143,4,2,0,75,0,0
52960,-111.111111111111,4,2,0,75,0,0
53799,-166.666666666666,4,2,0,75,0,0
54638,-71.4285714285713,4,2,0,75,0,1
79393,-90.9090909090909,4,2,0,75,0,1
79813,-71.4285714285713,4,2,0,75,0,1
81491,-100,4,2,0,75,0,0
94918,-142.857142857143,4,2,0,75,0,0
108344,-125,4,2,0,75,0,0
118414,-111.111111111111,4,2,0,75,0,0
121771,-100,4,2,0,75,0,0
128484,-83.3333333333333,4,2,0,75,0,0
131841,-71.4285714285714,4,2,0,75,0,0
132156,-142.857142857143,4,2,0,75,0,0
132470,-71.4285714285714,4,2,0,75,0,0
132785,-142.857142857143,4,2,0,75,0,0
133519,-111.111111111111,4,2,0,75,0,0
134358,-166.666666666666,4,2,0,75,0,0
135198,-71.4285714285713,4,2,0,75,0,1
159953,-90.9090909090909,4,2,0,75,0,1
160372,-71.4285714285713,4,2,0,75,0,1
162051,-83.3333333333333,4,2,0,75,0,0
167295,-66.6666666666667,4,2,0,75,0,0
167505,-133.333333333333,4,2,0,75,0,0
167715,-66.6666666666667,4,2,0,75,0,0
167925,-133.333333333333,4,2,0,75,0,0
168764,-83.3333333333333,4,2,0,75,0,0
189743,-55.5555555555556,4,2,0,75,0,0
190582,-71.4285714285713,4,2,0,75,0,1
215337,-90.9090909090909,4,2,0,75,0,1
215757,-71.4285714285713,4,2,0,75,0,1
219533,-68.0272108843537,4,2,0,75,0,1
219743,-64.9350649350649,4,2,0,75,0,1
219953,-62.111801242236,4,2,0,75,0,1
220163,-59.5238095238095,4,2,0,75,0,1
220372,-57.1428571428571,4,2,0,75,0,1
220582,-54.9450549450549,4,2,0,75,0,1
220792,-71.4285714285713,4,2,0,75,0,0
224149,-200,4,2,0,75,0,0
224988,-153.846153846154,4,2,0,75,0,0
225827,-125,4,2,0,75,0,0
227086,-100,4,2,0,75,0,0
240932,-303.030303030303,4,2,0,75,0,0

[HitObjects]
98,102,512,6,0,B|130:102|130:102|177:141,1,65
282,31,722,2,0,B|249:31|249:31|202:70,1,65
221,263,932,6,0,L|229:134,1,130
122,253,1247,1,0,0:0:0:0:
122,253,1351,2,0,L|127:335,1,65
236,232,1561,2,0,L|241:150,1,65
27,156,1771,2,0,B|82:120|82:120|155:155,1,130
312,333,2191,1,0,0:0:0:0:
352,35,2400,1,0,0:0:0:0:
298,96,2505,1,0,0:0:0:0:
325,173,2610,6,0,L|478:163,1,130
458,4,2925,1,0,0:0:0:0:
458,4,3030,2,0,L|434:90,1,65
484,237,3240,2,0,L|460:151,1,65
255,149,3449,2,0,L|408:139,1,130
164,16,3869,1,0,0:0:0:0:
186,316,4079,1,0,0:0:0:0:
115,249,4184,1,0,0:0:0:0:
195,330,4288,6,0,B|254:300|254:300|330:333,1,130
390,220,4603,1,0,0:0:0:0:
390,220,4708,2,0,L|332:249,1,65
464,349,4918,2,0,L|406:319,1,65
495,118,5128,2,0,L|485:255,1,130
416,2,5547,1,0,0:0:0:0:
484,100,5757,1,0,0:0:0:0:
233,148,5967,1,0,0:0:0:0:
218,104,6072,1,0,0:0:0:0:
227,59,6176,1,0,0:0:0:0:
262,28,6281,1,0,0:0:0:0:
309,27,6386,5,0,0:0:0:0:
358,104,6491,1,0,0:0:0:0:
351,197,6596,1,0,0:0:0:0:
287,263,6701,1,0,0:0:0:0:
195,249,6806,5,0,0:0:0:0:
137,145,6911,1,0,0:0:0:0:
146,249,7016,5,0,0:0:0:0:
147,129,7121,1,0,0:0:0:0:
102,223,7225,5,0,0:0:0:0:
163,120,7330,1,0,0:0:0:0:
77,178,7435,5,0,0:0:0:0:
181,120,7540,1,0,0:0:0:0:
77,127,7645,6,0,P|106:189|103:258,1,130
11,380,7960,1,0,0:0:0:0:
11,380,8065,2,0,L|78:357,1,65
176,292,8274,2,0,L|243:315,1,65
461,239,8484,2,0,B|413:284|413:284|330:260,1,130
501,67,8904,1,0,0:0:0:0:
213,156,9114,1,0,0:0:0:0:
288,188,9219,1,0,0:0:0:0:
353,140,9323,6,0,L|330:7,1,130
165,19,9638,1,0,0:0:0:0:
165,19,9743,2,0,P|198:33|245:29,1,65
127,119,9953,2,0,P|94:120|65:133,1,65
110,353,10163,2,0,P|133:293|128:229,1,130
0,19,10582,1,0,0:0:0:0:
257,182,10792,1,0,0:0:0:0:
217,75,10897,1,0,0:0:0:0:
252,201,11002,6,0,L|392:237,1,130
508,138,11316,1,0,0:0:0:0:
508,138,11421,2,0,L|431:161,1,65
308,0,11631,1,0,0:0:0:0:
342,30,11736,1,0,0:0:0:0:
357,73,11841,1,0,0:0:0:0:
357,119,11946,2,0,L|280:94,1,65
118,181,12156,1,0,0:0:0:0:
158,202,12260,2,0,L|235:177,1,65
28,57,12470,1,0,0:0:0:0:
16,151,12575,1,0,0:0:0:0:
4,245,12680,6,0,P|72:254|126:308,1,130
207,368,12995,1,0,0:0:0:0:
207,368,13100,2,0,L|199:286,1,65
285,191,13309,2,0,L|277:273,2,65
301,169,13624,1,0,0:0:0:0:
325,158,13729,1,0,0:0:0:0:
351,163,13834,1,0,0:0:0:0:
428,298,13939,5,0,0:0:0:0:
437,224,14044,1,0,0:0:0:0:
446,150,14149,1,0,0:0:0:0:
455,76,14254,1,0,0:0:0:0:
464,2,14358,6,0,P|424:50|331:47,2,136.499995834351
464,2,15827,1,0,0:0:0:0:
269,84,16037,6,0,P|335:89|379:139,2,136.499995834351
28,172,17295,1,0,0:0:0:0:
35,187,17505,1,0,0:0:0:0:
145,9,17715,6,0,L|129:159,2,136.499995834351
186,264,18764,1,0,0:0:0:0:
213,239,18869,1,0,0:0:0:0:
283,325,18974,1,0,0:0:0:0:
257,317,19079,1,0,0:0:0:0:
288,208,19184,1,0,0:0:0:0:
293,226,19289,1,0,0:0:0:0:
297,244,19393,6,0,P|361:226|445:234,1,136.499995834351
439,247,20023,5,0,0:0:0:0:
447,263,20652,1,0,0:0:0:0:
325,36,21072,6,0,P|361:97|364:184,2,136.499995834351
458,161,22330,1,0,0:0:0:0:
452,146,22540,1,0,0:0:0:0:
234,286,22750,6,0,P|270:225|273:138,2,136.499995834351
373,146,24009,1,0,0:0:0:0:
367,161,24220,1,0,0:0:0:0:
124,76,24428,6,0,L|280:83,1,136.499995834351
62,12,25058,2,0,P|108:120|78:244,1,227.499993057251
88,225,25687,1,0,0:0:0:0:
4,263,25897,1,0,0:0:0:0:
139,328,26107,6,0,P|207:294|281:333,1,136.499995834351
398,234,26736,1,0,0:0:0:0:
398,234,26946,2,0,L|408:299,1,45.4999986114502
296,211,27156,2,0,L|306:146,1,45.4999986114502
400,89,27365,2,0,L|410:154,1,45.4999986114502
298,66,27575,2,0,L|308:1,1,45.4999986114502
44,95,27785,6,0,P|99:109|156:77,1,104
141,91,28100,2,0,P|156:145|212:178,1,104
192,173,28414,2,0,P|170:197|159:230,1,52
137,343,28624,5,0,0:0:0:0:
147,333,28834,2,0,L|212:346,1,52
293,256,29044,2,0,L|242:266,1,52
332,359,29254,2,0,L|397:372,1,52
450,196,29463,6,0,L|439:86,1,104
450,82,29778,2,0,L|460:185,1,104
470,174,30093,2,0,L|465:122,1,52
320,59,30302,5,0,0:0:0:0:
313,50,30407,1,0,0:0:0:0:
321,44,30512,1,0,0:0:0:0:
328,52,30617,1,0,0:0:0:0:
366,133,30722,5,0,0:0:0:0:
373,142,30827,1,0,0:0:0:0:
365,148,30932,1,0,0:0:0:0:
358,140,31037,1,0,0:0:0:0:
303,214,31142,6,0,B|255:234|255:234|176:206,1,104
206,217,31456,2,0,B|199:268|199:268|135:322,1,104
160,303,31771,2,0,B|111:285,1,52
31,181,31981,5,0,0:0:0:0:
41,194,32191,2,0,P|71:189|105:167,1,52
137,45,32400,2,0,P|126:73|128:113,1,52
218,202,32610,2,0,P|198:178|162:160,1,52
188,345,32820,6,0,L|300:333,1,104
302,344,33135,2,0,L|198:355,1,104
208,365,33449,2,0,L|280:357,1,52
373,243,33659,5,0,0:0:0:0:
373,261,33764,1,0,0:0:0:0:
380,248,33869,1,0,0:0:0:0:
380,257,33974,1,0,0:0:0:0:
469,311,34079,5,0,0:0:0:0:
469,293,34184,1,0,0:0:0:0:
476,306,34289,1,0,0:0:0:0:
476,297,34394,1,0,0:0:0:0:
461,174,34498,6,0,P|428:108|437:50,1,104
428,79,34813,2,0,P|354:74|308:37,1,104
330,60,35128,2,0,P|301:94|273:111,1,52
179,142,35337,5,0,0:0:0:0:
171,157,35547,2,0,L|182:232,1,52
265,315,35757,2,0,L|276:240,1,52
159,325,35967,2,0,L|170:400,1,52
348,372,36177,6,0,L|368:243,1,104
375,263,36491,2,0,L|359:365,1,104
370,358,36806,2,0,L|379:297,1,52
311,136,37016,5,0,0:0:0:0:
312,149,37121,1,0,0:0:0:0:
313,162,37226,1,0,0:0:0:0:
314,175,37330,1,0,0:0:0:0:
227,232,37435,5,0,0:0:0:0:
228,219,37540,1,0,0:0:0:0:
213,182,37645,2,0,L|216:118,1,52
107,4,37855,6,0,L|120:130,1,116.999996429443
25,346,38274,2,0,L|38:220,1,116.999996429443
272,302,38694,2,0,B|201:325|201:325|140:317,1,116.999996429443
294,114,39114,2,0,B|365:91|365:91|426:99,1,116.999996429443
128,15,39533,6,0,P|178:72|157:211,1,175.499994644165
182,168,39953,2,0,L|116:182,1,58.4999982147217
3,322,40163,1,0,0:0:0:0:
74,330,40267,1,0,0:0:0:0:
145,338,40372,2,0,L|202:325,1,58.4999982147217
326,199,40582,2,0,L|268:211,1,58.4999982147217
411,325,40792,1,0,0:0:0:0:
456,268,40896,1,0,0:0:0:0:
471,197,41001,1,0,0:0:0:0:
450,128,41106,1,0,0:0:0:0:
400,76,41212,5,0,0:0:0:0:
102,61,41421,1,0,0:0:0:0:
178,90,41526,1,0,0:0:0:0:
240,37,41631,2,0,P|224:98|248:184,1,130
288,384,42051,2,0,P|304:323|280:237,1,130
304,258,42365,2,0,P|316:321|299:383,1,130
129,318,42680,2,0,P|173:325|217:305,1,65
81,194,42890,5,0,0:0:0:0:
81,194,42995,2,0,P|107:230|152:247,1,65
140,74,43205,1,0,0:0:0:0:
140,74,43309,2,0,P|132:118|153:162,1,65
207,6,43519,2,0,P|232:43|233:91,1,65
451,69,43729,2,0,B|407:65|407:65|372:48|372:48|320:44,1,130
300,133,44044,1,0,0:0:0:0:
307,125,44149,1,0,0:0:0:0:
342,204,44254,1,0,0:0:0:0:
320,288,44358,2,0,L|235:274,1,65
111,340,44568,5,0,0:0:0:0:
140,44,44778,1,0,0:0:0:0:
98,113,44883,1,0,0:0:0:0:
155,171,44988,2,0,P|219:184|291:142,1,130
406,9,45407,2,0,L|380:164,1,130
469,190,45722,1,0,0:0:0:0:
469,190,45827,2,0,L|478:270,1,65
375,318,46037,2,0,L|384:238,1,65
270,45,46247,6,0,L|286:176,1,130
227,239,46561,1,0,0:0:0:0:
227,239,46666,2,0,P|194:229|150:231,1,65
64,135,46876,2,0,P|97:145|141:143,1,65
278,32,47086,5,0,0:0:0:0:
297,59,47190,1,0,0:0:0:0:
325,78,47295,1,0,0:0:0:0:
357,86,47400,1,0,0:0:0:0:
330,174,47505,5,0,0:0:0:0:
363,179,47609,1,0,0:0:0:0:
396,173,47714,1,0,0:0:0:0:
424,156,47819,1,0,0:0:0:0:
512,194,47925,6,0,P|487:234|481:280,1,77.999997619629
357,368,48135,1,0,0:0:0:0:
357,368,48240,1,0,0:0:0:0:
357,368,48344,2,0,P|320:338|265:321,1,77.999997619629
263,235,48554,2,0,P|216:239|165:267,1,77.999997619629
102,207,48764,2,0,P|72:243|55:298,1,77.999997619629
175,384,48974,1,0,0:0:0:0:
175,384,49079,1,0,0:0:0:0:
175,384,49184,2,0,P|158:348|133:319,1,77.999997619629
2,208,49393,2,0,P|17:172|21:133,1,77.999997619629
105,7,49603,6,0,P|108:45|124:81,1,77.999997619629
192,232,49813,1,0,0:0:0:0:
192,232,49918,1,0,0:0:0:0:
192,232,50023,2,0,P|195:193|211:157,1,77.999997619629
266,0,50233,1,0,0:0:0:0:
200,51,50337,1,0,0:0:0:0:
279,7,50442,2,0,P|282:45|298:81,1,77.999997619629
366,232,50652,1,0,0:0:0:0:
373,243,50757,1,0,0:0:0:0:
380,254,50862,5,0,0:0:0:0:
431,174,50967,1,0,0:0:0:0:
352,272,51072,5,0,0:0:0:0:
356,177,51177,1,0,0:0:0:0:
336,301,51281,5,0,0:0:0:0:
349,331,51386,2,0,P|309:306|257:301,1,90.9999972229005
179,330,51596,5,0,0:0:0:0:
179,330,51701,2,0,L|173:391,1,45.4999986114502
0,180,51911,5,0,0:0:0:0:
0,213,52016,2,0,P|40:188|92:183,1,90.9999972229005
181,186,52226,5,0,0:0:0:0:
181,186,52331,2,0,L|187:247,1,45.4999986114502
336,59,52540,5,0,0:0:0:0:
336,92,52645,1,0,0:0:0:0:
200,13,52750,5,0,0:0:0:0:
187,74,52855,1,0,0:0:0:0:
175,135,52960,6,0,B|259:98|332:122|332:122|341:135|341:135|393:167|453:139|453:139|466:175|490:193|490:193|476:223|452:234,1,409.499987503052
491,301,53799,6,0,P|438:262|363:273,1,116.999996429443
383,337,54219,2,0,P|356:276|286:248,1,116.999996429443
169,298,54638,6,0,B|202:348|202:348|224:176,1,181.999994445801
94,117,54953,1,0,0:0:0:0:
94,117,55058,2,0,B|120:210,1,90.9999972229005
398,98,55267,2,0,B|375:160|375:160|337:187|337:187|310:259,1,181.999994445801
506,128,55687,2,0,B|485:39,1,90.9999972229005
470,30,55897,2,0,B|490:118,1,90.9999972229005
424,279,56107,2,0,L|453:181,1,90.9999972229005
235,55,56316,6,0,P|312:-1|405:35,1,181.999994445801
348,172,56631,1,0,0:0:0:0:
348,172,56736,2,0,P|303:148|239:158,1,90.9999972229005
223,303,56946,2,0,P|265:276|289:215,1,90.9999972229005
171,129,57156,1,0,0:0:0:0:
171,129,57260,1,0,0:0:0:0:
171,129,57365,2,0,P|172:179|213:229,1,90.9999972229005
110,347,57575,1,0,0:0:0:0:
116,362,57785,1,0,0:0:0:0:
31,191,57995,6,0,B|90:145|71:72|71:72|34:88|31:125,1,181.999994445801
172,41,58309,1,0,0:0:0:0:
172,41,58414,2,0,L|264:59,1,90.9999972229005
419,167,58624,1,0,0:0:0:0:
392,49,58729,1,0,0:0:0:0:
404,179,58834,1,0,0:0:0:0:
408,58,58939,1,0,0:0:0:0:
385,186,59044,2,0,L|260:198,1,90.9999972229005
45,180,59254,2,0,P|135:181|189:258,1,181.999994445801
55,335,59568,1,0,0:0:0:0:
55,335,59673,6,0,P|107:325|146:341,1,90.9999972229005
346,317,59883,1,0,0:0:0:0:
346,317,59988,1,0,0:0:0:0:
346,317,60093,2,0,P|293:326|254:310,1,90.9999972229005
142,175,60302,2,0,P|171:193|197:287,1,90.9999972229005
351,223,60512,5,0,0:0:0:0:
375,229,60617,1,0,0:0:0:0:
399,235,60722,1,0,0:0:0:0:
423,241,60827,1,0,0:0:0:0:
461,76,60932,5,0,0:0:0:0:
497,221,61037,1,0,0:0:0:0:
475,66,61142,5,0,0:0:0:0:
511,211,61247,1,0,0:0:0:0:
391,17,61351,6,0,B|267:36|267:36|325:68,1,181.999994445801
164,10,61666,1,0,0:0:0:0:
164,10,61771,2,0,P|158:60|182:109,1,90.9999972229005
57,315,61981,2,0,B|71:262|116:238|118:264|166:243|178:193,1,181.999994445801
403,235,62400,2,0,P|445:259|509:258,1,90.9999972229005
487,263,62610,2,0,P|445:239|381:240,1,90.9999972229005
248,340,62820,2,0,P|290:356|333:346,1,90.9999972229005
274,82,63030,6,0,L|297:271,1,181.999994445801
144,200,63344,1,0,0:0:0:0:
144,200,63449,2,0,P|182:226|213:271,1,90.9999972229005
427,164,63659,1,0,0:0:0:0:
427,164,63764,1,0,0:0:0:0:
427,164,63869,2,0,P|396:198|377:249,1,90.9999972229005
274,82,64079,2,0,L|287:190,1,90.9999972229005
131,102,64288,5,0,0:0:0:0:
157,0,64393,1,0,0:0:0:0:
61,142,64498,5,0,0:0:0:0:
59,36,64603,1,0,0:0:0:0:
13,208,64708,6,0,B|130:228|130:228|73:267,1,181.999994445801
203,172,65023,1,0,0:0:0:0:
203,172,65128,2,0,P|223:225|212:274,1,90.9999972229005
338,384,65337,2,0,P|335:339|353:297,1,90.9999972229005
503,170,65547,5,0,0:0:0:0:
459,192,65652,1,0,0:0:0:0:
410,191,65757,1,0,0:0:0:0:
368,166,65862,1,0,0:0:0:0:
306,88,65967,5,0,0:0:0:0:
298,116,66072,1,0,0:0:0:0:
303,83,66177,1,0,0:0:0:0:
295,111,66282,1,0,0:0:0:0:
206,172,66386,6,0,L|190:60,1,90.9999972229005
40,208,66596,1,0,0:0:0:0:
109,256,66701,2,0,L|125:144,1,90.9999972229005
275,292,66911,1,0,0:0:0:0:
206,340,67016,2,0,L|190:228,1,90.9999972229005
423,104,67226,5,0,0:0:0:0:
458,221,67330,1,0,0:0:0:0:
430,92,67435,5,0,0:0:0:0:
465,209,67539,1,0,0:0:0:0:
337,291,67645,5,0,0:0:0:0:
372,174,67749,1,0,0:0:0:0:
330,279,67854,5,0,0:0:0:0:
365,162,67958,1,0,0:0:0:0:
419,368,68065,6,0,P|290:305|234:322,1,181.999994445801
120,219,68379,1,0,0:0:0:0:
120,219,68484,2,0,P|139:252|143:328,1,90.9999972229005
346,110,68694,2,0,B|332:163|287:187|285:161|237:182|225:232,1,181.999994445801
434,134,69114,2,0,P|465:149|495:215,1,90.9999972229005
494,197,69323,2,0,P|463:182|433:116,1,90.9999972229005
227,3,69533,2,0,P|250:41|259:110,1,90.9999972229005
44,244,69743,6,0,B|130:237|130:237|140:242|140:242|238:231,1,181.999994445801
356,322,70058,1,0,0:0:0:0:
356,322,70163,5,0,0:0:0:0:
250,344,70267,1,0,0:0:0:0:
351,214,70372,5,0,0:0:0:0:
245,236,70476,1,0,0:0:0:0:
365,220,70582,6,0,L|373:110,1,90.9999972229005
170,9,70792,1,0,0:0:0:0:
181,90,70897,1,0,0:0:0:0:
192,172,71002,5,0,0:0:0:0:
179,185,71107,1,0,0:0:0:0:
105,165,71212,5,0,0:0:0:0:
100,182,71317,1,0,0:0:0:0:
26,264,71421,6,0,L|123:304,1,90.9999972229005
264,232,71631,6,0,L|256:341,1,90.9999972229005
245,334,71841,2,0,L|251:243,1,90.9999972229005
483,162,72051,6,0,L|386:202,1,90.9999972229005
245,130,72260,6,0,L|253:239,1,90.9999972229005
264,232,72470,2,0,L|257:141,1,90.9999972229005
26,60,72680,6,0,L|123:100,1,90.9999972229005
368,73,72890,5,0,0:0:0:0:
284,53,72995,1,0,0:0:0:0:
245,130,73100,1,0,0:0:0:0:
231,131,73309,5,0,0:0:0:0:
278,39,73414,1,0,0:0:0:0:
379,63,73519,1,0,0:0:0:0:
390,53,73729,5,0,0:0:0:0:
401,43,73834,1,0,0:0:0:0:
410,263,73939,5,0,0:0:0:0:
317,113,74044,1,0,0:0:0:0:
289,235,74149,5,0,0:0:0:0:
438,141,74254,1,0,0:0:0:0:
415,271,74358,5,0,0:0:0:0:
311,104,74463,1,0,0:0:0:0:
280,240,74568,5,0,0:0:0:0:
446,135,74673,1,0,0:0:0:0:
229,163,74778,6,0,L|122:194,1,90.9999972229005
36,139,74988,2,0,L|14:227,1,90.9999972229005
22,239,75198,2,0,L|48:130,1,90.9999972229005
60,21,75407,2,0,L|140:98,1,90.9999972229005
234,51,75617,5,0,0:0:0:0:
259,65,75722,1,0,0:0:0:0:
287,68,75827,1,0,0:0:0:0:
313,58,75932,1,0,0:0:0:0:
418,0,76037,5,0,0:0:0:0:
414,110,76142,1,0,0:0:0:0:
410,220,76247,6,0,B|285:227|285:227|231:279,1,181.999994445801
73,157,76666,1,0,0:0:0:0:
400,124,76876,6,0,B|275:131,1,90.9999972229005
276,24,77086,1,0,0:0:0:0:
276,24,77191,2,0,B|192:117,1,90.9999972229005
117,40,77400,1,0,0:0:0:0:
117,40,77505,2,0,B|122:130,1,90.9999972229005
181,255,77715,5,0,0:0:0:0:
186,220,77820,1,0,0:0:0:0:
103,313,77925,5,0,0:0:0:0:
100,295,78030,1,0,0:0:0:0:
273,328,78135,6,0,P|318:305|367:307,1,90.9999972229005
485,144,78344,1,0,0:0:0:0:
384,156,78449,1,0,0:0:0:0:
283,168,78554,6,0,P|246:201|210:255,1,90.9999972229005
151,16,78764,2,0,P|178:52|212:82,1,90.9999972229005
491,126,78974,5,0,0:0:0:0:
390,138,79079,1,0,0:0:0:0:
289,150,79184,1,0,0:0:0:0:
188,162,79288,1,0,0:0:0:0:
87,174,79393,6,0,L|48:104,1,71.5000021820069
54,96,79603,2,0,L|88:158,1,71.5000021820069
114,347,79813,6,0,L|235:319,1,90.9999972229005
455,201,80023,5,0,0:0:0:0:
398,256,80128,2,0,L|277:228,1,90.9999972229005
52,111,80337,5,0,0:0:0:0:
109,166,80442,2,0,L|230:138,1,90.9999972229005
445,44,80652,5,0,0:0:0:0:
469,186,80757,1,0,0:0:0:0:
356,23,80862,5,0,0:0:0:0:
380,165,80967,1,0,0:0:0:0:
452,32,81072,5,0,0:0:0:0:
476,174,81177,1,0,0:0:0:0:
363,11,81282,5,0,0:0:0:0:
387,153,81387,1,0,0:0:0:0:
260,44,81491,6,0,B|208:42|208:42|184:57|184:57|123:55,1,130
45,191,81806,1,0,0:0:0:0:
45,191,81911,2,0,L|34:123,1,65
145,72,82121,2,0,L|134:140,1,65
22,325,82330,2,0,B|96:297|96:297|162:308,1,130
402,362,82750,1,0,0:0:0:0:
226,138,82960,1,0,0:0:0:0:
249,216,83065,1,0,0:0:0:0:
330,210,83170,6,0,L|346:66,1,130
473,9,83484,1,0,0:0:0:0:
473,9,83589,2,0,L|480:73,1,65
355,114,83799,2,0,L|347:178,1,65
500,347,84009,2,0,B|450:343|450:343|427:329|427:329|351:322,1,130
129,372,84428,1,0,0:0:0:0:
175,108,84638,1,0,0:0:0:0:
84,149,84743,1,0,0:0:0:0:
193,117,84848,6,0,P|245:155|338:161,1,130
464,91,85163,1,0,0:0:0:0:
464,91,85267,2,0,P|413:101|379:91,1,65
279,22,85477,2,0,P|307:65|339:82,1,65
474,227,85687,2,0,P|408:227|331:278,1,130
102,223,86107,1,0,0:0:0:0:
183,315,86316,1,0,0:0:0:0:
235,62,86526,1,0,0:0:0:0:
189,67,86631,1,0,0:0:0:0:
143,72,86736,1,0,0:0:0:0:
97,77,86841,1,0,0:0:0:0:
26,153,86946,5,0,0:0:0:0:
117,162,87051,1,0,0:0:0:0:
208,172,87156,1,0,0:0:0:0:
300,182,87261,1,0,0:0:0:0:
349,53,87365,5,0,0:0:0:0:
390,165,87470,1,0,0:0:0:0:
355,40,87575,5,0,0:0:0:0:
396,152,87680,1,0,0:0:0:0:
361,27,87785,5,0,0:0:0:0:
402,139,87890,1,0,0:0:0:0:
367,14,87995,5,0,0:0:0:0:
408,126,88100,1,0,0:0:0:0:
511,12,88205,6,0,L|497:174,1,130
448,288,88519,1,0,0:0:0:0:
448,288,88624,2,0,L|441:214,1,65
347,304,88834,2,0,L|340:378,1,65
205,192,89044,2,0,P|256:199|298:222,2,65
136,263,89358,1,0,0:0:0:0:
136,263,89463,1,0,0:0:0:0:
3,16,89673,1,0,0:0:0:0:
62,72,89778,1,0,0:0:0:0:
143,66,89883,6,0,P|212:43|301:59,1,130
414,4,90198,1,0,0:0:0:0:
414,4,90303,2,0,P|400:35|391:93,1,65
291,158,90512,2,0,P|305:189|314:247,1,65
499,362,90722,2,0,P|431:330|353:339,1,130
127,378,91142,1,0,0:0:0:0:
299,140,91351,1,0,0:0:0:0:
214,188,91456,1,0,0:0:0:0:
318,149,91561,6,0,L|465:164,1,130
330,269,91876,1,0,0:0:0:0:
330,269,91981,2,0,L|247:260,1,65
59,299,92191,1,0,0:0:0:0:
96,273,92295,1,0,0:0:0:0:
114,231,92400,1,0,0:0:0:0:
108,186,92505,2,0,L|92:108,1,65
247,0,92715,1,0,0:0:0:0:
262,43,92820,2,0,L|246:121,1,65
182,326,93030,1,0,0:0:0:0:
276,315,93135,1,0,0:0:0:0:
370,304,93240,6,0,P|434:315|513:365,1,130
475,240,93554,1,0,0:0:0:0:
475,240,93659,2,0,P|461:201|458:165,1,65
383,58,93869,2,0,P|377:90|366:120,2,65
361,43,94184,1,0,0:0:0:0:
335,40,94288,1,0,0:0:0:0:
309,46,94393,1,0,0:0:0:0:
216,172,94498,5,0,0:0:0:0:
150,136,94603,1,0,0:0:0:0:
158,60,94708,1,0,0:0:0:0:
224,96,94813,1,0,0:0:0:0:
216,172,94918,6,0,P|293:179|341:227,2,136.499995834351
216,172,96386,1,0,0:0:0:0:
415,247,96596,6,0,P|338:254|290:302,2,136.499995834351
158,262,97855,1,0,0:0:0:0:
163,278,98065,1,0,0:0:0:0:
72,90,98274,6,0,L|64:229,2,136.499995834351
333,137,99323,1,0,0:0:0:0:
296,133,99428,1,0,0:0:0:0:
263,43,99533,1,0,0:0:0:0:
243,60,99638,1,0,0:0:0:0:
155,23,99743,1,0,0:0:0:0:
154,41,99848,1,0,0:0:0:0:
152,59,99953,6,0,L|166:210,1,136.499995834351
174,212,100582,5,0,0:0:0:0:
183,229,101212,1,0,0:0:0:0:
439,204,101631,6,0,P|377:213|289:179,2,136.499995834351
265,285,102890,1,0,0:0:0:0:
278,295,103100,1,0,0:0:0:0:
40,379,103309,6,0,P|104:358|171:366,2,136.499995834351
195,265,104568,1,0,0:0:0:0:
180,258,104778,1,0,0:0:0:0:
409,137,104988,6,0,L|248:164,1,136.499995834351
459,66,105617,2,0,P|434:137|452:315,1,227.499993057251
441,287,106247,1,0,0:0:0:0:
512,357,106456,1,0,0:0:0:0:
363,351,106666,6,0,P|314:310|234:326,1,136.499995834351
132,209,107295,1,0,0:0:0:0:
132,209,107505,2,0,L|140:277,1,45.4999986114502
33,352,107715,2,0,L|41:284,1,45.4999986114502
140,202,107925,2,0,L|148:270,1,45.4999986114502
24,359,108135,2,0,L|32:291,1,45.4999986114502
68,48,108344,6,0,P|113:80|194:79,1,104
160,86,108659,2,0,P|205:54|286:55,1,104
252,47,108974,2,0,P|259:82|279:120,1,52
356,192,109184,5,0,0:0:0:0:
348,180,109393,2,0,L|411:167,1,52
303,258,109603,2,0,L|240:245,1,52
348,336,109813,2,0,L|411:323,1,52
218,358,110023,6,0,L|108:322,1,104
116,311,110337,2,0,L|214:343,1,104
210,328,110652,2,0,L|158:311,1,52
32,213,110862,5,0,0:0:0:0:
48,206,110967,1,0,0:0:0:0:
39,217,111072,1,0,0:0:0:0:
47,214,111177,1,0,0:0:0:0:
135,149,111281,5,0,0:0:0:0:
119,142,111386,1,0,0:0:0:0:
128,153,111491,1,0,0:0:0:0:
120,150,111596,1,0,0:0:0:0:
195,230,111701,6,0,P|265:253|299:300,1,104
285,273,112016,2,0,P|340:224|399:217,1,104
368,217,112331,2,0,P|364:172|372:140,1,52
408,42,112540,5,0,0:0:0:0:
412,57,112750,2,0,P|380:61|349:73,1,52
239,9,112960,2,0,P|263:16|289:19,1,52
175,88,113170,2,0,P|143:92|112:104,1,52
0,230,113379,6,0,L|19:350,1,104
30,339,113694,2,0,L|13:236,1,104
26,242,114009,2,0,L|36:303,1,52
185,340,114219,5,0,0:0:0:0:
178,331,114324,1,0,0:0:0:0:
186,325,114429,1,0,0:0:0:0:
193,333,114534,1,0,0:0:0:0:
131,240,114638,5,0,0:0:0:0:
124,249,114743,1,0,0:0:0:0:
132,255,114848,1,0,0:0:0:0:
139,247,114953,1,0,0:0:0:0:
276,257,115058,6,0,P|244:212|245:131,1,104
238,165,115373,2,0,P|270:120|269:39,1,104
276,72,115688,2,0,P|241:65|203:45,1,52
107,6,115897,1,0,0:0:0:0:
98,23,116107,6,0,L|109:91,1,52
31,183,116316,2,0,L|22:131,1,52
131,206,116526,2,0,L|139:257,1,52
2,374,116736,6,0,L|113:349,1,104
108,338,117051,2,0,L|6:360,1,104
10,346,117365,2,0,L|75:332,1,52
225,252,117575,5,0,0:0:0:0:
226,265,117680,1,0,0:0:0:0:
227,278,117785,1,0,0:0:0:0:
228,291,117889,1,0,0:0:0:0:
325,335,117995,5,0,0:0:0:0:
324,322,118100,1,0,0:0:0:0:
339,285,118205,2,0,L|336:221,1,52
469,124,118414,6,0,B|394:142|394:142|346:137,1,116.999996429443
114,195,118834,2,0,B|189:177|189:177|237:182,1,116.999996429443
466,259,119254,2,0,B|426:263|426:263|351:245,1,116.999996429443
117,60,119673,2,0,B|156:55|156:55|231:73,1,116.999996429443
100,337,120093,6,0,P|143:281|132:167,1,175.499994644165
139,180,120512,2,0,L|68:182,1,58.4999982147217
211,332,120722,1,0,0:0:0:0:
283,328,120827,1,0,0:0:0:0:
355,324,120932,2,0,L|366:260,1,58.4999982147217
411,111,121142,2,0,L|420:168,1,58.4999982147217
242,245,121351,1,0,0:0:0:0:
231,173,121456,1,0,0:0:0:0:
283,122,121561,1,0,0:0:0:0:
294,50,121666,1,0,0:0:0:0:
239,4,121771,5,0,0:0:0:0:
378,256,121981,1,0,0:0:0:0:
349,180,122086,1,0,0:0:0:0:
399,116,122191,2,0,B|462:98|462:98|512:140,1,130
302,254,122610,2,0,B|238:236|238:236|189:278,1,130
188,267,122925,2,0,B|237:225|237:225|301:243,1,130
105,256,123240,2,0,L|117:347,1,65
20,181,123449,5,0,0:0:0:0:
20,181,123554,2,0,L|8:272,1,65
105,106,123764,1,0,0:0:0:0:
105,106,123869,2,0,L|117:197,1,65
20,31,124079,2,0,L|8:122,1,65
210,12,124288,2,0,B|193:53|193:53|208:151,1,130
295,116,124603,1,0,0:0:0:0:
288,108,124708,1,0,0:0:0:0:
277,196,124813,1,0,0:0:0:0:
266,284,124918,2,0,L|355:313,1,65
484,284,125128,5,0,0:0:0:0:
389,8,125337,1,0,0:0:0:0:
450,62,125442,1,0,0:0:0:0:
412,134,125547,2,0,P|350:109|273:110,1,130
187,281,125967,2,0,L|176:127,1,130
86,113,126281,1,0,0:0:0:0:
86,113,126386,2,0,L|80:189,1,65
173,249,126596,2,0,L|168:184,1,65
324,11,126806,6,0,L|311:169,1,130
389,212,127121,1,0,0:0:0:0:
389,212,127226,2,0,L|396:306,1,65
298,356,127435,2,0,L|305:261,1,65
210,125,127645,5,0,0:0:0:0:
212,158,127750,1,0,0:0:0:0:
214,191,127855,1,0,0:0:0:0:
216,224,127960,1,0,0:0:0:0:
137,269,128065,5,0,0:0:0:0:
139,302,128170,1,0,0:0:0:0:
141,335,128275,1,0,0:0:0:0:
143,368,128380,1,0,0:0:0:0:
228,336,128484,6,0,P|270:316|319:330,1,77.999997619629
455,366,128694,1,0,0:0:0:0:
455,366,128799,1,0,0:0:0:0:
455,366,128904,2,0,L|466:273,1,77.999997619629
370,265,129114,2,0,L|359:172,1,77.999997619629
455,164,129323,2,0,L|466:71,1,77.999997619629
326,19,129533,1,0,0:0:0:0:
326,19,129638,1,0,0:0:0:0:
326,19,129743,2,0,L|335:96,1,77.999997619629
242,215,129953,2,0,L|251:137,1,77.999997619629
125,31,130163,6,0,P|154:87|153:126,1,77.999997619629
33,187,130372,1,0,0:0:0:0:
33,187,130477,1,0,0:0:0:0:
33,187,130582,2,0,P|4:243|5:282,1,77.999997619629
142,343,130792,1,0,0:0:0:0:
58,333,130897,1,0,0:0:0:0:
146,356,131002,2,0,L|256:357,1,77.999997619629
353,249,131212,1,0,0:0:0:0:
353,249,131316,1,0,0:0:0:0:
353,249,131421,5,0,0:0:0:0:
366,344,131526,1,0,0:0:0:0:
279,191,131631,5,0,0:0:0:0:
266,286,131736,1,0,0:0:0:0:
353,133,131841,5,0,0:0:0:0:
373,107,131946,2,0,L|260:90,1,90.9999972229005
193,107,132156,5,0,0:0:0:0:
193,107,132260,2,0,P|198:136|201:174,1,45.4999986114502
61,258,132470,5,0,0:0:0:0:
41,232,132575,2,0,L|154:215,1,90.9999972229005
221,232,132785,5,0,0:0:0:0:
221,232,132889,2,0,P|216:261|213:299,1,45.4999986114502
353,383,133100,5,0,0:0:0:0:
348,351,133205,1,0,0:0:0:0:
468,252,133309,5,0,0:0:0:0:
462,313,133414,1,0,0:0:0:0:
456,374,133519,6,0,B|428:302|468:252|468:252|501:171|447:91|447:91|393:133|405:211,1,409.499987503052
362,269,134358,6,0,P|317:220|315:164,1,116.999996429443
274,92,134778,2,0,P|229:141|227:197,1,116.999996429443
67,228,135198,6,0,B|120:218|161:248|139:261|178:296|228:286,1,181.999994445801
390,351,135512,1,0,0:0:0:0:
390,351,135617,2,0,P|349:317|328:249,1,90.9999972229005
229,27,135827,2,0,P|276:108|274:201,1,181.999994445801
395,12,136247,2,0,L|492:35,1,90.9999972229005
499,47,136456,2,0,L|410:26,1,90.9999972229005
288,181,136666,2,0,L|376:160,1,90.9999972229005
511,375,136876,6,0,B|451:349|451:349|333:377,1,181.999994445801
224,255,137191,1,0,0:0:0:0:
224,255,137295,2,0,L|248:355,1,90.9999972229005
119,223,137505,2,0,L|193:152,1,90.9999972229005
143,329,137715,1,0,0:0:0:0:
143,329,137820,1,0,0:0:0:0:
143,329,137925,2,0,L|44:299,1,90.9999972229005
6,148,138135,1,0,0:0:0:0:
0,164,138344,1,0,0:0:0:0:
171,38,138554,6,0,B|185:161|185:161|143:103,1,181.999994445801
278,22,138869,1,0,0:0:0:0:
278,22,138974,2,0,P|318:39|400:28,1,90.9999972229005
472,201,139184,1,0,0:0:0:0:
356,233,139288,1,0,0:0:0:0:
475,184,139393,1,0,0:0:0:0:
359,216,139497,1,0,0:0:0:0:
478,167,139603,2,0,P|470:215|475:272,1,90.9999972229005
254,376,139813,2,0,P|276:283|247:182,1,181.999994445801
113,119,140128,1,0,0:0:0:0:
113,119,140233,6,0,L|223:91,1,90.9999972229005
52,218,140442,1,0,0:0:0:0:
52,218,140547,1,0,0:0:0:0:
52,218,140652,2,0,L|162:246,1,90.9999972229005
334,207,140862,2,0,L|245:184,1,90.9999972229005
172,334,141072,5,0,0:0:0:0:
190,349,141177,1,0,0:0:0:0:
214,355,141281,1,0,0:0:0:0:
239,353,141386,1,0,0:0:0:0:
321,221,141491,5,0,0:0:0:0:
398,362,141596,1,0,0:0:0:0:
420,202,141701,5,0,0:0:0:0:
325,330,141806,1,0,0:0:0:0:
495,270,141911,6,0,B|502:184|502:184|497:174|497:174|508:76,1,181.999994445801
352,11,142226,1,0,0:0:0:0:
352,11,142330,2,0,L|369:130,1,90.9999972229005
75,156,142540,2,0,B|198:151|198:151|262:195,1,181.999994445801
462,134,142960,2,0,L|451:240,1,90.9999972229005
461,233,143170,2,0,L|471:143,1,90.9999972229005
337,3,143379,2,0,L|354:122,1,90.9999972229005
508,312,143589,6,0,P|411:255|322:272,1,181.999994445801
221,369,143904,1,0,0:0:0:0:
221,369,144009,2,0,P|247:306|245:254,1,90.9999972229005
94,183,144219,1,0,0:0:0:0:
94,183,144324,1,0,0:0:0:0:
94,183,144428,2,0,P|135:237|181:261,1,90.9999972229005
318,166,144638,2,0,P|250:174|206:202,1,90.9999972229005
28,122,144848,5,0,0:0:0:0:
105,17,144953,1,0,0:0:0:0:
105,148,145058,5,0,0:0:0:0:
28,42,145163,1,0,0:0:0:0:
151,82,145267,6,0,B|199:105|246:87|229:68|275:45|321:67,1,181.999994445801
463,4,145582,1,0,0:0:0:0:
463,4,145687,2,0,P|438:51|443:116,1,90.9999972229005
393,241,145897,2,0,P|388:196|365:157,1,90.9999972229005
228,16,146107,5,0,0:0:0:0:
232,65,146212,1,0,0:0:0:0:
236,114,146316,1,0,0:0:0:0:
240,163,146421,1,0,0:0:0:0:
146,224,146526,5,0,0:0:0:0:
149,195,146631,1,0,0:0:0:0:
142,228,146736,1,0,0:0:0:0:
144,199,146841,1,0,0:0:0:0:
38,170,146946,6,0,L|10:265,1,90.9999972229005
228,298,147156,1,0,0:0:0:0:
142,228,147260,2,0,L|114:323,1,90.9999972229005
332,356,147470,1,0,0:0:0:0:
246,286,147574,2,0,L|218:381,1,90.9999972229005
440,199,147785,5,0,0:0:0:0:
323,234,147889,1,0,0:0:0:0:
452,206,147994,5,0,0:0:0:0:
335,241,148098,1,0,0:0:0:0:
253,113,148204,5,0,0:0:0:0:
370,148,148308,1,0,0:0:0:0:
265,106,148413,5,0,0:0:0:0:
382,141,148517,1,0,0:0:0:0:
185,223,148624,6,0,B|215:106|215:106|181:38,1,181.999994445801
36,100,148939,1,0,0:0:0:0:
36,100,149044,2,0,L|125:115,1,90.9999972229005
375,247,149254,2,0,B|289:240|289:240|279:245|279:245|181:234,1,181.999994445801
393,129,149673,2,0,L|497:115,1,90.9999972229005
490,104,149883,2,0,L|400:116,1,90.9999972229005
245,326,150093,2,0,B|335:336,1,90.9999972229005
253,70,150302,6,0,P|188:140|189:237,1,181.999994445801
64,354,150617,1,0,0:0:0:0:
64,354,150722,5,0,0:0:0:0:
171,365,150827,1,0,0:0:0:0:
29,279,150932,5,0,0:0:0:0:
136,290,151037,1,0,0:0:0:0:
20,264,151142,2,0,L|29:160,1,90.9999972229005
189,6,151351,1,0,0:0:0:0:
183,88,151456,1,0,0:0:0:0:
177,170,151561,5,0,0:0:0:0:
193,179,151666,1,0,0:0:0:0:
263,136,151771,5,0,0:0:0:0:
279,145,151876,1,0,0:0:0:0:
345,58,151981,6,0,L|470:72,1,90.9999972229005
374,234,152191,6,0,L|382:324,1,90.9999972229005
375,333,152400,2,0,L|366:242,1,90.9999972229005
254,47,152610,6,0,L|379:61,1,90.9999972229005
283,223,152820,6,0,L|291:313,1,90.9999972229005
284,322,153029,2,0,L|275:231,1,90.9999972229005
163,36,153240,6,0,L|288:50,1,90.9999972229005
163,292,153449,5,0,0:0:0:0:
110,224,153554,1,0,0:0:0:0:
146,145,153659,1,0,0:0:0:0:
136,147,153869,5,0,0:0:0:0:
100,226,153974,1,0,0:0:0:0:
153,294,154079,5,0,0:0:0:0:
187,289,154184,1,0,0:0:0:0:
221,284,154288,1,0,0:0:0:0:
255,279,154393,1,0,0:0:0:0:
359,341,154498,5,0,0:0:0:0:
415,230,154603,1,0,0:0:0:0:
353,352,154708,5,0,0:0:0:0:
420,218,154813,1,0,0:0:0:0:
431,358,154918,5,0,0:0:0:0:
344,209,155023,1,0,0:0:0:0:
441,375,155128,5,0,0:0:0:0:
333,193,155233,1,0,0:0:0:0:
505,312,155337,6,0,L|514:197,1,90.9999972229005
414,141,155547,2,0,L|405:26,1,90.9999972229005
417,41,155757,2,0,L|424:131,1,90.9999972229005
329,207,155967,2,0,L|214:192,1,90.9999972229005
140,140,156177,5,0,0:0:0:0:
141,168,156281,1,0,0:0:0:0:
142,196,156386,1,0,0:0:0:0:
143,224,156491,1,0,0:0:0:0:
88,331,156596,5,0,0:0:0:0:
192,298,156701,1,0,0:0:0:0:
286,354,156806,6,0,P|377:321|468:321,1,181.999994445801
507,122,157226,1,0,0:0:0:0:
297,263,157435,6,0,P|346:248|405:244,1,90.9999972229005
219,223,157645,1,0,0:0:0:0:
219,223,157750,2,0,P|243:177|281:133,1,90.9999972229005
135,249,157960,1,0,0:0:0:0:
135,249,158065,2,0,P|120:200|116:141,1,90.9999972229005
28,56,158274,5,0,0:0:0:0:
61,72,158379,1,0,0:0:0:0:
178,21,158484,5,0,0:0:0:0:
161,28,158589,1,0,0:0:0:0:
40,183,158694,6,0,L|144:142,1,90.9999972229005
298,13,158904,1,0,0:0:0:0:
249,102,159009,1,0,0:0:0:0:
303,189,159114,6,0,L|402:192,1,90.9999972229005
254,278,159323,2,0,L|163:275,1,90.9999972229005
292,24,159533,5,0,0:0:0:0:
243,113,159638,1,0,0:0:0:0:
297,200,159743,1,0,0:0:0:0:
248,289,159848,1,0,0:0:0:0:
302,376,159953,6,0,L|376:358,1,71.5000021820069
379,345,160163,2,0,L|309:361,1,71.5000021820069
81,368,160372,6,0,P|89:300|89:269,1,90.9999972229005
240,42,160582,5,0,0:0:0:0:
159,28,160687,2,0,P|165:73|167:118,1,90.9999972229005
319,355,160897,5,0,0:0:0:0:
238,369,161002,2,0,P|244:323|246:278,1,90.9999972229005
424,147,161212,5,0,0:0:0:0:
386,179,161316,1,0,0:0:0:0:
336,181,161421,1,0,0:0:0:0:
290,161,161526,1,0,0:0:0:0:
231,55,161631,5,0,0:0:0:0:
200,149,161736,1,0,0:0:0:0:
93,82,161841,5,0,0:0:0:0:
113,178,161946,1,0,0:0:0:0:
0,144,162051,6,0,P|43:240|42:315,1,155.999995239258
181,335,162365,1,0,0:0:0:0:
181,335,162470,2,0,B|134:326|99:352|119:363|85:393|42:384,1,155.999995239258
124,255,162785,1,0,0:0:0:0:
124,255,162890,2,0,P|146:215|193:181,1,77.999997619629
309,312,163100,1,0,0:0:0:0:
309,312,163205,1,0,0:0:0:0:
254,221,163309,2,0,P|297:208|355:217,1,77.999997619629
480,281,163519,2,0,P|436:293|378:284,1,77.999997619629
364,60,163729,6,0,P|443:52|425:101,1,155.999995239258
296,136,164044,1,0,0:0:0:0:
296,136,164149,2,0,P|245:78|141:112,1,155.999995239258
14,34,164463,1,0,0:0:0:0:
14,34,164568,2,0,P|27:72|16:132,1,77.999997619629
180,219,164778,1,0,0:0:0:0:
180,219,164883,1,0,0:0:0:0:
85,241,164988,2,0,P|82:202|95:165,1,77.999997619629
290,38,165198,1,0,0:0:0:0:
287,117,165302,1,0,0:0:0:0:
284,196,165407,6,0,L|367:220,1,77.999997619629
209,332,165617,1,0,0:0:0:0:
209,332,165722,2,0,L|292:308,1,77.999997619629
134,196,165932,1,0,0:0:0:0:
134,196,166037,2,0,L|217:220,1,77.999997619629
59,332,166247,1,0,0:0:0:0:
59,332,166351,2,0,L|142:308,1,77.999997619629
99,98,166561,1,0,0:0:0:0:
21,152,166666,2,0,L|45:235,1,77.999997619629
235,103,166876,2,0,B|178:51|178:51|78:97,1,155.999995239258
300,322,167295,6,0,L|266:208,1,97.50000371933
421,118,167505,6,0,L|407:164,1,48.750001859665
391,343,167715,6,0,L|357:229,1,97.50000371933
512,139,167925,6,0,L|498:185,1,48.750001859665
261,213,168135,5,0,0:0:0:0:
247,172,168240,1,0,0:0:0:0:
157,226,168344,5,0,0:0:0:0:
157,138,168449,1,0,0:0:0:0:
28,216,168554,5,0,0:0:0:0:
69,98,168659,1,0,0:0:0:0:
88,311,168764,6,0,P|140:263|234:312,1,155.999995239258
335,221,169079,1,0,0:0:0:0:
335,221,169184,2,0,P|315:294|349:363,1,155.999995239258
497,275,169498,1,0,0:0:0:0:
497,275,169603,2,0,L|419:282,1,77.999997619629
336,116,169813,1,0,0:0:0:0:
336,116,169918,1,0,0:0:0:0:
404,190,170023,1,0,0:0:0:0:
372,212,170127,1,0,0:0:0:0:
335,221,170232,1,0,0:0:0:0:
256,185,170337,5,0,0:0:0:0:
249,203,170442,2,0,L|242:309,1,77.999997619629
127,84,170652,5,0,0:0:0:0:
134,102,170757,1,0,0:0:0:0:
141,120,170862,2,0,L|148:226,1,77.999997619629
263,0,171072,5,0,0:0:0:0:
256,18,171177,1,0,0:0:0:0:
249,36,171281,2,0,L|242:142,1,77.999997619629
350,227,171491,2,0,L|344:149,1,77.999997619629
239,29,171701,2,0,L|232:135,1,77.999997619629
359,219,171911,2,0,L|354:142,1,77.999997619629
497,12,172121,6,0,L|475:126,1,77.999997619629
381,290,172330,1,0,0:0:0:0:
458,302,172435,1,0,0:0:0:0:
493,232,172540,1,0,0:0:0:0:
438,177,172645,1,0,0:0:0:0:
369,213,172750,1,0,0:0:0:0:
369,213,172855,1,0,0:0:0:0:
299,116,172960,6,0,L|284:224,1,77.999997619629
201,333,173170,1,0,0:0:0:0:
284,357,173274,1,0,0:0:0:0:
190,327,173379,2,0,L|179:249,1,77.999997619629
91,14,173589,6,0,B|61:53|61:53|73:172,1,155.999995239258
102,172,173904,1,0,0:0:0:0:
135,167,174009,1,0,0:0:0:0:
168,162,174114,1,0,0:0:0:0:
201,157,174219,2,0,L|282:142,1,77.999997619629
394,36,174428,1,0,0:0:0:0:
310,64,174533,1,0,0:0:0:0:
407,48,174638,2,0,L|488:63,1,77.999997619629
413,313,174848,5,0,0:0:0:0:
376,166,174953,1,0,0:0:0:0:
492,263,175058,5,0,0:0:0:0:
341,252,175163,1,0,0:0:0:0:
469,172,175267,5,0,0:0:0:0:
413,313,175372,1,0,0:0:0:0:
412,298,175477,5,0,0:0:0:0:
201,292,189743,6,0,L|211:356,1,58.4999982147217
80,232,189953,6,0,L|90:296,1,58.4999982147217
176,136,190163,6,0,L|186:200,1,58.4999982147217
55,76,190373,6,0,L|65:140,1,58.4999982147217
320,3,190582,6,0,B|277:49|277:49|300:184,1,181.999994445801
195,293,190897,1,0,0:0:0:0:
195,293,191002,2,0,B|238:283|238:283|290:296,1,90.9999972229005
512,115,191212,2,0,B|382:86|382:86|432:145,1,181.999994445801
195,165,191631,2,0,L|176:60,1,90.9999972229005
186,61,191841,2,0,L|202:150,1,90.9999972229005
64,279,192051,2,0,L|83:174,1,90.9999972229005
288,5,192260,6,0,L|323:196,1,181.999994445801
157,277,192575,1,0,0:0:0:0:
157,277,192680,2,0,L|242:307,1,90.9999972229005
80,189,192890,2,0,L|10:247,1,90.9999972229005
194,165,193100,1,0,0:0:0:0:
194,165,193205,1,0,0:0:0:0:
194,165,193309,2,0,L|177:75,1,90.9999972229005
29,18,193519,1,0,0:0:0:0:
33,33,193729,1,0,0:0:0:0:
265,14,193939,6,0,B|348:29|348:29|355:25|355:25|468:44,1,181.999994445801
370,182,194254,1,0,0:0:0:0:
370,182,194358,2,0,L|256:203,1,90.9999972229005
114,90,194568,1,0,0:0:0:0:
234,113,194673,1,0,0:0:0:0:
109,75,194778,1,0,0:0:0:0:
229,98,194883,1,0,0:0:0:0:
104,60,194988,2,0,L|-10:81,1,90.9999972229005
4,335,195198,2,0,B|32:219|32:219|56:300,1,181.999994445801
162,169,195512,1,0,0:0:0:0:
162,169,195617,6,0,P|208:203|246:204,1,90.9999972229005
404,96,195827,1,0,0:0:0:0:
404,96,195932,1,0,0:0:0:0:
404,96,196037,2,0,P|351:118|331:151,1,90.9999972229005
346,342,196247,2,0,P|352:285|334:251,1,90.9999972229005
250,115,196456,5,0,0:0:0:0:
230,101,196561,1,0,0:0:0:0:
207,94,196666,1,0,0:0:0:0:
183,93,196771,1,0,0:0:0:0:
40,13,196876,5,0,0:0:0:0:
58,160,196981,1,0,0:0:0:0:
30,5,197086,5,0,0:0:0:0:
48,152,197191,1,0,0:0:0:0:
152,6,197295,6,0,P|259:14|332:73,1,181.999994445801
466,0,197610,1,0,0:0:0:0:
466,0,197715,2,0,L|458:105,1,90.9999972229005
406,375,197925,2,0,L|384:182,1,181.999994445801
175,274,198344,2,0,L|281:288,1,90.9999972229005
275,300,198554,2,0,L|184:288,1,90.9999972229005
15,195,198764,2,0,L|121:181,1,90.9999972229005
307,8,198974,6,0,P|242:77|241:200,1,181.999994445801
385,194,199288,1,0,0:0:0:0:
385,194,199393,2,0,P|384:152|347:98,1,90.9999972229005
280,288,199603,1,0,0:0:0:0:
280,288,199708,1,0,0:0:0:0:
280,288,199813,2,0,P|281:246|318:192,1,90.9999972229005
385,382,200023,2,0,P|384:340|347:286,1,90.9999972229005
192,352,200233,5,0,0:0:0:0:
173,241,200337,1,0,0:0:0:0:
180,361,200442,5,0,0:0:0:0:
161,250,200546,1,0,0:0:0:0:
46,376,200652,6,0,B|39:290|39:290|44:280|44:280|37:183,1,181.999994445801
126,64,200967,1,0,0:0:0:0:
126,64,201072,2,0,B|118:161,1,90.9999972229005
20,14,201281,2,0,B|27:111,1,90.9999972229005
215,176,201491,5,0,0:0:0:0:
263,167,201596,1,0,0:0:0:0:
311,158,201701,1,0,0:0:0:0:
359,149,201806,1,0,0:0:0:0:
443,80,201911,5,0,0:0:0:0:
441,109,202016,1,0,0:0:0:0:
448,76,202121,1,0,0:0:0:0:
445,105,202226,1,0,0:0:0:0:
498,211,202330,6,0,L|380:231,1,90.9999972229005
297,366,202540,1,0,0:0:0:0:
358,295,202645,2,0,L|268:279,1,90.9999972229005
157,140,202855,1,0,0:0:0:0:
128,226,202960,2,0,L|218:211,1,90.9999972229005
311,36,203170,5,0,0:0:0:0:
346,153,203274,1,0,0:0:0:0:
318,24,203379,5,0,0:0:0:0:
353,141,203483,1,0,0:0:0:0:
225,223,203589,5,0,0:0:0:0:
260,106,203693,1,0,0:0:0:0:
218,211,203798,5,0,0:0:0:0:
253,94,203902,1,0,0:0:0:0:
311,312,204009,6,0,B|224:253|224:253|139:268,1,181.999994445801
21,165,204323,1,0,0:0:0:0:
21,165,204428,2,0,L|33:268,1,90.9999972229005
160,0,204638,2,0,L|137:195,1,181.999994445801
346,83,205058,2,0,L|244:96,1,90.9999972229005
244,83,205267,2,0,L|334:71,1,90.9999972229005
507,166,205477,2,0,L|405:153,1,90.9999972229005
189,259,205687,6,0,B|272:246|272:246|279:251|279:251|392:236,1,181.999994445801
500,362,206002,1,0,0:0:0:0:
500,362,206107,5,0,0:0:0:0:
511,255,206212,1,0,0:0:0:0:
425,375,206317,5,0,0:0:0:0:
437,268,206422,1,0,0:0:0:0:
410,384,206527,2,0,L|306:375,1,90.9999972229005
102,370,206736,1,0,0:0:0:0:
133,294,206841,1,0,0:0:0:0:
102,218,206946,5,0,0:0:0:0:
85,225,207051,1,0,0:0:0:0:
21,182,207156,5,0,0:0:0:0:
4,189,207261,1,0,0:0:0:0:
48,88,207365,6,0,L|145:48,1,90.9999972229005
286,120,207575,6,0,L|278:11,1,90.9999972229005
267,18,207785,2,0,L|273:109,1,90.9999972229005
505,190,207995,6,0,L|408:150,1,90.9999972229005
267,222,208204,6,0,L|275:113,1,90.9999972229005
286,120,208414,2,0,L|279:211,1,90.9999972229005
48,292,208624,6,0,L|145:252,1,90.9999972229005
373,350,208834,5,0,0:0:0:0:
287,343,208939,1,0,0:0:0:0:
201,336,209044,1,0,0:0:0:0:
193,322,209254,5,0,0:0:0:0:
288,330,209359,1,0,0:0:0:0:
383,338,209464,1,0,0:0:0:0:
393,326,209673,5,0,0:0:0:0:
403,314,209777,1,0,0:0:0:0:
377,107,209883,5,0,0:0:0:0:
470,257,209988,1,0,0:0:0:0:
371,98,210093,5,0,0:0:0:0:
475,265,210198,1,0,0:0:0:0:
349,229,210302,5,0,0:0:0:0:
498,135,210407,1,0,0:0:0:0:
340,234,210512,5,0,0:0:0:0:
506,129,210617,1,0,0:0:0:0:
294,152,210722,6,0,L|197:127,1,90.9999972229005
85,63,210932,2,0,L|173:40,1,90.9999972229005
184,50,211142,2,0,L|95:72,1,90.9999972229005
0,163,211351,2,0,L|88:185,1,90.9999972229005
211,216,211561,5,0,0:0:0:0:
211,244,211666,1,0,0:0:0:0:
211,272,211771,1,0,0:0:0:0:
211,300,211876,1,0,0:0:0:0:
116,373,211981,5,0,0:0:0:0:
211,328,212086,1,0,0:0:0:0:
309,365,212191,2,0,B|351:336|401:353|385:374|434:387|480:358,1,181.999994445801
509,159,212610,1,0,0:0:0:0:
256,196,212820,6,0,P|283:245|281:308,1,90.9999972229005
111,230,213030,1,0,0:0:0:0:
111,230,213135,2,0,P|164:245|207:291,1,90.9999972229005
32,356,213344,1,0,0:0:0:0:
32,356,213449,2,0,P|81:329|144:331,1,90.9999972229005
27,196,213659,5,0,0:0:0:0:
22,232,213764,1,0,0:0:0:0:
88,125,213869,5,0,0:0:0:0:
90,143,213974,1,0,0:0:0:0:
6,60,214079,6,0,P|51:44|113:39,1,90.9999972229005
286,10,214288,1,0,0:0:0:0:
266,108,214393,1,0,0:0:0:0:
245,208,214498,6,0,P|193:189|130:200,1,90.9999972229005
336,256,214708,2,0,P|388:237|451:248,1,90.9999972229005
297,16,214918,5,0,0:0:0:0:
277,114,215023,1,0,0:0:0:0:
256,214,215128,1,0,0:0:0:0:
235,313,215232,1,0,0:0:0:0:
308,384,215337,6,0,L|403:359,1,71.5000021820069
381,352,215547,2,0,L|311:370,1,71.5000021820069
118,339,215757,6,0,L|106:218,1,90.9999972229005
273,12,215967,5,0,0:0:0:0:
202,48,216072,2,0,L|190:169,1,90.9999972229005
381,352,216281,5,0,0:0:0:0:
310,316,216386,2,0,L|298:195,1,90.9999972229005
477,67,216596,5,0,0:0:0:0:
501,209,216701,1,0,0:0:0:0:
388,46,216806,5,0,0:0:0:0:
412,188,216911,1,0,0:0:0:0:
484,55,217016,5,0,0:0:0:0:
508,197,217121,1,0,0:0:0:0:
395,34,217226,5,0,0:0:0:0:
419,176,217331,1,0,0:0:0:0:
288,55,217435,6,0,L|391:62,1,90.9999972229005
388,46,217645,2,0,L|297:39,1,90.9999972229005
128,155,217855,1,0,0:0:0:0:
128,155,217960,1,0,0:0:0:0:
128,155,218065,2,0,L|218:148,1,90.9999972229005
372,246,218274,1,0,0:0:0:0:
323,152,218379,1,0,0:0:0:0:
377,260,218484,2,0,L|286:253,1,90.9999972229005
173,331,218694,1,0,0:0:0:0:
53,101,218904,6,0,B|99:147|99:147|83:270,1,181.999994445801
255,92,219323,6,0,L|256:33,1,45.4999986114502
333,129,219533,6,0,L|379:92,1,47.7749977765847
353,213,219744,6,0,L|410:225,1,50.0499990071869
299,281,219953,6,0,L|325:334,1,52.3250000798416
213,281,220163,6,0,L|188:335,1,54.5999983337403
158,214,220372,6,0,L|100:228,1,56.8750005424023
177,130,220582,6,0,L|129:94,1,59.1500019856263
256,192,220792,5,0,0:0:0:0:
227,225,224149,6,0,L|235:247,1,16.25
126,207,224358,2,0,L|134:229,1,16.25
185,122,224568,2,0,L|193:144,1,16.25
84,104,224777,2,0,L|92:126,1,16.25
241,237,224988,6,0,L|250:263,1,21.1249990329743
120,215,225197,2,0,L|129:241,1,21.1249990329743
190,113,225407,2,0,L|200:139,1,21.1249990329743
69,91,225616,2,0,L|79:118,1,21.1249990329743
258,251,225827,6,0,L|269:283,1,26
113,225,226036,2,0,L|124:257,1,26
197,103,226246,2,0,L|209:134,1,26
52,77,226455,2,0,L|64:109,1,26
268,260,226666,6,0,L|279:291,1,26
39,68,226876,2,0,L|50:99,1,26
414,102,227086,6,0,B|382:102|382:102|335:141,1,65
230,31,227296,2,0,B|263:31|263:31|310:70,1,65
291,263,227506,6,0,L|283:134,1,130
390,253,227821,1,0,0:0:0:0:
390,253,227925,2,0,L|385:335,1,65
276,232,228135,2,0,L|271:150,1,65
485,156,228345,2,0,B|430:120|430:120|357:155,1,130
200,333,228765,1,0,0:0:0:0:
160,35,228974,1,0,0:0:0:0:
214,96,229079,1,0,0:0:0:0:
187,173,229184,6,0,L|34:163,1,130
54,4,229498,1,0,0:0:0:0:
54,4,229603,2,0,L|78:90,1,65
28,237,229813,2,0,L|52:151,1,65
257,149,230023,2,0,L|104:139,1,130
348,16,230443,1,0,0:0:0:0:
326,316,230653,1,0,0:0:0:0:
397,249,230758,1,0,0:0:0:0:
317,330,230862,6,0,B|258:300|258:300|182:333,1,130
122,220,231177,1,0,0:0:0:0:
122,220,231282,2,0,L|180:249,1,65
48,349,231492,2,0,L|106:319,1,65
17,118,231702,2,0,L|27:255,1,130
96,2,232121,1,0,0:0:0:0:
28,100,232331,1,0,0:0:0:0:
279,148,232541,1,0,0:0:0:0:
294,104,232646,1,0,0:0:0:0:
285,59,232750,1,0,0:0:0:0:
250,28,232855,1,0,0:0:0:0:
203,27,232960,5,0,0:0:0:0:
154,104,233065,1,0,0:0:0:0:
161,197,233170,1,0,0:0:0:0:
225,263,233275,1,0,0:0:0:0:
317,249,233380,5,0,0:0:0:0:
375,145,233485,1,0,0:0:0:0:
366,249,233590,5,0,0:0:0:0:
365,129,233695,1,0,0:0:0:0:
410,223,233799,5,0,0:0:0:0:
349,120,233904,1,0,0:0:0:0:
435,178,234009,5,0,0:0:0:0:
331,120,234114,1,0,0:0:0:0:
435,127,234219,6,0,P|406:189|409:258,1,130
501,380,234534,1,0,0:0:0:0:
501,380,234639,2,0,L|434:357,1,65
336,292,234848,2,0,L|269:315,1,65
51,239,235058,2,0,B|99:284|99:284|182:260,1,130
11,67,235478,1,0,0:0:0:0:
299,156,235688,1,0,0:0:0:0:
224,188,235793,1,0,0:0:0:0:
159,140,235897,6,0,L|182:7,1,130
347,19,236212,1,0,0:0:0:0:
347,19,236317,2,0,P|314:33|267:29,1,65
385,119,236527,2,0,P|418:120|447:133,1,65
402,353,236737,2,0,P|379:293|384:229,1,130
512,19,237156,1,0,0:0:0:0:
255,182,237366,1,0,0:0:0:0:
295,75,237471,1,0,0:0:0:0:
260,201,237576,6,0,L|120:237,1,130
4,138,237890,1,0,0:0:0:0:
4,138,237995,2,0,L|81:161,1,65
204,0,238205,1,0,0:0:0:0:
170,30,238310,1,0,0:0:0:0:
155,73,238415,1,0,0:0:0:0:
155,119,238520,2,0,L|232:94,1,65
394,181,238730,1,0,0:0:0:0:
354,202,238834,2,0,L|277:177,1,65
484,57,239044,1,0,0:0:0:0:
496,151,239149,1,0,0:0:0:0:
508,245,239254,6,0,P|440:254|386:308,1,130
305,368,239569,1,0,0:0:0:0:
305,368,239674,2,0,L|313:286,1,65
227,191,239883,2,0,L|235:273,2,65
211,169,240198,1,0,0:0:0:0:
187,158,240303,1,0,0:0:0:0:
161,163,240408,1,0,0:0:0:0:
84,298,240513,5,0,0:0:0:0:
75,224,240618,1,0,0:0:0:0:
66,150,240723,1,0,0:0:0:0:
57,76,240828,1,0,0:0:0:0:
48,2,240932,6,0,B|70:56|149:86|149:86|223:59|283:83|283:83|338:113|371:91|399:49|398:-29|294:-44|250:18|283:85|283:85|337:169|337:169|230:148|196:163|196:163|253:251|253:251|283:294|267:341|238:361|184:371|143:327|145:268|192:223|254:244|254:244|298:249|336:263|336:263|380:257|437:261|437:261|427:198|490:149|490:149|450:161|405:134,1,1630.19999502502
