osu file format v14

[General]
AudioFilename: audio.mp3
AudioLeadIn: 0
PreviewTime: 50005
Countdown: 0
SampleSet: Soft
StackLeniency: 0.7
Mode: 0
LetterboxInBreaks: 0
WidescreenStoryboard: 0

[Editor]
Bookmarks: 25427,36993,74583
DistanceSpacing: 1
BeatDivisor: 6
GridSize: 4
TimelineZoom: 1.4

[Metadata]
Title:PHOENIX PRAYER (TV Size)
TitleUnicode:PHOENIX PRAYER (TV Size)
Artist:Aoi Eir
ArtistUnicode:藍井エイル
Creator:HeTo
Version:Reincarnation
Source:15周年 コードギアス 反逆のルルーシュ
Tags:japanese jrock rock j-rock anime code geass hangyaku no lelouch 15th anniversary koldnoodl sanairrt
BeatmapID:3504005
BeatmapSetID:1714895

[Difficulty]
HPDrainRate:6
CircleSize:4
OverallDifficulty:8.3
ApproachRate:9.2
SliderMultiplier:1.73
SliderTickRate:1

[Events]
//Background and Video events
0,0,"12.jpg",0,0
//Break Periods
//Storyboard Layer 0 (Background)
//Storyboard Layer 1 (Fail)
//Storyboard Layer 2 (Pass)
//Storyboard Layer 3 (Foreground)
//Storyboard Layer 4 (Overlay)
//Storyboard Sound Samples

[TimingPoints]
2294,361.44578313253,4,2,5,50,1,0
7355,-119.047619047619,4,2,5,50,0,0
8077,-106.382978723404,4,2,5,70,0,0
13861,-135.135135135135,4,2,5,55,0,0
22535,-80.6451612903225,4,2,5,55,0,0
22806,-80.6451612903225,4,2,5,5,0,0
22897,-80.6451612903225,4,2,5,55,0,0
23981,-80.6451612903225,4,2,5,5,0,0
24342,-227.272727272727,4,2,5,40,0,0
24704,-156.25,4,2,5,45,0,0
25065,-119.047619047619,4,2,5,50,0,0
25427,-106.382978723404,4,2,5,55,0,0
36993,-119.047619047619,4,2,5,55,0,0
42776,-106.382978723404,4,2,5,55,0,0
45668,-185.185185185184,4,2,5,45,0,0
46391,-227.272727272726,4,2,5,45,0,0
47114,-294.117647058822,4,2,5,45,0,0
47836,-416.666666666663,4,2,5,45,0,0
48559,-106.382978723404,4,2,5,55,0,0
50005,361.44578313253,4,2,5,75,1,0
50005,-96.153846153846,4,2,5,75,0,0
53168,-96.153846153846,4,2,5,5,0,0
53258,-96.153846153846,4,2,5,75,0,0
61481,-96.153846153846,4,2,5,5,0,0
61571,-96.153846153846,4,2,5,75,0,0
73138,-87.719298245614,4,2,5,75,0,0
73409,-87.719298245614,4,2,5,5,0,0
73499,-87.719298245614,4,2,5,75,0,0
73770,-87.719298245614,4,2,5,5,0,0
73861,-74.6268656716418,4,2,5,75,0,0
74132,-74.6268656716418,4,2,5,5,0,0
74222,-74.6268656716418,4,2,5,75,0,0
74493,-74.6268656716418,4,2,5,5,0,0
74583,361.44578313253,4,2,5,75,1,1
74583,-96.1538461538461,4,2,5,75,0,1
85787,-135.135135135135,4,2,5,75,0,0
86330,-135.135135135135,4,2,5,5,0,0

[Colours]
Combo1 : 191,0,44
Combo2 : 153,153,153
Combo3 : 253,170,236
Combo4 : 166,135,248

[HitObjects]
256,192,3740,12,0,7174,0:0:0:0:
339,18,7355,5,8,0:0:0:0:
335,26,7445,2,0,P|341:71|352:112,1,72.6599977825928,8|0,0:0|0:0,0:0:0:0:
199,224,7716,1,8,0:0:0:0:
199,224,7806,1,8,0:0:0:0:
199,224,7897,2,0,P|205:197|208:169,1,36.3299988912964,10|2,0:0|0:0,0:0:0:0:
146,40,8077,5,2,1:2:0:0:
203,91,8258,1,2,0:0:0:0:
381,234,8439,5,8,0:0:0:0:
308,258,8620,1,2,0:0:0:0:
93,332,8800,5,2,1:2:0:0:
108,255,8981,1,2,0:0:0:0:
304,51,9162,6,0,P|311:98|333:206,1,121.964998138962,10|0,0:0|0:0,0:0:0:0:
324,171,9523,6,0,P|279:183|222:199,1,81.3099987593079,2|0,1:2|0:0,0:0:0:0:
39,64,9885,1,10,0:0:0:0:
86,121,10065,1,2,0:0:0:0:
156,89,10246,1,2,1:2:0:0:
1,238,10427,5,2,0:0:0:0:
130,357,10608,2,0,B|138:318|138:318|126:272,1,81.3099987593079,10|2,0:0|0:0,0:0:0:0:
374,98,10969,5,2,1:2:0:0:
347,171,11150,1,2,0:0:0:0:
203,14,11330,5,10,0:0:0:0:
279,0,11511,1,2,0:0:0:0:
206,193,11692,5,2,1:2:0:0:
155,134,11873,1,2,0:0:0:0:
356,20,12053,6,0,B|429:36|403:43|476:58,1,121.964998138962,10|0,0:0|0:0,0:0:0:0:
478,65,12415,5,2,1:2:0:0:
277,241,12595,1,2,0:0:0:0:
155,134,12776,5,10,0:0:0:0:
410,206,12956,1,2,0:0:0:0:
381,382,13138,6,0,P|369:332|366:323,1,40.6549993796539,10|0,0:0|1:2,0:0:0:0:
316,123,13318,2,0,P|328:173|331:182,1,40.6549993796539,2|8,0:0|0:0,0:0:0:0:
352,261,13499,1,10,1:2:0:0:
155,134,13680,5,4,3:0:0:0:
155,134,13770,1,4,3:0:0:0:
155,133,13861,2,0,B|77:143|112:163|19:180,1,128.020003125488,6|0,1:2|1:2,0:0:0:0:
1,242,14403,2,0,P|9:280|28:388,1,128.020003125488,2|2,0:0|0:0,0:0:0:0:
101,384,14945,1,0,1:2:0:0:
101,384,15306,6,0,P|161:371|226:360,1,128.020003125488,2|0,1:2|1:2,0:0:0:0:
374,210,15848,2,0,P|348:163|270:163,1,128.020003125488,2|2,0:0|0:0,0:0:0:0:
223,214,16391,2,0,P|230:258|236:289,1,64.0100015627442,0|0,1:2|0:0,0:0:0:0:
233,277,16752,5,2,1:2:0:0:
362,129,16933,2,0,P|371:56|376:-12,1,128.020003125488,2|2,0:0|0:0,0:0:0:0:
303,0,17475,1,0,1:2:0:0:
217,98,17656,2,0,P|166:110|137:114,1,64.0100015627442,2|0,0:0|1:2,0:0:0:0:
36,0,18017,2,0,P|87:12|116:16,1,64.0100015627442,2|0,0:0|1:2,0:0:0:0:
459,268,18559,5,2,1:2:0:0:
437,193,18921,1,0,1:2:0:0:
361,183,19282,1,0,1:2:0:0:
361,183,19644,5,2,1:2:0:0:
308,243,19824,1,2,0:0:0:0:
234,212,20005,1,2,1:2:0:0:
241,132,20186,1,2,0:0:0:0:
319,114,20367,1,2,1:2:0:0:
319,114,20547,2,0,P|365:128|398:134,1,64.0100015627442,2|0,0:0|1:2,0:0:0:0:
175,260,20909,5,2,0:0:0:0:
175,260,20999,1,2,0:0:0:0:
175,260,21089,2,0,B|100:272|129:291|53:306,1,128.020003125488,2|0,1:2|1:2,0:0:0:0:
223,168,21632,2,0,P|191:160|161:150,1,64.0100015627442,2|0,0:0|1:2,0:0:0:0:
332,330,21993,2,0,P|300:337|270:347,1,64.0100015627442,2|0,0:0|1:2,0:0:0:0:
197,323,22355,1,2,0:0:0:0:
404,118,22535,6,0,P|406:150|425:282,1,160.889993617035,6|0,1:2|0:0,0:0:0:0:
457,347,22897,1,10,0:0:0:0:
457,347,23258,6,0,P|318:284|38:278,1,429.03998297876,10|0,0:0|0:0,0:0:0:0:
45,276,24342,6,0,L|39:240,3,19.0300005807495,2|0|0|0,0:0|0:0|0:0|0:0,0:0:0:0:
105,179,24704,6,0,L|110:137,3,27.68,2|0|0|0,0:0|0:0|0:0|0:0,0:0:0:0:
18,48,25065,6,0,L|11:-4,3,36.3299988912964,2|0|0|0,0:0|0:0|0:0|0:0,0:0:0:0:
172,21,25427,6,0,P|135:33|63:53,1,81.3099987593079,6|0,1:2|0:0,1:2:0:0:
210,174,25698,1,0,1:2:0:0:
215,165,25788,2,0,P|223:126|233:86,1,81.3099987593079,2|8,1:2|0:0,0:0:0:0:
64,133,26150,1,2,0:0:0:0:
120,190,26330,1,0,1:2:0:0:
149,113,26511,5,10,0:0:0:0:
146,104,26602,1,0,1:2:0:0:
191,257,26782,5,2,0:0:0:0:
195,268,26873,2,0,P|232:256|304:236,1,81.3099987593079,2|0,1:2|0:0,0:0:0:0:
347,238,27144,1,0,1:2:0:0:
358,242,27234,1,2,0:0:0:0:
486,129,27415,1,10,0:0:0:0:
418,83,27595,2,0,B|406:125|406:125|419:163,1,81.3099987593079,2|0,0:0|1:2,0:0:0:0:
504,309,27957,1,10,0:0:0:0:
504,297,28047,2,0,P|507:249|510:205,1,81.3099987593079,0|0,1:2|0:0,0:0:0:0:
509,215,28318,6,0,P|462:224|403:239,1,81.3099987593079,2|0,1:2|0:0,0:0:0:0:
326,96,28589,6,0,P|318:143|311:203,1,81.3099987593079,2|0,1:2|0:0,0:0:0:0:
141,171,28861,6,0,P|175:203|221:241,1,81.3099987593079,10|0,0:0|0:0,0:0:0:0:
201,225,29222,5,0,1:2:0:0:
319,346,29403,1,10,0:0:0:0:
325,335,29493,2,0,B|333:295|333:295|316:257,1,81.3099987593079,0|0,1:2|0:0,0:0:0:0:
317,258,29764,6,0,B|270:269|270:269|253:287|253:287|177:311,1,121.964998138962,2|0,1:2|1:2,0:0:0:0:
197,313,30126,1,2,0:0:0:0:
55,196,30306,1,8,0:0:0:0:
178,202,30487,5,2,0:0:0:0:
52,315,30668,1,0,1:2:0:0:
117,250,30848,5,10,0:0:0:0:
120,262,30939,2,0,P|123:307|129:349,1,81.3099987593079,0|0,1:2|0:0,0:0:0:0:
127,342,31210,6,0,P|171:332|228:321,1,81.3099987593079,2|0,1:2|0:0,0:0:0:0:
269,145,31481,1,0,1:2:0:0:
276,153,31571,2,0,P|263:195|244:250,1,81.3099987593079,2|8,0:0|0:0,0:0:0:0:
363,384,31933,2,0,P|333:351|294:307,1,81.3099987593079,2|0,0:0|1:2,0:0:0:0:
137,153,32294,5,10,0:0:0:0:
129,159,32385,2,0,P|85:169|28:180,1,81.3099987593079,0|0,1:2|0:0,0:0:0:0:
49,176,32656,6,0,B|26:136|26:136|24:98,1,81.3099987593079,2|0,1:2|0:0,0:0:0:0:
173,86,32927,6,0,B|193:45|193:45|227:24,1,81.3099987593079,2|0,1:2|0:0,0:0:0:0:
300,140,33198,6,0,B|339:140|339:140|378:167,1,81.3099987593079,10|2,0:0|0:0,0:0:0:0:
373,164,33559,5,0,1:2:0:0:
205,370,33740,1,10,0:0:0:0:
206,358,33830,2,0,P|213:305|216:260,1,81.3099987593079,0|0,1:2|0:0,0:0:0:0:
215,277,34102,6,0,P|267:291|311:297,1,81.3099987593079,2|0,1:2|0:0,0:0:0:0:
326,143,34373,6,0,P|340:194|356:235,1,81.3099987593079,2|0,1:2|0:0,0:0:0:0:
497,180,34644,6,0,P|459:218|431:253,1,81.3099987593079,10|0,0:0|0:0,0:0:0:0:
441,239,35005,5,0,1:2:0:0:
229,128,35186,1,10,0:0:0:0:
220,132,35276,2,0,P|172:144|120:151,1,81.3099987593079,0|0,1:2|0:0,0:0:0:0:
140,148,35547,6,0,B|143:222|162:191|165:292,1,121.964998138962,2|0,1:2|1:2,0:0:0:0:
157,281,35909,1,2,0:0:0:0:
309,91,36089,1,10,0:0:0:0:
479,280,36270,2,0,P|438:273|399:263,1,81.3099987593079,2|0,0:0|1:2,0:0:0:0:
198,57,36632,1,10,0:0:0:0:
198,57,36993,6,0,P|205:107|211:152,1,72.6599977825928,2|8,1:2|0:0,0:0:0:0:
209,143,37264,1,0,1:2:0:0:
211,157,37355,1,2,0:0:0:0:
89,274,37535,1,12,3:0:0:0:
21,313,37716,2,0,B|8:279|8:279|19:240,1,72.6599977825928,2|0,0:0|1:2,0:0:0:0:
145,334,38077,1,10,0:0:0:0:
155,340,38168,2,0,P|197:353|229:358,1,72.6599977825928,0|0,1:2|0:0,0:0:0:0:
370,234,38439,6,0,P|334:240|299:251,1,72.6599977825928,2|8,1:2|0:0,0:0:0:0:
291,258,38710,1,0,1:2:0:0:
283,265,38800,1,2,0:0:0:0:
107,182,38981,1,10,0:0:0:0:
26,151,39162,2,0,P|32:199|39:239,1,72.6599977825928,2|0,0:0|1:2,0:0:0:0:
192,122,39523,1,10,0:0:0:0:
194,112,39614,2,0,P|199:76|203:40,1,72.6599977825928,2|0,1:2|0:0,0:0:0:0:
203,39,39885,6,0,P|145:51|109:58,1,72.6599977825928,2|8,1:2|0:0,0:0:0:0:
273,124,40156,1,0,1:2:0:0:
282,127,40246,2,0,P|340:138|377:143,1,72.6599977825928,2|8,0:0|0:0,0:0:0:0:
238,266,40608,1,2,0:0:0:0:
209,197,40788,1,2,1:2:0:0:
393,230,40969,1,10,0:0:0:0:
389,237,41059,2,0,P|350:281|327:311,1,72.6599977825928,8|0,3:0|0:0,0:0:0:0:
298,212,41330,5,2,1:2:0:0:
144,53,41511,1,8,0:0:0:0:
144,53,41602,1,0,1:2:0:0:
144,53,41692,2,0,P|150:105|158:144,1,72.6599977825928,2|8,0:0|0:0,0:0:0:0:
73,314,42053,2,0,P|79:278|82:242,1,72.6599977825928,2|6,0:0|1:2,0:0:0:0:
53,170,42415,1,2,0:0:0:0:
228,303,42595,5,8,0:0:0:0:
228,303,42686,1,8,0:0:0:0:
228,303,42776,2,0,P|281:293|336:284,1,81.3099987593079,6|8,1:2|0:0,0:0:0:0:
425,110,43138,2,0,P|428:145|433:181,1,40.6549993796539,6|8,1:2|0:0,0:0:0:0:
461,220,43318,1,8,0:0:0:0:
299,35,43499,5,10,0:0:0:0:
505,137,43680,1,10,0:0:0:0:
307,288,43861,1,8,0:0:0:0:
307,288,43951,1,8,0:0:0:0:
307,288,44041,2,0,P|310:252|315:216,1,40.6549993796539,8|8,0:0|0:0,0:0:0:0:
493,304,44222,6,0,P|496:339|508:409,1,81.3099987593079,6|8,1:2|0:0,0:0:0:0:
348,118,44583,2,0,P|354:77|358:37,1,81.3099987593079,6|8,1:2|0:0,0:0:0:0:
162,242,44945,1,8,3:0:0:0:
108,183,45126,1,0,1:2:0:0:
155,119,45306,1,8,0:0:0:0:
155,119,45397,1,8,0:0:0:0:
155,119,45487,2,0,P|207:137|219:139,1,40.6549993796539,8|8,0:0|0:0,0:0:0:0:
410,247,45668,5,2,0:0:0:0:
398,250,45939,2,0,P|349:263|322:270,1,70.0650017105713,2|0,0:0|0:0,0:0:0:0:
284,135,46391,5,2,0:0:0:0:
282,146,46662,2,0,P|268:194|265:206,1,57.0900017422486,2|0,0:0|0:0,0:0:0:0:
146,187,47114,5,2,0:0:0:0:
153,195,47385,2,0,P|181:224|188:231,1,44.1150002692566,2|0,0:0|0:0,0:0:0:0:
116,323,47836,5,2,0:0:0:0:
125,321,48108,2,0,P|157:312|165:310,1,41.5200010136719,2|0,0:0|0:0,0:0:0:0:
264,326,48559,5,14,0:0:0:0:
23,129,48740,1,0,1:2:0:0:
268,131,48921,5,14,0:0:0:0:
13,334,49102,1,0,1:2:0:0:
129,186,49282,5,8,0:0:0:0:
129,195,49373,2,0,P|137:255|140:265,1,40.6549993796539,10|8,0:0|0:0,0:0:0:0:
262,351,49553,1,8,0:0:0:0:
273,355,49644,1,8,0:0:0:0:
284,357,49734,2,0,P|286:336|287:316,1,40.6549993796539,10|8,0:0|0:0,0:0:0:0:
393,171,49915,1,8,0:0:0:0:
385,167,50005,6,0,B|331:142|287:175|287:175|267:213|205:210,1,179.919998901855,6|8,1:2|0:0,0:0:0:0:
118,117,50547,1,2,0:0:0:0:
1,279,50728,2,0,P|45:270|88:258,1,89.9599994509277,2|0,1:2|1:2,0:0:0:0:
146,194,51089,1,10,0:0:0:0:
333,52,51270,5,2,0:0:0:0:
333,52,51361,1,2,0:0:0:0:
333,52,51451,2,0,B|321:100|303:133|303:133|338:184|415:160,1,179.919998901855,2|8,1:2|0:0,0:0:0:0:
444,115,51993,1,2,0:0:0:0:
255,319,52174,2,0,P|265:272|269:207,1,89.9599994509277,2|0,1:2|1:2,0:0:0:0:
453,351,52535,2,0,P|448:306|439:262,1,89.9599994509277,10|0,0:0|0:0,0:0:0:0:
212,162,52897,6,0,B|161:172|161:172|134:188|134:188|77:201,1,134.939999176392,2|0,1:2|0:0,0:0:0:0:
74,193,53258,1,10,0:0:0:0:
283,95,53439,2,0,P|288:56|293:0,1,89.9599994509277,2|0,0:0|1:2,0:0:0:0:
205,41,53800,1,0,1:2:0:0:
367,174,53981,2,0,B|378:219|378:219|369:263,1,89.9599994509277,10|2,0:0|0:0,0:0:0:0:
292,215,54252,5,2,0:0:0:0:
302,216,54342,2,0,B|419:221|372:257|490:260,1,179.919998901855,2|10,1:2|0:0,0:0:0:0:
474,259,54885,1,0,1:2:0:0:
228,167,55065,2,0,B|171:159|195:151|142:143,1,89.9599994509277,0|0,0:0|1:3,0:3:0:0:
396,14,55427,1,10,0:0:0:0:
396,14,55788,6,0,P|388:111|383:198,1,179.919998901855,6|8,1:2|0:0,0:0:0:0:
210,33,56330,1,2,0:0:0:0:
75,197,56511,2,0,P|66:152|63:107,1,89.9599994509277,2|0,1:2|1:2,0:0:0:0:
153,140,56873,1,10,0:0:0:0:
316,261,57053,5,2,0:0:0:0:
316,261,57144,1,2,0:0:0:0:
316,261,57234,2,0,B|383:247|383:247|424:217|424:217|487:203,1,179.919998901855,2|8,1:2|0:0,0:0:0:0:
465,285,57776,1,2,0:0:0:0:
299,134,57957,2,0,B|279:95|279:95|289:45,1,89.9599994509277,2|0,1:2|1:2,0:0:0:0:
380,96,58318,1,10,0:0:0:0:
230,243,58499,1,0,0:0:0:0:
89,100,58680,6,0,P|143:113|194:121,1,89.9599994509277,2|0,1:2|0:0,0:0:0:0:
339,230,59041,1,8,0:0:0:0:
490,117,59222,2,0,P|497:70|502:26,1,89.9599994509277,2|0,0:0|1:2,0:0:0:0:
391,6,59583,2,0,P|384:53|379:97,1,89.9599994509277,2|8,1:2|0:0,0:0:0:0:
500,247,59945,1,0,0:0:0:0:
255,158,60126,5,10,0:0:0:0:
501,27,60307,1,0,1:2:0:0:
259,21,60487,5,10,0:0:0:0:
503,170,60668,1,0,1:2:0:0:
262,313,60848,5,10,0:0:0:0:
379,95,61029,1,8,0:0:0:0:
379,95,61120,1,8,3:0:0:0:
379,95,61210,2,0,P|385:154|391:170,1,44.9799997254639,0|0,1:2|1:2,0:0:0:0:
417,211,61391,1,10,0:0:0:0:
176,63,61571,6,0,B|105:77|105:77|70:112|70:112|-6:131,1,179.919998901855,6|8,1:2|0:0,0:0:0:0:
194,177,62114,2,0,P|242:191|299:202,1,89.9599994509277,2|0,0:0|1:2,0:0:0:0:
152,293,62475,1,0,1:2:0:0:
89,350,62656,2,0,P|66:303|73:262,1,89.9599994509277,10|0,0:0|0:0,0:0:0:0:
260,114,63017,6,0,P|253:171|238:319,1,179.919998901855,2|10,1:2|0:0,0:0:0:0:
1,140,63559,2,0,P|-1:86|108:52,1,179.919998901855,2|0,1:2|1:2,0:0:0:0:
294,221,64102,2,0,P|249:207|205:201,1,89.9599994509277,10|0,0:0|0:0,0:0:0:0:
385,31,64463,6,0,B|370:79|370:79|385:130,1,89.9599994509277,2|0,1:2|0:0,0:0:0:0:
508,237,64824,1,10,0:0:0:0:
453,78,65005,2,0,B|331:90|393:123|272:137,1,179.919998901855,2|0,0:0|1:2,0:0:0:0:
62,0,65547,2,0,P|114:13|181:22,1,89.9599994509277,10|0,0:0|0:0,0:0:0:0:
232,193,65909,6,0,P|241:136|248:2,1,179.919998901855,2|8,1:2|0:0,0:0:0:0:
157,89,66451,1,2,1:2:0:0:
324,208,66632,2,0,P|374:201|430:186,1,89.9599994509277,2|0,0:0|1:2,0:0:0:0:
360,126,66993,1,10,0:0:0:0:
143,291,67174,5,2,0:0:0:0:
143,291,67264,1,2,0:0:0:0:
143,291,67355,2,0,B|110:247|104:206|104:206|138:175|199:168,1,179.919998901855,2|8,1:2|0:0,0:0:0:0:
382,325,67897,1,2,0:0:0:0:
492,251,68077,2,0,B|482:300|482:300|495:340,1,89.9599994509277,2|0,1:2|1:2,0:0:0:0:
381,233,68439,1,10,0:0:0:0:
268,138,68620,5,2,0:0:0:0:
268,138,68710,1,2,0:0:0:0:
268,138,68800,2,0,P|273:193|282:335,1,179.919998901855,2|8,1:2|0:0,0:0:0:0:
141,180,69342,1,2,1:2:0:0:
23,318,69523,2,0,P|72:312|110:297,1,89.9599994509277,2|0,0:0|1:2,0:0:0:0:
194,244,69885,1,8,0:0:0:0:
337,100,70065,5,2,0:0:0:0:
337,100,70156,1,2,0:0:0:0:
337,100,70246,2,0,B|439:110|391:154|507:168,1,179.919998901855,2|8,1:2|0:0,0:0:0:0:
482,86,70788,1,2,0:0:0:0:
328,211,70969,1,2,1:2:0:0:
482,86,71150,2,0,B|494:44|494:44|479:0,1,89.9599994509277,2|8,1:2|0:0,0:0:0:0:
405,42,71511,1,0,0:0:0:0:
249,210,71692,6,0,P|255:259|260:304,1,89.9599994509277,10|0,0:0|1:2,0:0:0:0:
458,162,72053,1,10,0:0:0:0:
388,122,72234,1,0,1:2:0:0:
382,345,72415,5,10,1:2:0:0:
451,304,72595,1,8,0:0:0:0:
451,304,72686,1,8,0:0:0:0:
451,304,72776,2,0,P|455:252|454:238,1,44.9799997254639,8|8,0:0|0:0,0:0:0:0:
244,120,72957,5,8,0:0:0:0:
244,120,73047,1,8,0:0:0:0:
244,120,73138,2,0,B|172:140|172:140|164:223,1,147.914998194397,6|0,1:2|0:0,0:0:0:0:
173,222,73499,2,0,B|180:149|180:149|252:129,1,147.914998194397,6|0,1:2|0:0,0:0:0:0:
171,299,73861,6,0,B|63:310|109:338|-10:351,1,173.864991775795,6|0,1:2|0:0,0:0:0:0:
255,215,74222,2,0,B|363:226|317:254|419:265,1,173.864991775795,6|0,1:2|0:0,0:0:0:0:
419,265,74583,6,0,B|434:222|434:222|417:156,1,89.9599994509277,14|0,0:0|0:0,0:0:0:0:
237,288,74855,1,2,0:0:0:0:
238,302,74945,2,0,B|267:336|267:336|333:354,1,89.9599994509277,10|0,0:0|0:0,0:0:0:0:
293,108,75306,6,0,B|248:116|248:116|199:164,1,89.9599994509277,10|0,0:0|1:2,0:0:0:0:
410,273,75577,1,2,0:0:0:0:
419,265,75668,2,0,B|434:222|434:222|417:156,1,89.9599994509277,10|0,0:0|1:2,0:0:0:0:
170,341,76029,6,0,P|125:352|62:365,1,89.9599994509277,14|0,0:0|0:0,0:0:0:0:
335,199,76391,2,0,P|380:188|443:175,1,89.9599994509277,10|0,0:0|0:0,0:0:0:0:
155,18,76752,2,0,P|121:70|131:109,1,89.9599994509277,10|0,0:0|1:2,0:0:0:0:
160,159,77023,1,2,0:0:0:0:
166,171,77114,1,10,0:0:0:0:
315,12,77294,1,0,1:2:0:0:
396,261,77475,5,10,0:0:0:0:
235,96,77656,1,0,0:0:0:0:
56,287,77836,2,0,P|125:273|151:263,1,89.9599994509277,10|0,0:0|0:0,0:0:0:0:
404,48,78198,5,10,0:0:0:0:
88,205,78379,1,0,1:2:0:0:
396,261,78559,5,10,0:0:0:0:
87,52,78740,1,0,1:2:0:0:
288,348,78921,6,0,P|296:291|299:255,1,89.9599994509277,10|0,0:0|0:0,0:0:0:0:
180,0,79282,2,0,P|188:57|191:93,1,89.9599994509277,10|0,0:0|0:0,0:0:0:0:
41,282,79644,1,10,0:0:0:0:
0,186,79824,5,8,0:0:0:0:
46,171,79915,1,8,0:0:0:0:
82,196,80005,1,8,0:0:0:0:
110,185,80095,1,8,0:0:0:0:
133,200,80186,1,8,0:0:0:0:
149,192,80276,1,8,0:0:0:0:
164,200,80367,6,0,P|214:208|267:223,1,89.9599994509277,2|0,1:2|0:0,0:0:0:0:
410,375,80638,1,2,0:0:0:0:
411,365,80728,2,0,P|392:317|379:264,1,89.9599994509277,10|0,0:0|0:0,0:0:0:0:
433,69,81089,6,0,P|400:109|361:147,1,89.9599994509277,10|0,0:0|1:2,0:0:0:0:
156,208,81361,1,0,0:0:0:0:
164,200,81450,2,0,P|214:208|267:223,1,89.9599994509277,10|0,0:0|1:2,0:0:0:0:
498,383,81812,6,0,P|453:376|410:364,1,89.9599994509277,10|0,0:0|0:0,0:0:0:0:
164,200,82174,1,10,0:0:0:0:
433,69,82355,1,0,0:0:0:0:
333,264,82535,6,0,P|325:208|322:168,1,89.9599994509277,14|0,0:0|1:2,0:0:0:0:
115,0,82896,2,0,P|111:44|104:89,1,89.9599994509277,10|0,0:0|1:2,0:0:0:0:
344,5,83258,6,0,B|407:16|407:16|448:45|448:45|527:60,1,179.919998901855,10|8,0:0|0:0,0:0:0:0:
244,233,83800,1,2,0:0:0:0:
427,365,83981,2,0,P|418:320|415:275,1,89.9599994509277,10|0,0:0|1:2,0:0:0:0:
240,38,84342,2,0,P|236:82|228:126,1,89.9599994509277,10|0,0:0|1:2,0:0:0:0:
105,338,84704,6,0,P|44:335|26:262,1,134.939999176392,10|0,0:0|0:0,0:0:0:0:
21,272,85065,2,0,P|32:220|36:172,1,89.9599994509277,10|0,0:0|0:0,0:0:0:0:
254,5,85427,5,10,0:0:0:0:
2,114,85608,1,10,0:0:0:0:
168,243,85788,2,0,B|161:128|190:166|182:52,1,192.030004688233,14|0,0:0|0:0,0:0:0:0:
