osu file format v14

[General]
AudioFilename: audio.mp3
AudioLeadIn: 0
PreviewTime: 50005
Countdown: 0
SampleSet: Soft
StackLeniency: 0.7
Mode: 0
LetterboxInBreaks: 0
WidescreenStoryboard: 1

[Editor]
Bookmarks: 25427,36993,74583
DistanceSpacing: 1
BeatDivisor: 4
GridSize: 4
TimelineZoom: 1.4

[Metadata]
Title:PHOENIX PRAYER (TV Size)
TitleUnicode:PHOENIX PRAYER (TV Size)
Artist:Aoi Eir
ArtistUnicode:藍井エイル
Creator:HeTo
Version:KoldNoodl's Hard
Source:15周年 コードギアス 反逆のルルーシュ
Tags:japanese jrock rock j-rock anime code geass hangyaku no lelouch 15th anniversary koldnoodl sanairrt
BeatmapID:3510448
BeatmapSetID:1714895

[Difficulty]
HPDrainRate:6
CircleSize:3.8
OverallDifficulty:7
ApproachRate:8
SliderMultiplier:1.4
SliderTickRate:1

[Events]
//Background and Video events
0,0,"12.jpg",0,0
//Break Periods
//Storyboard Layer 0 (Background)
//Storyboard Layer 1 (Fail)
//Storyboard Layer 2 (Pass)
//Storyboard Layer 3 (Foreground)
//Storyboard Layer 4 (Overlay)
//Storyboard Sound Samples

[TimingPoints]
2294,361.44578313253,4,2,5,50,1,0
7355,-90.9090909090909,4,2,5,50,0,0
8077,-90.9090909090909,4,2,5,70,0,0
13861,-111.111111111111,4,2,5,55,0,0
22535,-100,4,2,5,55,0,0
23620,-100,4,2,5,5,0,0
23981,-100,4,2,5,55,0,0
24342,-100,4,2,5,40,0,0
24703,-100,4,2,5,45,0,0
25065,-100,4,2,5,50,0,0
25427,-100,4,2,5,55,0,0
45668,-100,4,2,5,45,0,0
48559,-90.9090909090909,4,2,5,55,0,0
50005,361.44578313253,4,2,5,75,1,0
50005,-90.9090909090909,4,2,5,75,0,0
53168,-90.9090909090909,4,2,5,5,0,0
53258,-90.9090909090909,4,2,5,75,0,0
61481,-90.9090909090909,4,2,5,5,0,0
61571,-90.9090909090909,4,2,5,75,0,0
73409,-90.9090909090909,4,2,5,5,0,0
73499,-90.9090909090909,4,2,5,75,0,0
73770,-90.9090909090909,4,2,5,5,0,0
73861,-90.9090909090909,4,2,5,75,0,0
74132,-90.9090909090909,4,2,5,5,0,0
74222,-90.9090909090909,4,2,5,75,0,0
74493,-90.9090909090909,4,2,5,5,0,0
74583,361.44578313253,4,2,5,75,1,0
74583,-90.9090909090909,4,2,5,75,0,1
86329,-90.9090909090909,4,2,5,5,0,0

[Colours]
Combo1 : 191,0,44
Combo2 : 153,153,153
Combo3 : 253,170,236
Combo4 : 166,135,248

[HitObjects]
256,192,5186,12,0,6632,0:0:0:0:
35,109,7355,5,8,0:0:0:0:
44,118,7445,2,0,P|105:107|150:107,1,77.0000023498536,8|0,0:0|0:0,0:0:0:0:
148,89,7716,2,0,P|151:66|152:22,2,38.5000011749268,8|8|10,0:0|0:0|0:0,0:0:0:0:
98,190,8077,6,0,P|113:237|121:280,1,77.0000023498536,2|2,1:2|0:0,0:0:0:0:
75,338,8439,1,8,0:0:0:0:
165,367,8620,2,0,P|241:365|283:293,1,154.000004699707,2|2,0:0|0:0,0:0:0:0:
374,339,9162,2,0,P|362:293|364:245,1,77.0000023498536,10|0,0:0|0:0,0:0:0:0:
391,175,9523,5,2,1:2:0:0:
451,240,9704,1,0,0:0:0:0:
366,258,9885,1,10,0:0:0:0:
398,165,10065,2,0,B|403:90|451:114|459:17,1,154.000004699707,2|2,0:0|0:0,0:0:0:0:
371,0,10608,2,0,P|329:17|285:26,1,77.0000023498536,10|2,0:0|0:0,0:0:0:0:
223,108,10969,5,2,1:2:0:0:
169,35,11150,1,2,0:0:0:0:
90,82,11330,1,10,0:0:0:0:
147,149,11511,2,0,P|161:195|130:294,1,154.000004699707,2|2,0:0|0:0,0:0:0:0:
40,284,12053,2,0,P|55:323|64:376,1,77.0000023498536,10|0,0:0|0:0,0:0:0:0:
166,384,12414,5,2,1:2:0:0:
237,330,12595,1,2,0:0:0:0:
237,330,12686,1,2,0:0:0:0:
237,330,12775,2,0,P|283:338|321:343,1,77.0000023498536,10|0,0:0|0:0,0:0:0:0:
399,384,13138,2,0,P|405:334|406:275,1,77.0000023498536,10|2,0:0|0:0,0:0:0:0:
417,296,13409,1,8,0:0:0:0:
427,286,13499,1,10,0:0:0:0:
365,208,13680,1,4,3:0:0:0:
271,251,13861,6,0,P|209:252|178:179,1,125.999996154785,6|0,1:2|1:2,0:0:0:0:
103,153,14403,2,0,P|116:104|117:68,1,62.9999980773926,2|0,0:0|1:2,0:0:0:0:
181,20,14764,2,0,P|225:38|325:59,1,125.999996154785,2|0,0:0|0:0,0:0:0:0:
393,3,15306,6,0,B|371:66|415:57|393:146,1,125.999996154785,2|0,1:2|1:2,0:0:0:0:
394,219,15848,2,0,P|350:203|312:198,1,62.9999980773926,2|0,0:0|1:2,0:0:0:0:
259,137,16210,2,0,P|219:169|228:255,1,125.999996154785,2|0,0:0|0:0,0:0:0:0:
264,319,16752,6,0,P|221:329|192:343,2,62.9999980773926,2|2|0,1:2|0:0|1:2,0:0:0:0:
333,274,17294,2,0,P|402:297|475:310,2,125.999996154785,2|2|2,0:0|0:0|0:0,0:0:0:0:
288,205,18198,1,0,1:2:0:0:
131,282,18559,2,0,B|124:219|89:245|76:170,1,125.999996154785,2|0,1:2|1:2,0:0:0:0:
23,100,19102,1,0,0:0:0:0:
23,100,19282,2,0,P|75:88|97:76,1,62.9999980773926,0|0,1:2|0:0,0:0:0:0:
154,12,19644,6,0,P|200:50|276:39,1,125.999996154785,2|2,1:2|1:2,0:0:0:0:
363,3,20186,2,0,P|349:49|344:91,1,62.9999980773926,2|2,0:0|1:2,0:0:0:0:
406,131,20547,1,2,0:0:0:0:
335,184,20728,1,0,1:2:0:0:
272,129,20909,1,2,0:0:0:0:
182,199,21089,6,0,P|169:259|159:336,1,125.999996154785,2|0,1:2|1:2,0:0:0:0:
106,384,21632,2,0,P|66:369|23:366,1,62.9999980773926,2|0,0:0|1:2,0:0:0:0:
0,283,21993,2,0,P|62:265|64:188,1,125.999996154785,2|2,0:0|0:0,0:0:0:0:
16,136,22535,6,0,P|71:124|133:114,1,105,6|0,1:2|0:0,0:0:0:0:
151,115,22897,2,0,P|142:73|141:18,1,70,10|0,0:0|0:0,0:0:0:0:
236,79,23258,2,0,P|282:128|269:194,1,140,10|0,0:0|0:0,0:0:0:0:
256,192,23981,12,2,25065,0:0:0:0:
268,194,25427,6,0,P|287:243|295:294,2,105,6|0|8,1:2|1:2|0:0,0:0:0:0:
304,109,26150,2,0,P|256:158|188:155,1,140,2|10,0:0|0:0,0:0:0:0:
179,148,26602,1,0,1:2:0:0:
49,102,26873,2,0,P|56:50|70:0,2,105,2|0|10,1:2|1:2|0:0,0:0:0:0:
0,169,27595,2,0,B|12:197|34:208|34:208|45:260|3:297,1,140,2|10,0:0|0:0,0:0:0:0:
16,301,28047,1,0,1:2:0:0:
141,376,28318,6,0,P|190:360|242:350,2,105,2|2|10,1:2|1:2|0:0,0:0:0:0:
183,277,29040,2,0,P|191:243|196:161,1,105
179,148,29403,1,10,0:0:0:0:
179,148,29493,1,0,1:2:0:0:
258,52,29764,6,0,P|291:66|325:72,1,70,2|0,1:2|0:0,0:0:0:0:
347,63,30035,1,0,1:2:0:0:
433,188,30306,1,8,0:0:0:0:
371,246,30487,2,0,P|338:232|269:267,1,105,2|0,0:0|0:0,0:0:0:0:
267,289,30848,1,10,0:0:0:0:
267,289,30939,1,0,1:2:0:0:
103,230,31210,6,0,P|122:278|132:330,2,105,2|0|8,1:2|1:2|0:0,0:0:0:0:
45,132,31933,2,0,P|97:149|165:152,1,105,2|0,0:0|0:0,0:0:0:0:
177,141,32294,1,10,0:0:0:0:
177,141,32384,1,0,1:2:0:0:
301,93,32656,6,0,P|294:55|292:13,1,70,2|0,1:2|0:0,0:0:0:0:
305,5,32927,1,2,1:2:0:0:
430,78,33198,1,10,0:0:0:0:
376,148,33379,2,0,P|386:198|398:303,1,140,2|10,0:0|0:0,0:0:0:0:
413,299,33830,1,0,1:2:0:0:
276,249,34102,6,0,P|247:287|268:355,2,105,2|2|10,1:2|1:2|0:0,0:0:0:0:
217,191,34824,2,0,P|168:217|108:222,1,105,0|0,0:0|0:0,0:0:0:0:
96,244,35186,1,10,0:0:0:0:
96,244,35275,1,0,1:2:0:0:
13,161,35547,6,0,P|20:113|36:26,2,105,2|0|10,1:2|1:2|0:0,0:0:0:0:
98,129,36270,2,0,P|140:111|185:122,1,70,2|0,0:0|1:2,0:0:0:0:
232,57,36632,1,10,0:0:0:0:
232,57,36993,6,0,P|244:100|247:136,1,70,2|8,1:2|0:0,0:0:0:0:
246,132,37264,1,0,1:2:0:0:
242,137,37355,1,2,0:0:0:0:
181,197,37535,1,12,3:0:0:0:
280,237,37716,2,0,P|292:280|295:316,1,70,2|0,0:0|1:2,0:0:0:0:
360,357,38077,1,10,0:0:0:0:
360,357,38168,1,0,1:2:0:0:
447,244,38439,6,0,P|451:209|461:175,1,70,2|8,1:2|0:0,0:0:0:0:
468,169,38710,1,0,1:2:0:0:
476,165,38800,1,2,0:0:0:0:
410,105,38981,1,10,0:0:0:0:
474,7,39162,2,0,P|433:19|393:22,1,70,2|0,0:0|1:2,0:0:0:0:
337,65,39523,1,10,0:0:0:0:
337,65,39614,1,2,1:2:0:0:
211,12,39885,6,0,P|221:53|225:100,1,70,2|8,1:2|0:0,0:0:0:0:
217,92,40156,1,0,1:2:0:0:
302,196,40427,1,8,0:0:0:0:
243,257,40608,2,0,P|204:246|156:241,1,70,2|2,0:0|1:2,0:0:0:0:
116,179,40969,2,0,P|121:154|127:122,2,35,10|8|0,0:0|3:0|0:0,0:0:0:0:
33,266,41330,6,0,P|26:220|27:175,1,70,2|8,1:2|0:0,0:0:0:0:
29,191,41602,1,0,1:2:0:0:
33,184,41692,1,2,0:0:0:0:
59,98,41873,1,8,0:0:0:0:
90,12,42053,2,0,P|143:23|185:30,1,70,2|6,0:0|1:2,0:0:0:0:
242,0,42415,1,2,0:0:0:0:
228,100,42595,5,8,0:0:0:0:
228,100,42686,1,8,0:0:0:0:
228,100,42775,2,0,P|242:150|247:192,1,70,6|8,1:2|0:0,0:0:0:0:
323,236,43137,2,0,P|299:241|271:251,2,35,0|8|0,0:0|0:0|1:2,0:0:0:0:
378,149,43499,1,10,0:0:0:0:
469,182,43680,1,10,0:0:0:0:
418,263,43861,2,0,P|425:288|430:324,3,35,8|8|8|8,0:0|0:0|0:0|0:0,0:0:0:0:
404,324,44222,6,0,P|356:344|317:345,1,70,6|8,1:2|0:0,0:0:0:0:
255,384,44583,2,0,P|206:365|177:338,1,70,6|8,1:2|0:0,0:0:0:0:
222,268,44945,1,8,3:0:0:0:
147,210,45126,1,0,1:2:0:0:
74,268,45306,1,8,0:0:0:0:
79,280,45397,1,8,0:0:0:0:
83,292,45487,1,8,0:0:0:0:
87,302,45577,1,8,0:0:0:0:
87,302,48559,6,0,P|141:280|227:274,1,115.50000352478,14|0,0:0|0:0,0:0:0:0:
216,294,48921,2,0,P|205:342|203:384,1,77.0000023498536,14|0,0:0|1:2,0:0:0:0:
317,308,49282,1,8,0:0:0:0:
317,308,49373,2,0,P|313:269|298:210,1,77.0000023498536,10|8,0:0|0:0,0:0:0:0:
314,194,49644,2,0,P|344:185|377:174,3,38.5000011749268,8|10|8|8,0:0|0:0|0:0|0:0,0:0:0:0:
370,150,50005,6,0,P|321:103|226:139,1,154.000004699707,6|8,1:2|0:0,0:0:0:0:
157,65,50547,1,2,0:0:0:0:
72,139,50728,2,0,P|66:94|53:42,1,77.0000023498536,2|0,1:2|1:2,0:0:0:0:
168,179,51089,2,0,P|160:220|149:317,1,115.50000352478,10|2,0:0|0:0,0:0:0:0:
148,323,51451,6,0,B|247:306|247:306|298:353,1,154.000004699707,2|8,1:2|0:0,0:0:0:0:
372,285,51993,1,2,0:0:0:0:
461,342,52174,2,0,P|474:266|434:199,1,154.000004699707,2|10,1:2|0:0,0:0:0:0:
456,106,52716,1,2,0:0:0:0:
456,106,52806,1,2,0:0:0:0:
456,106,52897,6,0,P|409:119|363:125,1,77.0000023498536,2|0,1:2|0:0,0:0:0:0:
318,196,53258,1,10,0:0:0:0:
254,127,53439,2,0,P|262:87|270:40,1,77.0000023498536,2|0,0:0|1:2,0:0:0:0:
192,0,53800,1,0,1:2:0:0:
192,0,53981,2,0,P|147:15|111:22,1,77.0000023498536,10|2,0:0|0:0,0:0:0:0:
34,79,54342,6,0,B|49:107|67:117|67:117|84:172|36:219,1,154.000004699707,2|10,1:2|0:0,0:0:0:0:
100,289,54885,2,0,P|154:291|202:206,1,154.000004699707,0|0,1:2|1:3,0:0:0:0:
164,123,55427,2,0,P|224:137|306:148,1,115.50000352478,10|0,0:0|0:0,0:0:0:0:
299,132,55788,6,0,P|350:85|439:114,1,154.000004699707,6|8,1:2|0:0,0:0:0:0:
407,193,56330,1,2,0:0:0:0:
491,232,56511,2,0,P|478:279|475:325,1,77.0000023498536,2|0,1:2|1:2,0:0:0:0:
389,372,56873,2,0,P|352:325|286:337,1,115.50000352478,10|2,0:0|0:0,0:0:0:0:
290,344,57234,6,0,B|205:331|239:290|131:285,1,154.000004699707,2|8,1:2|0:0,0:0:0:0:
81,348,57776,1,2,0:0:0:0:
7,290,57957,2,0,P|22:232|43:133,1,154.000004699707,2|10,1:2|0:0,0:0:0:0:
111,62,58499,1,2,0:0:0:0:
111,62,58589,1,2,0:0:0:0:
111,62,58680,6,0,P|126:113|139:148,1,77.0000023498536,2|0,1:2|0:0,0:0:0:0:
219,94,59041,1,8,0:0:0:0:
278,169,59222,2,0,P|333:151|376:146,1,77.0000023498536,2|0,0:0|1:2,0:0:0:0:
453,118,59583,1,2,1:2:0:0:
453,118,59764,2,0,P|440:149|430:201,1,77.0000023498536,10|0,1:2|0:0,0:0:0:0:
486,276,60126,5,10,0:0:0:0:
417,335,60306,1,0,1:2:0:0:
341,289,60487,1,10,0:0:0:0:
268,238,60668,1,0,1:2:0:0:
207,307,60848,2,0,P|161:298|122:295,1,77.0000023498536,10|8,0:0|0:0,0:0:0:0:
72,223,61210,1,0,1:2:0:0:
72,223,61300,1,0,1:2:0:0:
72,223,61391,1,10,0:0:0:0:
144,151,61571,6,0,P|187:203|282:182,1,154.000004699707,6|8,1:2|0:0,0:0:0:0:
361,223,62114,2,0,P|350:180|338:66,1,154.000004699707,2|0,0:0|1:2,0:0:0:0:
267,12,62656,2,0,P|227:34|183:39,1,77.0000023498536,10|0,0:0|0:0,0:0:0:0:
84,0,63017,6,0,P|102:37|109:78,1,77.0000023498536,2|0,1:2|0:0,0:0:0:0:
132,166,63379,1,10,0:0:0:0:
41,143,63559,2,0,P|17:191|14:296,1,154.000004699707,2|0,1:2|1:2,0:0:0:0:
80,354,64102,2,0,P|113:340|153:333,1,77.0000023498536,10|0,0:0|0:0,0:0:0:0:
262,352,64463,6,0,P|258:313|246:276,1,77.0000023498536,2|0,1:2|0:0,0:0:0:0:
177,219,64824,1,10,0:0:0:0:
250,149,65005,2,0,P|313:191|387:178,1,154.000004699707,2|0,0:0|1:2,0:0:0:0:
486,133,65547,2,0,P|473:169|470:207,1,77.0000023498536,10|0,0:0|0:0,0:0:0:0:
512,313,65909,6,0,P|461:300|347:287,1,154.000004699707,2|8,1:2|0:0,0:0:0:0:
279,343,66451,1,2,1:2:0:0:
204,274,66632,2,0,P|216:217|218:177,1,77.0000023498536,2|0,0:0|1:2,0:0:0:0:
150,132,66993,1,10,0:0:0:0:
140,134,67083,1,2,0:0:0:0:
131,136,67173,1,2,0:0:0:0:
121,138,67264,1,2,0:0:0:0:
112,140,67355,6,0,P|69:185|103:287,1,154.000004699707,2|8,1:2|0:0,0:0:0:0:
54,357,67897,1,2,0:0:0:0:
156,325,68077,2,0,P|212:338|240:339,1,77.0000023498536,2|0,1:2|1:2,0:0:0:0:
335,380,68439,2,0,P|327:334|328:276,1,77.0000023498536,10|2,0:0|0:0,0:0:0:0:
400,236,68800,6,0,P|411:175|348:113,1,154.000004699707,2|8,1:2|0:0,0:0:0:0:
284,167,69342,1,2,1:2:0:0:
234,82,69523,2,0,P|178:97|70:115,1,154.000004699707,2|8,0:0|0:0,0:0:0:0:
23,186,70065,1,2,0:0:0:0:
103,253,70246,6,0,P|113:303|113:347,1,77.0000023498536,2|0,1:2|0:0,0:0:0:0:
200,256,70608,2,0,P|202:217|210:180,1,77.0000023498536,8|2,0:0|0:0,0:0:0:0:
161,106,70969,1,2,1:2:0:0:
240,41,71150,2,0,P|312:65|389:64,1,154.000004699707,2|0,1:2|0:0,0:0:0:0:
467,11,71692,5,10,0:0:0:0:
489,103,71873,1,0,0:0:0:0:
406,153,72053,1,10,0:0:0:0:
488,209,72234,1,0,1:2:0:0:
401,257,72415,2,0,P|363:247|325:245,1,77.0000023498536,10|8,0:0|0:0,0:0:0:0:
314,253,72686,1,8,0:0:0:0:
306,263,72776,2,0,P|316:293|321:326,3,38.5000011749268,8|8|8|8,0:0|0:0|0:0|0:0,0:0:0:0:
306,340,73138,5,6,1:2:0:0:
149,278,73499,1,6,1:2:0:0:
267,173,73861,1,6,1:2:0:0:
110,111,74222,1,6,1:2:0:0:
226,9,74583,6,0,P|214:46|207:84,1,77.0000023498536,14|0,0:0|0:0,0:0:0:0:
117,139,74945,2,0,P|128:175|135:213,1,77.0000023498536,10|0,0:0|0:0,0:0:0:0:
119,334,75305,2,0,P|152:316|190:316,1,77.0000023498536,10|0,0:0|1:2,0:0:0:0:
290,369,75668,2,0,P|328:368|361:350,1,77.0000023498536,10|0,0:0|1:2,0:0:0:0:
483,367,76029,6,0,P|465:312|458:254,1,115.50000352478,14|0,0:0|0:0,0:0:0:0:
433,226,76391,2,0,P|443:188|447:150,1,77.0000023498536,10|0,0:0|0:0,0:0:0:0:
374,64,76752,1,10,0:0:0:0:
289,140,76933,1,0,1:2:0:0:
200,75,77113,2,0,P|203:36|213:0,1,77.0000023498536,10|0,0:0|1:2,0:0:0:0:
79,70,77475,6,0,P|48:117|62:171,1,115.50000352478,10|0,0:0|0:0,0:0:0:0:
75,186,77836,2,0,P|68:223|63:262,1,77.0000023498536,10|0,0:0|0:0,0:0:0:0:
30,384,78197,2,0,P|75:373|118:369,1,77.0000023498536,10|0,0:0|1:2,0:0:0:0:
197,296,78559,2,0,P|242:307|285:311,1,77.0000023498536,10|0,0:0|1:2,0:0:0:0:
378,384,78921,6,0,P|401:325|386:265,1,115.50000352478,10|0,0:0|0:0,0:0:0:0:
371,248,79282,2,0,P|383:202|388:154,1,77.0000023498536,10|0,0:0|0:0,0:0:0:0:
299,73,79644,2,0,P|287:119|282:167,1,77.0000023498536,10|8,0:0|0:0,0:0:0:0:
269,161,79915,1,8,0:0:0:0:
261,169,80005,2,0,P|220:155|203:152,3,38.5000011749268,8|8|8|8,0:0|0:0|0:0|0:0,0:0:0:0:
193,129,80367,6,0,P|150:146|114:152,1,77.0000023498536,2|0,1:2|0:0,0:0:0:0:
9,217,80728,2,0,P|-1:171|2:124,1,77.0000023498536,10|0,0:0|0:0,0:0:0:0:
100,251,81089,2,0,P|99:289|90:326,1,77.0000023498536,10|0,0:0|1:2,0:0:0:0:
190,378,81451,2,0,P|233:361|269:355,1,77.0000023498536,10|0,0:0|1:2,0:0:0:0:
341,272,81812,6,0,B|331:260|314:251|314:251|310:204|339:165,1,115.50000352478,10|0,0:0|0:0,0:0:0:0:
360,157,82174,2,0,P|351:104|351:68,1,77.0000023498536,10|0,0:0|0:0,0:0:0:0:
258,13,82535,1,14,0:0:0:0:
175,93,82715,1,0,1:2:0:0:
234,192,82897,2,0,P|221:237|218:280,1,77.0000023498536,10|0,0:0|1:2,0:0:0:0:
150,344,83258,6,0,P|57:339|37:268,1,154.000004699707,10|8,0:0|0:0,0:0:0:0:
89,208,83800,1,2,0:0:0:0:
0,141,83981,2,0,P|73:126|171:88,1,154.000004699707,10|10,0:0|0:0,0:0:0:0:
212,29,84523,5,0,1:2:0:0:
212,29,84704,2,0,P|231:77|238:127,1,77.0000023498536,10|0,0:0|0:0,0:0:0:0:
329,162,85065,2,0,P|310:210|303:260,1,77.0000023498536,10|0,0:0|0:0,0:0:0:0:
229,331,85427,1,10,0:0:0:0:
170,219,85608,1,10,0:0:0:0:
96,324,85788,1,14,0:0:0:0:
