osu file format v14

[General]
AudioFilename: audio.mp3
AudioLeadIn: 0
PreviewTime: 56707
Countdown: 0
SampleSet: Soft
StackLeniency: 0.7
Mode: 0
LetterboxInBreaks: 0
WidescreenStoryboard: 1

[Editor]
DistanceSpacing: 1.3
BeatDivisor: 4
GridSize: 32
TimelineZoom: 1

[Metadata]
Title:MEMORIA (TV Size)
TitleUnicode:MEMORIA (TV Size)
Artist:Aoi Eir
ArtistUnicode:藍井エイル
Creator:Slyme
Version:Yumerios' Excalibur
Source:Fate/Zero
Tags:jpop j-pop pop Battle Eloxrad Yumerios Saber Japanese フェイト/ゼロ Female Vocalist Ending Anime ED
BeatmapID:2496542
BeatmapSetID:1197802

[Difficulty]
HPDrainRate:5.5
CircleSize:3.8
OverallDifficulty:8
ApproachRate:8.5
SliderMultiplier:2.32
SliderTickRate:1

[Events]
//Background and Video events
Video,0,"Video.mp4"
0,0,"5555.jpg",0,0
//Break Periods
//Storyboard Layer 0 (Background)
//Storyboard Layer 1 (Fail)
//Storyboard Layer 2 (Pass)
//Storyboard Layer 3 (Foreground)
//Storyboard Layer 4 (Overlay)
//Storyboard Sound Samples

[TimingPoints]
1512,468.75,4,2,1,42,1,0
1512,-161.290322580645,4,2,1,42,0,0
18387,-108.695652173913,4,2,1,62,0,0
25887,-138.888888888889,4,2,1,52,0,0
40887,-121.951219512195,4,2,1,62,0,0
48387,-121.951219512195,4,2,1,72,0,0
57293,-238.095238095238,4,2,1,52,0,0
57644,-238.095238095238,4,2,1,5,0,0
57762,-98.0392156862745,4,2,1,82,0,0
85652,-192.307692307692,4,2,1,82,0,0
86824,-192.307692307692,4,2,1,52,0,0
87058,-192.307692307692,4,2,1,42,0,0
87293,-192.307692307692,4,2,1,32,0,0
87527,-192.307692307692,4,2,1,22,0,0
87644,-192.307692307692,4,2,1,5,0,0

[Colours]
Combo1 : 192,192,192
Combo2 : 150,139,136
Combo3 : 198,173,159
Combo4 : 79,79,79

[HitObjects]
89,151,1512,6,0,P|109:210|117:241,2,71.9199971467286,2|2|2,0:2|0:2|0:2,0:2:0:0:
158,77,2215,2,0,B|196:65|230:85|218:101|253:122|296:109,1,143.839994293457,2|2,0:2|0:2,0:2:0:0:
365,69,2918,1,2,0:2:0:0:
365,69,3152,1,2,0:2:0:0:
443,182,3387,2,0,B|362:146|294:215|330:247|269:313|166:264,1,287.679988586915,8|0,0:2|3:2,0:2:0:0:
9,166,5027,5,2,0:2:0:0:
9,166,5144,1,2,0:2:0:0:
9,166,5262,2,0,P|48:153|79:153,2,71.9199971467286,2|2|2,0:2|0:2|0:2,0:2:0:0:
133,225,5965,2,0,P|166:185|154:92,1,143.839994293457,2|2,0:2|0:2,0:2:0:0:
78,65,6668,1,2,0:2:0:0:
78,65,6902,1,2,0:2:0:0:
206,18,7137,2,0,B|274:20|323:93|323:93|384:25|474:27,1,287.679988586914,8|0,0:2|3:2,0:2:0:0:
509,208,8777,5,2,0:2:0:0:
509,208,8894,1,2,0:2:0:0:
509,208,9012,2,0,P|466:191|431:186,2,71.9199971467286,2|2|2,0:2|0:2|0:2,0:2:0:0:
369,251,9715,2,0,P|291:281|228:290,1,143.839994293457,2|2,0:2|0:2,0:2:0:0:
133,263,10418,1,2,0:2:0:0:
133,263,10652,1,2,0:2:0:0:
220,150,10887,2,0,P|204:196|193:230,1,71.9199971467286,8|2,0:2|0:2,0:2:0:0:
133,126,11355,1,2,0:2:0:0:
201,61,11590,2,0,B|265:33|316:78|296:100|356:144|409:110,1,215.759991440186,2|0,0:2|0:2,0:2:0:0:
490,91,12527,5,2,0:2:0:0:
490,91,12644,1,2,0:2:0:0:
490,91,12762,2,0,P|482:140|475:179,2,71.9199971467286,2|2|2,0:2|0:2|0:2,0:2:0:0:
382,167,13465,2,0,B|329:142|293:124|293:124|245:152,1,143.839994293457,2|2,0:2|0:2,0:2:0:0:
180,187,14168,1,2,0:2:0:0:
180,187,14402,1,2,0:2:0:0:
224,285,14637,6,0,P|241:237|256:201,2,71.9199971467286,8|0|0,0:2|0:2|0:2,0:2:0:0:
145,341,15340,2,0,P|83:345|55:258,1,143.839994293457,2|0,0:2|0:2,0:2:0:0:
107,211,16043,2,0,P|61:185|28:189,1,71.9199971467286,2|0,0:2|0:2,0:2:0:0:
7,82,16512,6,0,B|59:69|93:51|93:51|150:81,1,143.839994293457,2|0,0:2|0:2,0:2:0:0:
216,152,17215,1,8,0:2:0:0:
280,53,17449,1,8,0:2:0:0:
306,29,17566,1,8,0:2:0:0:
340,17,17683,1,8,0:2:0:0:
376,20,17800,1,8,0:2:0:0:
407,36,17918,2,0,L|414:80,5,23.9733323822429,8|8|8|8|8|8,0:2|0:2|0:2|0:2|0:2|0:2,0:2:0:0:
445,89,18387,6,0,P|431:160|422:213,1,106.719996417481,0|0,1:2|0:2,0:2:0:0:
294,350,18855,2,0,P|236:324|130:300,1,160.079994626221,8|8,0:1|0:1,0:2:0:0:
101,311,19324,1,0,1:2:0:0:
218,173,19558,1,8,0:3:0:0:
325,366,19793,1,8,0:1:0:0:
113,190,20027,6,0,P|110:125|244:71,1,213.439992834961,4|0,1:1|0:2,0:2:0:0:
406,212,20730,2,0,B|425:128|446:69|446:69|381:1,1,213.439992834961,8|0,0:1|1:2,0:2:0:0:
271,124,21433,1,8,0:3:0:0:
413,252,21668,2,0,P|502:212|544:198,1,106.719996417481,8|0,0:1|0:2,0:2:0:0:
322,33,22137,6,0,B|258:6|210:51|229:73|181:115|113:82,1,213.439992834961,4|8,1:2|0:1,0:2:0:0:
288,207,22840,1,0,0:2:0:0:
288,207,22957,1,0,0:2:0:0:
288,207,23074,2,0,P|301:140|312:87,1,106.719996417481,0|8,1:2|0:3,0:2:0:0:
159,215,23543,1,8,0:1:0:0:
350,376,23777,6,0,P|434:349|489:337,1,106.719996417481,4|0,1:2|0:2,0:2:0:0:
324,203,24246,1,8,0:3:0:0:
207,367,24480,2,0,P|138:346|45:330,1,160.079994626221,8|0,0:3|1:2,0:2:0:0:
11,344,24949,1,8,0:3:0:0:
179,202,25183,1,10,0:3:0:0:
32,93,25418,2,0,P|49:152|62:204,1,106.719996417481,10|2,0:1|0:2,0:2:0:0:
167,110,25887,6,0,B|213:105|241:148|241:148|270:111|331:118,1,167.040004078125,0|2,1:2|1:2,0:2:0:0:
436,217,26590,2,0,P|452:176|472:131,1,83.5200020390625,2|0,0:2|1:2,0:2:0:0:
327,220,27058,1,2,0:2:0:0:
484,345,27293,1,10,0:1:0:0:
409,232,27527,1,2,0:2:0:0:
304,378,27762,6,0,P|254:361|220:351,1,83.5200020390625,0|0,1:2|0:2,0:2:0:0:
149,191,28230,2,0,P|249:157|317:137,1,167.040004078125,8|0,0:2|1:2,0:2:0:0:
436,217,28933,1,2,0:2:0:0:
340,57,29168,1,10,0:1:0:0:
251,193,29402,1,2,0:2:0:0:
420,120,29637,6,0,P|399:184|366:292,1,167.040004078125,2|8,1:2|0:2,0:2:0:0:
265,382,30340,2,0,P|252:342|239:302,1,83.5200020390625,2|0,0:2|1:2,0:2:0:0:
122,196,30808,1,2,0:2:0:0:
59,369,31043,1,10,0:1:0:0:
210,275,31277,1,2,0:2:0:0:
70,182,31512,6,0,P|86:251|92:290,1,83.5200020390625,0|0,1:2|0:2,0:2:0:0:
205,163,31980,2,0,P|279:144|389:134,1,167.040004078125,8|0,0:2|1:2,0:2:0:0:
512,233,32683,1,10,0:3:0:0:
330,292,32918,1,10,0:1:0:0:
440,159,33152,1,2,0:2:0:0:
488,328,33387,6,0,P|437:346|325:389,1,167.040004078125,0|8,1:2|0:2,0:2:0:0:
194,331,34090,2,0,P|178:280|177:243,1,83.5200020390625,2|0,0:2|1:2,0:2:0:0:
281,169,34558,2,0,P|277:210|263:249,1,83.5200020390625,2|8,0:2|0:1,0:2:0:0:
146,147,35027,1,2,0:2:0:0:
249,58,35262,6,0,P|299:41|350:32,1,83.5200020390625,0|0,1:2|0:2,0:2:0:0:
452,107,35730,2,0,P|433:189|419:278,1,167.040004078125,8|0,0:2|1:2,0:2:0:0:
279,384,36433,1,10,0:3:0:0:
344,228,36668,1,10,0:1:0:0:
457,362,36902,1,2,0:2:0:0:
265,280,37137,6,0,B|213:255|173:282|184:301|137:336|98:312,1,167.040004078125,0|8,1:2|0:2,0:2:0:0:
0,169,37840,2,0,P|7:210|15:250,1,83.5200020390625,2|0,0:2|1:2,0:2:0:0:
95,101,38308,1,10,0:3:0:0:
161,245,38543,1,10,0:1:0:0:
60,124,38777,1,2,0:2:0:0:
202,243,39012,6,0,P|272:220|300:214,1,83.5200020390625,0|8,1:2|0:3,0:2:0:0:
392,330,39480,1,8,0:1:0:0:
248,266,39715,1,8,0:3:0:0:
451,226,39949,1,0,1:2:0:0:
304,329,40183,1,8,0:3:0:0:
423,132,40418,2,0,P|412:202|407:237,1,83.5200020390625,12|0,0:1|0:2,0:2:0:0:
282,45,40887,6,0,B|225:36|185:73|185:73|156:27|104:25,1,190.240002902832,6|8,1:2|0:1,0:2:0:0:
1,131,41590,1,10,0:3:0:0:
132,251,41824,2,0,P|194:233|271:214,1,142.680002177124,2|2,0:2|0:2,0:2:0:0:
305,230,42293,1,8,0:1:0:0:
146,100,42527,1,2,0:2:0:0:
41,273,42762,6,0,P|58:323|183:342,1,190.240002902832,2|8,1:2|0:1,0:2:0:0:
340,223,43465,2,0,P|317:298|306:339,1,95.120001451416,2|0,1:2|0:2,0:2:0:0:
224,167,43933,1,10,0:3:0:0:
404,136,44168,1,10,0:1:0:0:
272,295,44402,1,2,0:2:0:0:
193,95,44637,6,0,P|137:65|58:155,1,190.240002902832,0|8,1:2|0:1,0:2:0:0:
103,306,45340,2,0,P|35:289|-8:284,1,95.120001451416,2|0,1:2|0:2,0:2:0:0:
146,158,45808,1,10,0:3:0:0:
200,364,46043,1,10,0:1:0:0:
75,217,46277,1,2,0:2:0:0:
274,127,46512,6,0,P|256:198|246:247,1,95.120001451416,0|8,1:2|0:3,0:2:0:0:
108,52,46980,1,8,0:1:0:0:
300,24,47215,1,8,0:1:0:0:
300,24,47332,1,8,0:1:0:0:
300,24,47449,1,8,0:1:0:0:
146,158,47683,1,8,0:3:0:0:
375,274,47918,1,12,0:1:0:0:
272,111,48152,1,2,0:2:0:0:
272,111,48269,1,2,0:2:0:0:
272,111,48387,6,0,P|250:191|237:263,1,142.680002177124,6|2,1:2|0:2,0:2:0:0:
237,293,48855,1,8,0:1:0:0:
136,121,49090,2,0,P|83:95|14:188,1,190.240002902832,2|8,1:2|0:3,0:2:0:0:
157,0,49793,1,8,0:1:0:0:
290,175,50027,1,2,0:2:0:0:
290,175,50144,1,2,0:2:0:0:
290,175,50262,6,0,P|353:168|433:161,1,142.680002177124,6|2,1:2|0:2,0:2:0:0:
472,183,50730,1,8,0:1:0:0:
384,337,50965,2,0,P|295:327|183:317,1,190.240002902832,2|8,1:2|0:3,0:2:0:0:
15,171,51668,1,8,0:1:0:0:
110,339,51902,1,2,0:2:0:0:
235,111,52137,6,0,P|202:38|80:47,1,190.240002902832,6|8,1:2|0:1,0:2:0:0:
185,218,52840,2,0,P|260:199|308:190,1,95.120001451416,2|0,0:2|1:2,0:2:0:0:
132,97,53308,1,10,0:3:0:0:
94,292,53543,1,10,0:1:0:0:
288,78,53777,6,0,P|274:142|266:191,1,95.120001451416,6|0,1:2|0:2,0:2:0:0:
306,370,54246,1,8,0:3:0:0:
136,188,54480,2,0,P|150:252|158:301,1,95.120001451416,8|0,0:3|0:2,0:2:0:0:
328,145,54949,1,8,0:1:0:0:
108,58,55183,1,8,0:3:0:0:
283,243,55418,1,8,0:1:0:0:
329,247,55535,1,0,1:2:0:0:
372,227,55652,1,8,0:3:0:0:
397,188,55769,1,8,0:3:0:0:
397,140,55887,6,0,B|297:76|215:159|243:191|169:265|57:211,1,380.480005805664,12|2,0:2|0:2,0:2:0:0:
59,212,57293,6,0,P|69:269|74:297,1,73.0799977697754,10|0,0:3|0:2,0:2:0:0:
80,324,57762,5,6,1:2:0:0:
232,114,57996,1,2,0:2:0:0:
321,372,58230,1,10,0:1:0:0:
129,157,58465,2,0,P|58:136|0:126,1,118.320000722168,2|0,1:2|0:2,0:2:0:0:
209,8,58933,1,10,0:3:0:0:
0,166,59168,1,10,0:1:0:0:
262,344,59402,6,0,P|341:320|510:286,1,236.640001444336,6|0,1:2|0:2,0:2:0:0:
512,80,60105,2,0,P|453:62|328:37,1,177.480001083252,8|8,0:1|0:1,0:2:0:0:
298,49,60574,1,0,1:2:0:0:
392,260,60808,1,8,0:3:0:0:
503,31,61043,1,8,0:1:0:0:
257,141,61277,1,2,0:2:0:0:
257,141,61394,1,2,0:2:0:0:
257,141,61512,5,6,1:2:0:0:
480,321,61746,1,2,0:2:0:0:
347,65,61980,1,10,0:1:0:0:
206,281,62215,2,0,P|268:301|322:327,1,118.320000722168,2|0,1:2|0:2,0:2:0:0:
186,83,62683,1,10,0:3:0:0:
83,322,62918,1,10,0:1:0:0:
352,116,63152,6,0,P|424:141|383:291,1,236.640001444336,6|0,1:2|1:2,0:2:0:0:
174,364,63855,1,8,0:1:0:0:
329,157,64090,1,8,0:1:0:0:
329,157,64207,1,8,0:1:0:0:
329,157,64324,1,8,0:1:0:0:
446,380,64558,1,8,0:3:0:0:
231,234,64793,1,8,0:1:0:0:
410,81,65027,1,2,0:2:0:0:
410,81,65144,1,2,0:2:0:0:
410,81,65262,5,6,1:2:0:0:
253,284,65496,1,2,0:2:0:0:
167,32,65730,1,10,0:1:0:0:
370,202,65965,2,0,P|349:291|338:346,1,118.320000722168,2|0,1:2|0:2,0:2:0:0:
119,384,66433,2,0,P|98:295|87:240,1,118.320000722168,10|8,0:3|0:1,0:2:0:0:
295,88,66902,6,0,P|282:145|268:203,1,118.320000722168,2|0,1:2|0:2,0:2:0:0:
94,65,67371,1,10,0:3:0:0:
213,276,67605,1,10,0:1:0:0:
358,35,67840,2,0,P|419:30|475:145,1,177.480001083252,6|8,1:2|0:1,0:2:0:0:
459,161,68308,1,8,0:3:0:0:
262,16,68543,1,8,0:1:0:0:
320,270,68777,1,2,0:2:0:0:
320,270,68894,1,2,0:2:0:0:
320,270,69012,5,6,1:2:0:0:
392,61,69246,1,2,0:2:0:0:
509,296,69480,1,10,0:1:0:0:
303,116,69715,2,0,P|325:197|331:256,1,118.320000722168,10|0,0:3|1:2,0:2:0:0:
439,68,70183,1,10,0:3:0:0:
201,145,70418,1,10,0:1:0:0:
374,363,70652,6,0,P|441:344|505:330,1,118.320000722168,6|0,1:2|0:2,0:2:0:0:
390,214,71121,1,0,1:2:0:0:
236,382,71355,1,0,1:2:0:0:
417,235,71590,1,8,0:3:0:0:
230,73,71824,5,10,0:1:0:0:
230,73,71941,1,8,0:1:0:0:
230,73,72058,1,8,0:3:0:0:
177,296,72293,2,0,P|250:308|265:311,1,59.160000361084,10|8,0:1|0:1,0:2:0:0:
361,106,72527,2,0,P|288:118|273:121,1,59.160000361084,8|8,0:3|0:3,0:2:0:0:
87,50,72762,5,6,1:2:0:0:
290,219,72996,1,2,0:2:0:0:
168,5,73230,1,10,0:1:0:0:
12,194,73465,2,0,P|26:266|36:328,1,118.320000722168,2|0,1:2|0:2,0:2:0:0:
190,139,73933,1,10,0:3:0:0:
255,366,74168,1,10,0:1:0:0:
83,153,74402,6,0,P|114:74|263:92,1,236.640001444336,6|0,1:2|0:2,0:2:0:0:
337,273,75105,2,0,P|430:288|478:206,1,177.480001083252,8|8,0:1|0:1,0:2:0:0:
467,190,75574,1,0,1:2:0:0:
231,118,75808,1,8,0:3:0:0:
278,348,76043,1,8,0:1:0:0:
410,131,76277,1,2,0:2:0:0:
410,131,76394,1,2,0:2:0:0:
410,131,76512,5,6,1:2:0:0:
214,264,76746,1,2,0:2:0:0:
467,374,76980,1,10,0:1:0:0:
315,156,77215,2,0,P|330:231|338:283,1,118.320000722168,2|0,1:2|0:2,0:2:0:0:
484,87,77683,1,10,0:3:0:0:
408,313,77918,1,10,0:1:0:0:
314,82,78152,6,0,B|244:64|196:114|196:114|168:51|93:48,1,236.640001444336,6|0,1:2|1:2,0:2:0:0:
250,215,78855,1,8,0:1:0:0:
52,367,79090,2,0,P|34:270|6:126,1,236.640001444336,4|8,1:1|0:3,0:0:0:0:
218,0,79793,2,0,P|209:70|206:97,1,59.160000361084,8|8,0:1|0:1,0:0:0:0:
99,197,80027,2,0,P|90:127|87:100,1,59.160000361084,8|8,0:3|0:3,0:0:0:0:
330,49,80262,5,6,1:2:0:0:
390,302,80496,1,2,0:2:0:0:
223,132,80730,1,10,0:1:0:0:
122,365,80965,2,0,P|44:346|-6:337,1,118.320000722168,2|0,1:2|0:2,0:2:0:0:
189,158,81433,1,10,0:3:0:0:
312,373,81668,1,10,0:1:0:0:
120,226,81902,6,0,P|142:306|151:357,1,118.320000722168,2|0,1:2|0:2,0:2:0:0:
268,163,82371,1,10,0:3:0:0:
46,146,82605,1,10,0:1:0:0:
253,329,82840,2,0,B|313:311|372:290|372:290|420:325,1,177.480001083252,6|8,1:2|0:1,0:2:0:0:
448,347,83308,1,8,0:3:0:0:
512,137,83543,1,8,0:1:0:0:
321,275,83777,1,2,0:2:0:0:
321,275,83894,1,2,0:2:0:0:
321,275,84012,5,6,1:2:0:0:
396,32,84246,1,2,0:2:0:0:
154,104,84480,1,10,0:1:0:0:
346,255,84715,2,0,P|420:238|475:228,1,118.320000722168,10|0,0:3|1:2,0:2:0:0:
317,62,85183,1,10,0:3:0:0:
167,312,85418,1,10,0:1:0:0:
2,52,85652,5,6,1:0:0:0:
256,192,85769,12,0,87644,0:0:0:0:
