osu file format v14

[General]
AudioFilename: audio.mp3
AudioLeadIn: 0
PreviewTime: 268924
Countdown: 0
SampleSet: Soft
StackLeniency: 0.5
Mode: 0
LetterboxInBreaks: 0
WidescreenStoryboard: 0

[Editor]
DistanceSpacing: 0.3
BeatDivisor: 4
GridSize: 32
TimelineZoom: 4.099998

[Metadata]
Title:Lament
TitleUnicode:Lament
Artist:Aoi Eir
ArtistUnicode:藍井エイル
Creator:Nevertary
Version:Angelic Sparkle
Source:Fate/Zero
Tags:prayer blau フェイト/ゼロ type-moon anime animation image song saber セイバー arthur artoria pendragon japanese pop j-pop jpop
BeatmapID:2533159
BeatmapSetID:1217489

[Difficulty]
HPDrainRate:5
CircleSize:4
OverallDifficulty:9
ApproachRate:9.3
SliderMultiplier:1.7
SliderTickRate:1

[Events]
//Background and Video events
0,0,"BG.jpg",0,0
//Break Periods
//Storyboard Layer 0 (Background)
//Storyboard Layer 1 (Fail)
//Storyboard Layer 2 (Pass)
//Storyboard Layer 3 (Foreground)
//Storyboard Layer 4 (Overlay)
//Storyboard Sound Samples

[TimingPoints]
4857,324.324324324324,4,2,1,55,1,0
12640,352.941176470588,4,2,1,55,1,0
14097,324.324324324324,4,2,1,55,1,0
14097,-200,4,2,1,55,0,0
30961,363.636363636364,4,2,1,55,1,0
30961,-200,4,2,1,55,0,0
33324,-200,4,2,1,5,0,0
33870,324.324324324324,4,2,1,55,1,0
33870,-200,4,2,1,55,0,0
41653,-90.9090909090909,4,2,1,75,0,0
41897,-90.9090909090909,4,2,1,5,0,0
41978,-90.9090909090909,4,2,1,75,0,0
44491,-90.9090909090909,4,2,1,5,0,0
44572,-90.9090909090909,4,2,1,75,0,0
47086,-90.9090909090909,4,2,1,5,0,0
47167,-90.9090909090909,4,2,1,75,0,0
49680,-90.9090909090909,4,2,1,5,0,0
49761,-90.9090909090909,4,2,1,75,0,0
52275,-90.9090909090909,4,2,1,5,0,0
52356,-90.9090909090909,4,2,1,75,0,0
54869,-90.9090909090909,4,2,1,5,0,0
54951,-90.9090909090909,4,2,1,75,0,0
57464,-90.9090909090909,4,2,1,5,0,0
57545,-90.9090909090909,4,2,1,75,0,0
60059,-90.9090909090909,4,2,1,5,0,0
60140,-90.9090909090909,4,2,1,75,0,0
62329,-90.9090909090909,4,2,1,5,0,0
62410,-166.666666666667,4,2,1,60,0,0
81869,-125,4,2,1,65,0,0
83167,-111.111111111111,4,2,1,70,0,0
93545,-100,4,2,1,70,0,0
102059,-100,4,2,1,5,0,0
102140,-100,4,2,1,70,0,0
102221,-100,4,2,1,5,0,0
102302,-100,4,2,1,70,0,0
102383,-100,4,2,1,5,0,0
102464,-100,4,2,1,70,0,0
102545,-100,4,2,1,5,0,0
102626,-100,4,2,1,70,0,0
102951,-333.333333333333,4,2,1,70,0,0
103680,-333.333333333333,4,2,1,5,0,0
103761,-83.3333333333333,4,2,1,80,0,1
109356,-83.3333333333333,4,2,1,5,0,1
109437,-83.3333333333333,4,2,1,80,0,1
110653,-83.3333333333333,4,2,1,5,0,1
110734,-83.3333333333333,4,2,1,80,0,1
119734,-83.3333333333333,4,2,1,5,0,1
119815,-83.3333333333333,4,2,1,80,0,1
120869,-83.3333333333333,4,2,1,5,0,1
120951,-83.3333333333333,4,2,1,80,0,1
122329,-83.3333333333333,4,2,1,5,0,1
122410,-83.3333333333333,4,2,1,80,0,1
124194,-83.3333333333333,4,2,1,80,0,0
124518,-83.3333333333333,4,2,1,80,0,1
130113,-83.3333333333333,4,2,1,5,0,1
130194,-83.3333333333333,4,2,1,80,0,1
131410,-83.3333333333333,4,2,1,5,0,1
131491,-83.3333333333333,4,2,1,80,0,1
139032,-83.3333333333333,4,2,1,5,0,1
139113,-83.3333333333333,4,2,1,80,0,1
145356,-83.3333333333333,4,2,1,5,0,1
145437,-90.9090909090909,4,2,1,75,0,0
145680,-90.9090909090909,4,2,1,5,0,0
145761,-90.9090909090909,4,2,1,75,0,0
148275,-90.9090909090909,4,2,1,5,0,0
148356,-90.9090909090909,4,2,1,75,0,0
150869,-90.9090909090909,4,2,1,5,0,0
150951,-90.9090909090909,4,2,1,75,0,0
153464,-90.9090909090909,4,2,1,5,0,0
153545,-90.9090909090909,4,2,1,75,0,0
158653,-90.9090909090909,4,2,1,5,0,0
158734,-90.9090909090909,4,2,1,75,0,0
161248,-90.9090909090909,4,2,1,5,0,0
161329,-90.9090909090909,4,2,1,75,0,0
163842,-90.9090909090909,4,2,1,5,0,0
163924,-90.9090909090909,4,2,1,75,0,0
166113,-90.9090909090909,4,2,1,5,0,0
166194,-142.857142857143,4,2,1,60,0,0
185653,-111.111111111111,4,2,1,65,0,0
186951,-100,4,2,1,70,0,0
197329,-90.9090909090909,4,2,1,70,0,0
205842,-90.9090909090909,4,2,1,5,0,0
205924,-90.9090909090909,4,2,1,70,0,0
206005,-90.9090909090909,4,2,1,5,0,0
206086,-90.9090909090909,4,2,1,70,0,0
206167,-90.9090909090909,4,2,1,5,0,0
206248,-90.9090909090909,4,2,1,70,0,0
206329,-90.9090909090909,4,2,1,5,0,0
206410,-90.9090909090909,4,2,1,70,0,0
206734,-250,4,2,1,70,0,0
207464,-250,4,2,1,5,0,0
207545,-76.9230769230769,4,2,1,80,0,1
213140,-76.9230769230769,4,2,1,5,0,1
213221,-76.9230769230769,4,2,1,80,0,1
214437,-76.9230769230769,4,2,1,5,0,1
214518,-76.9230769230769,4,2,1,80,0,1
223518,-76.9230769230769,4,2,1,5,0,1
223599,-76.9230769230769,4,2,1,80,0,1
224653,-76.9230769230769,4,2,1,5,0,1
224734,-76.9230769230769,4,2,1,80,0,1
226113,-76.9230769230769,4,2,1,5,0,1
226194,-76.9230769230769,4,2,1,80,0,1
227978,-76.9230769230769,4,2,1,80,0,0
228302,-76.9230769230769,4,2,1,80,0,1
233897,-76.9230769230769,4,2,1,5,0,1
233978,-76.9230769230769,4,2,1,80,0,1
235194,-76.9230769230769,4,2,1,5,0,1
235275,-76.9230769230769,4,2,1,80,0,1
236491,-76.9230769230769,4,2,1,5,0,1
236572,-76.9230769230769,4,2,1,80,0,1
242815,-76.9230769230769,4,2,1,5,0,1
242897,-76.9230769230769,4,2,1,80,0,1
249140,-76.9230769230769,4,2,1,5,0,1
249221,-200,4,2,1,55,0,0
264788,-90.9090909090909,4,2,1,70,0,0
268518,-250,4,2,1,70,0,0
268924,-250,4,2,1,5,0,0
269815,-71.4285714285714,4,2,1,80,0,1
275410,-71.4285714285714,4,2,1,5,0,1
275491,-71.4285714285714,4,2,1,80,0,1
276707,-71.4285714285714,4,2,1,5,0,1
276788,-71.4285714285714,4,2,1,80,0,1
284329,-71.4285714285714,4,2,1,5,0,1
284410,-71.4285714285714,4,2,1,80,0,1
294464,-250,4,2,1,80,0,0
294788,-250,4,2,1,5,0,0
295924,-83.3333333333333,4,2,1,75,0,0
296167,-83.3333333333333,4,2,1,5,0,0
296248,-83.3333333333333,4,2,1,75,0,0
298761,-83.3333333333333,4,2,1,5,0,0
298842,-83.3333333333333,4,2,1,75,0,0
301356,-83.3333333333333,4,2,1,5,0,0
301437,-83.3333333333333,4,2,1,75,0,0
303951,-83.3333333333333,4,2,1,5,0,0
304032,-83.3333333333333,4,2,1,75,0,0
305005,-285.714285714286,4,2,1,75,0,0
307599,-285.714285714286,4,2,1,70,0,0
308897,-285.714285714286,4,2,1,60,0,0
310194,-285.714285714286,4,2,1,50,0,0
311491,-285.714285714286,4,2,1,40,0,0
312788,-285.714285714286,4,2,1,30,0,0
314086,-285.714285714286,4,2,1,20,0,0
315383,-285.714285714286,4,2,1,10,0,0
316680,-285.714285714286,4,2,1,5,0,0

[Colours]
Combo1 : 63,103,116
Combo2 : 205,95,82

[HitObjects]
78,160,15717,5,0,0:0:0:0:
187,240,16042,2,0,P|238:226|290:226,1,85,0|0,0:0|0:0,0:0:0:0:
368,233,16528,5,0,0:0:0:0:
368,233,16691,2,0,P|472:198|395:146,1,255,6|0,0:0|0:0,0:0:0:0:
187,240,17988,6,0,P|179:176|161:115,2,127.5,2|0|0,3:2|0:0|0:0,0:0:0:0:
342,357,19286,2,0,P|349:293|367:232,2,127.5,2|0|0,0:0|0:0|0:0,0:0:0:0:
187,240,20583,2,0,B|106:211|106:288|15:257,1,170,2|0,3:2|0:0,0:0:0:0:
161,115,21556,1,0,0:0:0:0:
276,242,21880,6,0,L|414:227,1,127.5,2|0,0:0|0:0,0:0:0:0:
479,157,22529,2,0,L|341:142,1,127.5,0|0,0:0|0:0,0:0:0:0:
328,52,23178,2,0,P|274:91|258:159,1,127.5,2|0,3:2|0:0,0:0:0:0:
240,241,23826,2,0,P|220:181|169:145,1,127.5
75,130,24475,6,0,P|68:194|50:255,2,127.5,2|0|0,0:0|0:0|0:0,0:0:0:0:
189,37,25772,2,0,P|237:27|275:37,1,85,2|0,3:2|0:0,0:0:0:0:
418,107,26421,2,0,P|370:97|332:107,1,85,0|0,0:0|0:0,0:0:0:0:
269,175,26907,5,0,0:0:0:0:
269,175,27069,2,0,L|260:259,1,85,2|0,0:0|0:0,0:0:0:0:
174,373,27718,2,0,L|165:288,1,85,0|0,0:0|0:0,0:0:0:0:
152,195,28205,1,0,0:0:0:0:
152,195,28367,2,0,P|104:205|66:195,1,85,2|0,3:2|0:0,0:0:0:0:
73,52,29015,1,0,0:0:0:0:
73,52,29178,2,0,P|121:42|159:52,1,85,0|0,0:0|0:0,0:0:0:0:
244,83,29664,6,0,L|328:74,1,85,2|0,0:0|0:0,0:0:0:0:
439,179,30313,2,0,L|354:170,1,85,0|0,0:0|0:0,0:0:0:0:
244,275,30961,2,0,L|329:266,1,85,2|0,3:2|0:0,0:0:0:0:
443,79,31567,2,0,B|250:-16|238:195|55:101,1,410.833333333333,2|0,0:0|0:0,0:0:0:0:
56,102,33870,6,0,P|46:150|56:188,1,85,2|0,0:0|0:0,0:0:0:0:
145,321,34517,2,0,P|155:273|145:235,1,85,0|0,0:0|0:0,0:0:0:0:
159,138,35004,1,0,0:0:0:0:
159,138,35166,2,0,L|243:129,1,85,2|0,3:2|0:0,0:0:0:0:
336,257,35815,2,0,L|251:248,1,85,0|0,0:0|0:0,0:0:0:0:
159,239,36301,5,0,0:0:0:0:
159,239,36463,2,0,P|169:287|159:325,1,85,2|0,0:0|0:0,0:0:0:0:
9,321,37112,2,0,P|-1:273|9:235,1,85,0|0,0:0|0:0,0:0:0:0:
68,125,37760,1,2,3:2:0:0:
159,195,38085,1,0,0:0:0:0:
253,89,38409,1,2,0:0:0:0:
344,159,38734,1,0,0:0:0:0:
456,29,39058,6,0,L|447:113,1,85,2|0,0:0|0:0,0:0:0:0:
435,229,39706,1,2,0:0:0:0:
344,159,40031,1,0,0:0:0:0:
257,270,40355,1,2,3:2:0:0:
387,215,41653,6,0,P|328:196|239:196,1,140.25000428009,6|0,1:2|0:0,0:0:0:0:
187,256,41977,2,0,P|230:231|253:180,1,93.5000028533936,8|0,0:0|0:0,0:0:0:0:
210,30,42302,1,0,1:0:0:0:
164,170,42464,1,0,1:0:0:0:
378,86,42626,2,0,L|276:77,1,93.5000028533936,8|0,0:0|0:0,0:0:0:0:
355,311,42950,6,0,B|367:173|367:173|336:211,1,187.000005706787,2|8,1:2|0:0,0:0:0:0:
268,314,43437,1,0,1:0:0:0:
164,260,43599,2,0,P|153:208|168:161,1,93.5000028533936,2|0,0:0|1:0,0:0:0:0:
73,284,43923,2,0,P|84:336|69:383,1,93.5000028533936,8|0,0:0|0:0,0:0:0:0:
268,314,44248,6,0,L|438:299,1,140.25000428009,6|0,1:2|0:0,0:0:0:0:
471,364,44572,2,0,P|428:339|405:288,1,93.5000028533936,8|0,0:0|0:0,0:0:0:0:
438,130,44896,1,2,1:2:0:0:
494,278,45058,1,0,1:0:0:0:
273,196,45221,2,0,L|366:187,1,93.5000028533936,8|0,0:0|0:0,0:0:0:0:
187,352,45545,6,0,B|98:383|98:295|12:323,1,187.000005706787,2|8,1:2|0:0,0:0:0:0:
119,162,46031,1,0,1:0:0:0:
264,289,46194,2,0,L|273:195,1,93.5000028533936,2|0,0:0|1:0,0:0:0:0:
86,80,46518,1,8,0:0:0:0:
150,252,46680,1,2,0:0:0:0:
410,119,46842,6,0,P|354:93|274:127,1,140.25000428009,6|0,1:2|0:0,0:0:0:0:
208,161,47167,2,0,P|163:173|119:162,1,93.5000028533936,8|0,0:0|0:0,0:0:0:0:
263,324,47491,1,0,1:0:0:0:
346,183,47653,1,0,1:0:0:0:
440,365,47815,2,0,L|448:271,1,93.5000028533936,8|0,0:0|0:0,0:0:0:0:
503,72,48139,6,0,L|511:165,1,93.5000028533936,2|0,1:2|0:0,0:0:0:0:
423,37,48464,1,8,0:0:0:0:
252,151,48626,2,0,B|180:144|180:144|144:107|144:107|74:101,1,187.000005706787,2|0,1:2|1:0,0:0:0:0:
274,67,49112,2,0,P|317:92|340:143,1,93.5000028533936,10|0,0:0|0:0,0:0:0:0:
115,333,49437,6,0,L|100:163,1,140.25000428009,6|0,1:2|0:0,0:0:0:0:
82,158,49761,2,0,L|90:251,1,93.5000028533936,8|0,0:0|0:0,0:0:0:0:
264,359,50085,2,0,L|272:265,1,93.5000028533936,0|0,1:0|1:0,0:0:0:0:
285,109,50410,1,10,0:0:0:0:
363,269,50572,1,2,1:2:0:0:
82,158,50734,5,14,0:0:0:0:
272,266,50896,1,0,1:0:0:0:
4,213,51058,1,8,0:0:0:0:
224,185,51220,1,0,1:0:0:0:
53,294,51383,1,10,0:0:0:0:
215,81,51545,5,8,3:0:0:0:
218,115,51626,1,8,3:0:0:0:
221,150,51707,1,8,0:0:0:0:
224,185,51788,1,4,3:0:0:0:
227,220,51869,1,4,3:0:0:0:
230,257,51950,1,4,3:0:0:0:
232,294,52031,6,0,P|291:275|380:275,1,140.25000428009,6|0,1:2|0:0,0:0:0:0:
432,335,52356,2,0,P|389:310|366:259,1,93.5000028533936,8|0,0:0|0:0,0:0:0:0:
397,100,52680,1,0,1:0:0:0:
456,249,52842,1,0,1:0:0:0:
221,150,53004,2,0,L|323:141,1,93.5000028533936,8|0,0:0|0:0,0:0:0:0:
406,323,53329,6,0,P|323:281|246:321,1,187.000005706787,2|8,1:2|0:0,0:0:0:0:
76,253,53815,1,0,1:0:0:0:
149,377,53977,2,0,L|158:275,1,93.5000028533936,2|0,0:0|1:0,0:0:0:0:
259,103,54302,2,0,L|268:205,1,93.5000028533936,8|0,0:0|0:0,0:0:0:0:
37,62,54626,6,0,P|96:81|185:81,1,140.25000428009,6|0,1:2|0:0,0:0:0:0:
237,20,54950,2,0,P|194:45|171:96,1,93.5000028533936,8|0,0:0|0:0,0:0:0:0:
244,265,55275,1,2,1:2:0:0:
259,103,55437,1,0,1:0:0:0:
76,230,55599,2,0,L|178:221,1,93.5000028533936,8|0,0:0|0:0,0:0:0:0:
391,318,55923,6,0,B|302:287|302:375|216:347,1,187.000005706787,2|8,1:2|0:0,0:0:0:0:
316,213,56410,1,0,1:0:0:0:
471,371,56572,2,0,L|480:269,1,93.5000028533936,2|0,0:0|1:0,0:0:0:0:
330,95,56896,1,8,0:0:0:0:
484,189,57058,1,2,0:0:0:0:
244,378,57221,6,0,L|229:208,1,140.25000428009,6|0,1:2|0:0,0:0:0:0:
211,203,57545,2,0,L|219:296,1,93.5000028533936,8|0,0:0|0:0,0:0:0:0:
298,185,57869,1,0,1:0:0:0:
123,205,58031,1,0,1:0:0:0:
194,21,58194,2,0,L|202:114,1,93.5000028533936,8|0,0:0|0:0,0:0:0:0:
48,345,58518,6,0,B|120:338|120:338|156:301|156:301|226:295,1,187.000005706787,6|8,1:2|0:0,0:0:0:0:
377,230,59004,1,0,0:0:0:0:
315,380,59167,2,0,L|307:287,1,93.5000028533936,0|0,1:0|1:0,0:0:0:0:
467,187,59491,2,0,L|459:280,1,93.5000028533936,8|0,0:0|0:0,0:0:0:0:
294,126,59815,6,0,P|235:107|146:107,1,140.25000428009,6|0,1:2|0:0,0:0:0:0:
94,43,60140,2,0,P|137:68|160:119,1,93.5000028533936,8|0,0:0|1:0,0:0:0:0:
182,186,60383,1,8,0:0:0:0:
182,186,60464,1,14,0:0:0:0:
294,126,60626,1,8,3:0:0:0:
357,211,60788,1,4,3:0:0:0:
436,160,60950,1,4,3:0:0:0:
485,229,61112,5,6,1:2:0:0:
256,192,61194,12,0,62329,0:0:0:0:
473,62,62410,6,0,P|412:76|371:60,1,101.999996887207,6|0,0:0|0:0,0:0:0:0:
219,133,63058,2,0,P|280:119|321:135,1,101.999996887207,0|0,0:0|0:0,0:0:0:0:
390,187,63545,1,0,0:0:0:0:
390,187,63707,2,0,L|510:176,2,101.999996887207,2|0|0,3:2|0:0|0:0,0:0:0:0:
317,311,64680,1,0,0:0:0:0:
237,196,65004,6,0,P|176:182|135:198,1,101.999996887207,2|0,0:0|0:0,0:0:0:0:
0,278,65653,2,0,P|61:264|102:280,1,101.999996887207
179,370,66302,2,0,L|190:250,2,101.999996887207,2|0|0,3:2|0:0|0:0,0:0:0:0:
302,249,67275,1,0,0:0:0:0:
405,350,67599,6,0,P|466:364|507:348,1,101.999996887207,2|0,0:0|0:0,0:0:0:0:
502,203,68248,2,0,P|441:189|400:205,1,101.999996887207
263,319,68896,2,0,P|256:238|246:161,1,152.999995330811,2|0,3:2|0:0,0:0:0:0:
226,59,69545,2,0,P|297:103|362:84,1,152.999995330811,2|0,0:0|0:0,0:0:0:0:
445,154,70194,6,0,P|455:58|466:-4,2,152.999995330811,2|0|0,0:0|0:0|0:0,0:0:0:0:
351,292,71491,2,0,P|290:306|249:290,1,101.999996887207,2|0,3:2|0:0,0:0:0:0:
111,208,72139,2,0,P|172:222|213:206,1,101.999996887207,2|0,0:0|0:0,0:0:0:0:
272,72,72788,6,0,P|336:43|419:82,1,152.999995330811,2|0,0:0|0:0,0:0:0:0:
467,140,73437,2,0,P|457:189|447:262,1,101.999996887207,0|0,0:0|0:0,0:0:0:0:
439,333,73923,1,0,0:0:0:0:
439,333,74085,2,0,L|319:344,2,101.999996887207,2|0|0,3:2|0:0|0:0,0:0:0:0:
462,192,75058,6,0,P|465:157|456:123,1,50.9999984436036
394,75,75383,2,0,L|274:64,2,101.999996887207,2|0|0,0:0|0:0|0:0,0:0:0:0:
462,192,76356,6,0,P|465:227|456:261,1,50.9999984436036
394,309,76681,2,0,L|274:320,2,101.999996887207,2|0|0,3:2|0:0|0:0,0:0:0:0:
462,192,77653,1,0,0:0:0:0:
394,75,77978,6,0,P|333:61|292:77,1,101.999996887207,2|0,0:0|0:0,0:0:0:0:
119,136,78626,2,0,P|180:122|221:138,1,101.999996887207
394,201,79275,6,0,P|333:187|292:203,1,101.999996887207,2|0,3:2|0:0,0:0:0:0:
119,249,79924,2,0,P|180:263|221:247,1,101.999996887207
288,97,80572,6,0,L|297:198,1,101.999996887207,2|0,0:0|0:0,0:0:0:0:
262,311,81059,1,0,0:0:0:0:
262,311,81220,2,0,P|321:292|363:305,1,101.999996887207,0|0,0:0|0:0,0:0:0:0:
503,373,81706,5,0,1:0:0:0:
503,373,81787,1,0,1:0:0:0:
503,373,81869,2,0,L|511:292,1,68,10|0,0:0|0:0,0:0:0:0:
442,245,82194,1,2,1:2:0:0:
442,245,82356,1,0,1:0:0:0:
285,326,82518,1,10,0:0:0:0:
307,149,82680,1,0,1:0:0:0:
394,352,82842,1,10,0:0:0:0:
159,191,83167,5,6,1:2:0:0:
442,245,83329,1,0,1:0:0:0:
106,294,83815,5,8,0:0:0:0:
260,223,83977,1,2,1:2:0:0:
260,223,84058,1,0,1:0:0:0:
260,223,84139,1,8,0:0:0:0:
176,50,84302,6,0,B|149:78|149:78|161:203,1,152.999995330811,6|0,1:2|1:0,0:0:0:0:
177,359,84788,1,10,0:0:0:0:
260,223,84950,1,0,1:0:0:0:
106,294,85112,1,10,0:0:0:0:
106,294,85194,1,8,0:0:0:0:
106,294,85275,1,0,1:0:0:0:
312,312,85437,2,0,L|416:322,1,76.4999976654053,10|0,0:0|0:0,0:0:0:0:
512,168,85761,6,0,P|441:199|373:166,1,152.999995330811,6|10,1:2|0:0,0:0:0:0:
286,68,86248,1,2,1:2:0:0:
286,68,86329,1,8,0:0:0:0:
286,68,86410,1,0,1:0:0:0:
260,223,86572,1,2,1:2:0:0:
372,78,86734,1,8,0:0:0:0:
228,137,86896,6,0,P|140:123|72:123,1,152.999995330811,6|0,1:2|1:0,0:0:0:0:
0,279,87383,1,8,0:0:0:0:
171,215,87544,1,0,1:0:0:0:
0,188,87706,1,10,0:0:0:0:
0,188,87787,1,8,0:0:0:0:
0,188,87869,1,0,1:0:0:0:
145,304,88031,2,0,L|249:294,1,76.4999976654053,10|0,0:0|0:0,0:0:0:0:
364,92,88356,5,6,1:2:0:0:
311,374,88518,1,0,1:0:0:0:
280,69,89004,5,8,0:0:0:0:
456,120,89167,1,2,1:2:0:0:
456,120,89248,1,0,1:0:0:0:
456,120,89329,1,8,0:0:0:0:
375,275,89491,6,0,B|348:247|348:247|360:122,1,152.999995330811,6|0,1:2|1:0,0:0:0:0:
412,352,89978,2,0,P|361:360|323:343,1,76.4999976654053,10|0,0:0|1:0,0:0:0:0:
271,319,90221,1,0,1:0:0:0:
271,319,90302,2,0,L|167:309,1,76.4999976654053,10|0,0:0|1:0,0:0:0:0:
26,218,90626,1,10,0:0:0:0:
26,218,90707,1,8,0:0:0:0:
26,218,90788,1,10,0:0:0:0:
97,380,90950,6,0,L|112:217,1,152.999995330811,6|10,1:2|0:0,0:0:0:0:
131,54,91437,1,2,1:2:0:0:
131,54,91518,1,8,0:0:0:0:
131,54,91599,1,0,1:0:0:0:
157,140,91761,1,0,1:0:0:0:
292,33,91923,1,8,0:0:0:0:
320,119,92085,1,0,0:0:0:0:
512,51,92248,6,0,L|408:41,1,76.4999976654053,2|0,1:2|1:0,0:0:0:0:
337,225,92572,2,0,L|441:215,1,76.4999976654053,10|0,0:0|1:0,0:0:0:0:
451,218,92815,1,8,0:0:0:0:
451,218,92897,1,2,1:2:0:0:
320,119,93059,1,0,1:0:0:0:
224,252,93221,1,10,0:0:0:0:
193,248,93302,1,8,0:0:0:0:
163,245,93383,1,8,0:0:0:0:
132,242,93464,1,8,0:0:0:0:
102,238,93545,6,0,P|40:185|59:96,1,170,6|10,1:2|0:0,0:0:0:0:
192,32,94031,1,2,1:2:0:0:
192,32,94112,1,8,0:0:0:0:
192,32,94194,1,0,1:0:0:0:
256,172,94356,1,2,1:2:0:0:
320,32,94518,1,8,0:0:0:0:
489,184,94680,6,0,P|405:148|335:199,1,170,6|0,1:2|1:0,0:0:0:0:
174,271,95167,2,0,L|270:261,1,85,10|0,0:0|1:0,0:0:0:0:
291,262,95410,1,8,0:0:0:0:
291,262,95492,1,2,1:2:0:0:
416,106,95653,1,0,1:0:0:0:
256,172,95815,2,0,L|246:76,1,85,10|0,0:0|1:0,0:0:0:0:
163,32,96058,5,8,0:0:0:0:
163,32,96139,2,0,L|153:128,1,85,6|0,1:2|1:0,0:0:0:0:
46,300,96464,1,10,0:0:0:0:
256,172,96626,1,2,1:2:0:0:
212,317,96788,1,8,0:0:0:0:
47,158,96950,1,2,1:2:0:0:
47,158,97031,1,0,1:0:0:0:
47,158,97112,1,8,0:0:0:0:
256,172,97275,6,0,B|322:165|322:165|357:130|357:130|430:123,1,170,6|0,1:2|1:0,0:0:0:0:
464,46,97761,1,8,0:0:0:0:
402,212,97923,1,0,1:0:0:0:
226,90,98085,1,10,0:0:0:0:
288,256,98247,1,0,1:0:0:0:
334,39,98410,1,10,0:0:0:0:
166,180,98572,5,8,0:0:0:0:
166,180,98653,1,8,0:0:0:0:
166,180,98734,2,0,B|84:142|75:223|-6:186,1,170,6|8,1:2|0:0,0:0:0:0:
134,84,99221,1,0,0:0:0:0:
288,256,99383,2,0,L|298:160,1,85,2|0,1:2|1:0,0:0:0:0:
215,23,99707,2,0,L|223:107,1,85,8|0,0:0|0:0,0:0:0:0:
249,333,100031,6,0,B|330:370|339:289|421:326,1,170,6|8,1:2|0:0,0:0:0:0:
296,171,100518,1,0,0:0:0:0:
164,307,100680,2,0,L|154:211,1,85,2|0,1:2|1:0,0:0:0:0:
384,137,101004,2,0,L|375:221,1,85,8|0,0:0|0:0,0:0:0:0:
277,66,101329,5,14,0:0:0:0:
503,102,101491,1,0,1:0:0:0:
503,102,101572,1,0,1:0:0:0:
503,102,101653,1,10,0:0:0:0:
365,313,101815,5,0,1:0:0:0:
365,313,101896,1,0,1:0:0:0:
365,313,101977,2,0,L|357:377,1,42.5,10|0,0:0|0:0,0:0:0:0:
168,261,102139,6,0,L|176:325,1,42.5,2|0,1:2|0:0,0:0:0:0:
383,167,102302,6,0,L|375:231,1,42.5,10|0,0:0|0:0,0:0:0:0:
143,79,102464,6,0,L|151:143,1,42.5,2|0,1:2|0:0,0:0:0:0:
57,361,102626,5,8,0:0:0:0:
62,319,102707,1,0,1:0:0:0:
87,285,102788,1,0,1:0:0:0:
125,268,102869,1,0,1:0:0:0:
168,261,102951,6,0,B|138:272|116:289|116:289|94:272|66:263,1,114.749996498108,14|0,0:0|0:0,0:0:0:0:
14,173,103761,6,0,L|34:406,1,203.999993774414,6|0,1:2|1:0,0:0:0:0:
216,177,104248,2,0,P|159:163|109:185,1,101.999996887207,8|0,0:0|0:0,0:0:0:0:
285,291,104572,1,0,1:0:0:0:
342,122,104734,1,0,1:0:0:0:
168,261,104896,2,0,L|180:383,1,101.999996887207,8|0,0:0|0:0,0:0:0:0:
425,194,105221,6,0,L|413:316,1,101.999996887207,2|0,1:2|0:0,0:0:0:0:
434,97,105545,1,8,0:0:0:0:
260,180,105707,2,0,L|248:58,1,101.999996887207,2|0,1:2|0:0,0:0:0:0:
267,279,106031,1,0,1:0:0:0:
122,173,106194,2,0,P|65:159|15:181,1,101.999996887207,10|0,0:0|0:0,0:0:0:0:
192,373,106518,6,0,L|425:353,1,203.999993774414,6|8,1:2|0:0,0:0:0:0:
267,183,107005,2,0,P|252:231|267:280,1,101.999996887207,2|0,0:0|1:0,0:0:0:0:
327,103,107329,1,0,1:0:0:0:
156,212,107491,2,0,L|34:200,1,101.999996887207,10|0,0:0|0:0,0:0:0:0:
168,43,107815,5,2,1:2:0:0:
267,183,107977,1,0,1:0:0:0:
65,78,108139,1,8,0:0:0:0:
276,58,108302,2,0,B|429:42|429:42|386:84,1,203.999993774414,0|0,1:0|1:0,0:0:0:0:
176,140,108788,1,10,0:0:0:0:
387,343,108950,5,2,1:2:0:0:
387,343,109031,1,0,1:0:0:0:
387,343,109112,2,0,L|402:190,1,152.999995330811,6|0,1:2|0:0,0:0:0:0:
426,156,109437,2,0,L|414:278,1,101.999996887207,8|0,0:0|0:0,0:0:0:0:
348,100,109761,1,2,1:2:0:0:
512,108,109923,1,0,1:0:0:0:
308,203,110085,2,0,L|186:191,1,101.999996887207,8|0,0:0|0:0,0:0:0:0:
0,293,110410,6,0,P|31:253|134:249,1,152.999995330811,6|0,1:2|0:0,0:0:0:0:
196,294,110734,2,0,L|208:172,1,101.999996887207,8|0,0:0|0:0,0:0:0:0:
79,6,111058,1,2,1:2:0:0:
124,146,111221,1,0,1:0:0:0:
319,33,111383,2,0,L|197:45,1,101.999996887207,10|0,0:0|0:0,0:0:0:0:
26,192,111707,6,0,B|69:159|117:171|126:209|175:225|216:197,1,203.999993774414,6|8,1:2|0:0,0:0:0:0:
392,107,112194,2,0,P|341:137|321:188,1,101.999996887207,2|0,1:2|0:0,0:0:0:0:
314,318,112518,1,0,1:0:0:0:
493,237,112680,2,0,L|371:249,1,101.999996887207,10|0,0:0|0:0,0:0:0:0:
200,269,113004,5,6,1:2:0:0:
410,370,113167,1,0,1:0:0:0:
92,326,113329,1,8,0:0:0:0:
296,216,113491,1,0,1:0:0:0:
100,70,113653,5,10,0:0:0:0:
183,384,113815,1,10,0:0:0:0:
183,384,114139,6,0,L|203:151,1,203.999993774414,6|0,1:2|1:0,0:0:0:0:
0,24,114626,2,0,L|12:146,1,101.999996887207,10|0,0:0|1:0,0:0:0:0:
22,206,114869,1,0,1:0:0:0:
22,206,114950,1,10,0:0:0:0:
212,75,115112,1,2,1:2:0:0:
290,367,115275,1,8,0:0:0:0:
492,96,115437,6,0,P|385:53|309:115,1,203.999993774414,6|0,1:2|1:0,0:0:0:0:
156,253,115923,1,8,0:0:0:0:
318,97,116085,1,0,1:0:0:0:
290,367,116248,1,10,0:0:0:0:
290,367,116328,1,8,0:0:0:0:
290,367,116410,1,2,1:2:0:0:
170,112,116572,1,8,0:0:0:0:
17,346,116734,6,0,L|-3:113,1,203.999993774414,6|0,1:2|1:0,0:0:0:0:
160,10,117221,2,0,L|172:132,1,101.999996887207,10|0,0:0|1:0,0:0:0:0:
178,191,117464,1,8,0:0:0:0:
178,191,117545,1,2,1:2:0:0:
298,32,117707,1,0,1:0:0:0:
386,251,117869,2,0,P|443:265|493:243,1,101.999996887207,10|0,0:0|0:0,0:0:0:0:
178,191,118194,6,0,P|121:177|71:199,1,101.999996887207,6|0,1:2|0:0,0:0:0:0:
276,366,118518,1,10,0:0:0:0:
346,154,118680,1,2,1:2:0:0:
474,367,118842,1,8,0:0:0:0:
477,328,118923,1,0,1:0:0:0:
480,290,119004,1,0,1:0:0:0:
483,252,119085,1,0,1:0:0:0:
487,214,119167,2,0,L|493:144,1,50.9999984436036,8|0,0:0|1:0,0:0:0:0:
374,322,119329,2,0,L|368:392,1,50.9999984436036,2|0,1:2|1:0,0:0:0:0:
212,203,119491,6,0,P|134:185|35:185,1,152.999995330811,6|0,1:2|0:0,0:0:0:0:
23,187,119815,1,10,0:0:0:0:
229,96,119977,1,2,1:2:0:0:
229,96,120058,1,8,0:0:0:0:
229,96,120139,1,0,1:0:0:0:
80,295,120302,1,2,1:2:0:0:
46,82,120464,1,8,0:0:0:0:
260,299,120626,6,0,P|338:281|437:281,1,152.999995330811,6|0,1:2|0:0,0:0:0:0:
449,283,120950,1,2,1:2:0:0:
304,181,121112,1,10,0:0:0:0:
373,373,121275,1,2,1:2:0:0:
420,150,121437,1,8,0:0:0:0:
260,299,121598,1,0,1:0:0:0:
186,69,121761,2,0,L|180:139,1,50.9999984436036,8|0,0:0|1:0,0:0:0:0:
67,316,121923,5,10,0:0:0:0:
67,316,122004,1,8,0:0:0:0:
67,316,122085,2,0,B|34:290|34:290|21:164,1,152.999995330811,6|0,1:2|0:0,0:0:0:0:
19,137,122410,1,10,0:0:0:0:
244,193,122572,1,2,1:2:0:0:
244,193,122653,1,8,0:0:0:0:
244,193,122734,1,0,1:0:0:0:
97,40,122896,1,2,1:2:0:0:
158,267,123058,1,8,0:0:0:0:
320,46,123221,6,0,B|363:13|411:25|420:63|469:79|510:51,1,203.999993774414,6|0,1:2|1:0,0:0:0:0:
358,306,123707,1,10,0:0:0:0:
227,87,123869,5,0,1:0:0:0:
227,87,123950,1,0,1:0:0:0:
227,87,124031,1,10,0:0:0:0:
93,380,124194,1,2,1:2:0:0:
93,380,124518,6,0,L|73:147,1,203.999993774414,6|0,1:2|1:0,0:0:0:0:
310,42,125004,2,0,P|324:99|302:149,1,101.999996887207,8|0,0:0|0:0,0:0:0:0:
65,78,125329,1,0,1:0:0:0:
227,87,125491,1,0,1:0:0:0:
10,267,125653,2,0,L|-2:145,1,101.999996887207,8|0,0:0|0:0,0:0:0:0:
203,339,125977,6,0,L|215:217,1,101.999996887207,2|0,1:2|0:0,0:0:0:0:
227,87,126302,1,8,0:0:0:0:
109,282,126464,2,0,L|97:160,1,101.999996887207,2|0,1:2|0:0,0:0:0:0:
86,42,126788,1,0,1:0:0:0:
212,237,126951,2,0,P|269:251|319:229,1,101.999996887207,10|0,0:0|0:0,0:0:0:0:
503,86,127275,6,0,P|405:43|321:97,1,203.999993774414,6|8,1:2|0:0,0:0:0:0:
212,237,127761,2,0,L|200:115,1,101.999996887207,2|0,0:0|1:0,0:0:0:0:
195,383,128085,1,0,1:0:0:0:
380,221,128248,2,0,P|437:206|487:228,1,101.999996887207,10|0,0:0|0:0,0:0:0:0:
304,367,128572,5,2,1:2:0:0:
324,134,128734,1,0,1:0:0:0:
431,306,128896,1,8,0:0:0:0:
194,284,129058,2,0,B|111:276|111:276|67:308|67:308|-16:300,1,203.999993774414,0|0,1:0|1:0,0:0:0:0:
102,79,129545,1,10,0:0:0:0:
313,227,129707,5,0,1:0:0:0:
313,227,129788,1,0,1:0:0:0:
313,227,129869,2,0,B|337:188|337:188|465:175,1,152.999995330811,6|0,1:2|0:0,0:0:0:0:
483,195,130194,2,0,L|361:207,1,101.999996887207,8|0,0:0|0:0,0:0:0:0:
203,83,130518,1,2,1:2:0:0:
378,97,130680,1,0,1:0:0:0:
225,289,130842,2,0,L|213:167,1,101.999996887207,8|0,0:0|0:0,0:0:0:0:
14,15,131167,6,0,L|-2:181,1,152.999995330811,6|0,1:2|0:0,0:0:0:0:
18,202,131491,2,0,L|6:324,1,101.999996887207,8|0,0:0|0:0,0:0:0:0:
191,187,131815,1,2,1:2:0:0:
46,109,131977,1,0,1:0:0:0:
263,20,132139,2,0,L|275:142,1,101.999996887207,10|0,0:0|0:0,0:0:0:0:
298,359,132464,6,0,B|451:343|451:343|408:385,1,203.999993774414,6|8,1:2|0:0,0:0:0:0:
275,269,132950,2,0,P|224:299|204:350,1,101.999996887207,2|0,1:2|0:0,0:0:0:0:
372,232,133275,1,0,1:0:0:0:
153,211,133437,2,0,L|31:199,1,101.999996887207,10|0,0:0|0:0,0:0:0:0:
299,165,133761,5,6,1:2:0:0:
132,307,133923,1,0,1:0:0:0:
225,101,134085,1,8,0:0:0:0:
343,323,134248,1,0,1:0:0:0:
366,37,134410,5,10,0:0:0:0:
247,325,134572,1,10,0:0:0:0:
247,325,134653,1,8,0:0:0:0:
247,325,134734,1,8,0:0:0:0:
51,99,134896,6,0,P|138:54|225:101,1,203.999993774414,6|0,1:2|1:0,0:0:0:0:
343,324,135383,2,0,P|285:338|235:316,1,101.999996887207,10|0,0:0|1:0,0:0:0:0:
178,293,135626,1,8,0:0:0:0:
178,293,135707,1,2,1:2:0:0:
365,171,135869,1,2,1:2:0:0:
167,384,136031,1,8,0:0:0:0:
51,99,136194,6,0,L|31:332,1,203.999993774414,6|0,1:2|1:0,0:0:0:0:
225,101,136680,1,8,0:0:0:0:
252,350,136842,1,0,1:0:0:0:
464,205,137004,1,10,0:0:0:0:
464,205,137085,1,8,0:0:0:0:
464,205,137166,1,2,1:2:0:0:
160,228,137329,1,8,0:0:0:0:
335,18,137491,6,0,L|355:251,1,203.999993774414,6|0,1:2|1:0,0:0:0:0:
225,101,137977,1,10,0:0:0:0:
464,205,138139,1,2,1:2:0:0:
464,205,138221,1,8,0:0:0:0:
464,205,138302,1,0,1:0:0:0:
251,266,138464,1,2,1:2:0:0:
442,71,138626,1,8,0:0:0:0:
400,384,138788,6,0,B|367:358|367:358|354:232,1,152.999995330811,6|0,1:2|0:0,0:0:0:0:
349,208,139112,1,2,1:2:0:0:
227,376,139275,1,10,0:0:0:0:
217,180,139437,1,2,1:2:0:0:
126,354,139599,1,8,0:0:0:0:
88,154,139761,1,0,1:0:0:0:
311,299,139924,1,8,0:0:0:0:
347,307,140005,1,0,1:0:0:0:
385,302,140086,1,0,1:0:0:0:
418,283,140167,1,0,1:0:0:0:
441,253,140248,5,6,1:2:0:0:
283,96,140410,1,8,0:0:0:0:
227,376,140572,1,10,0:0:0:0:
349,208,140734,1,2,1:2:0:0:
96,257,140896,1,8,0:0:0:0:
311,299,141058,1,2,1:2:0:0:
311,299,141139,1,8,0:0:0:0:
311,299,141221,1,8,0:0:0:0:
102,124,141383,6,0,L|-20:112,1,101.999996887207,6|8,1:2|0:0,0:0:0:0:
178,47,141707,1,2,1:2:0:0:
178,47,141788,1,8,0:0:0:0:
178,47,141869,1,8,0:0:0:0:
349,208,142031,2,0,L|471:196,1,101.999996887207,2|8,1:2|0:0,0:0:0:0:
297,113,142356,1,2,1:2:0:0:
217,331,142518,1,8,0:0:0:0:
13,156,142680,6,0,P|80:109|187:172,1,203.999993774414,6|0,1:2|1:0,0:0:0:0:
326,363,143167,1,8,0:0:0:0:
326,363,143248,1,0,1:0:0:0:
326,363,143329,2,0,L|335:278,1,50.9999984436036,0|0,1:0|1:0,0:0:0:0:
443,146,143491,1,8,0:0:0:0:
443,146,143572,1,0,1:0:0:0:
443,146,143653,2,0,L|452:231,1,50.9999984436036,0|0,1:0|1:0,0:0:0:0:
467,380,143815,5,10,0:0:0:0:
293,131,143977,1,6,1:2:0:0:
256,192,144059,12,0,145356,0:0:0:0:
80,235,145437,6,0,L|250:220,1,140.25000428009,6|0,1:2|0:0,0:0:0:0:
283,285,145761,2,0,P|240:260|217:209,1,93.5000028533936,8|0,0:0|0:0,0:0:0:0:
250,51,146085,1,0,1:0:0:0:
306,199,146247,1,0,1:0:0:0:
85,117,146410,2,0,L|178:108,1,93.5000028533936,8|0,0:0|0:0,0:0:0:0:
355,28,146734,6,0,B|348:100|348:100|311:136|311:136|306:199,1,187.000005706787,2|8,1:2|0:0,0:0:0:0:
294,365,147221,1,0,1:0:0:0:
437,288,147383,2,0,P|388:275|336:295,1,93.5000028533936,2|0,0:0|1:0,0:0:0:0:
161,288,147707,2,0,P|209:300|261:280,1,93.5000028533936,8|0,0:0|0:0,0:0:0:0:
262,56,148031,6,0,P|203:37|114:37,1,140.25000428009,6|0,1:2|0:0,0:0:0:0:
49,72,148356,2,0,P|97:59|149:79,1,93.5000028533936,8|0,0:0|0:0,0:0:0:0:
74,288,148680,1,2,1:2:0:0:
94,146,148842,1,0,1:0:0:0:
269,243,149004,2,0,L|176:234,1,93.5000028533936,8|0,0:0|0:0,0:0:0:0:
262,56,149329,6,0,P|359:16|426:65,1,187.000005706787,2|8,1:2|0:0,0:0:0:0:
512,218,149815,1,0,1:0:0:0:
390,150,149977,2,0,L|297:141,1,93.5000028533936,2|0,0:0|1:0,0:0:0:0:
175,252,150302,2,0,L|268:243,1,93.5000028533936,8|0,0:0|0:0,0:0:0:0:
512,310,150626,6,0,L|372:297,1,140.25000428009,6|0,1:2|0:0,0:0:0:0:
310,360,150950,2,0,P|350:337|372:297,1,93.5000028533936,8|0,0:0|0:0,0:0:0:0:
382,77,151275,1,0,1:0:0:0:
317,226,151437,1,0,1:0:0:0:
512,169,151599,2,0,L|419:160,1,93.5000028533936,8|0,0:0|0:0,0:0:0:0:
201,95,151923,6,0,L|294:86,1,93.5000028533936,2|0,1:2|0:0,0:0:0:0:
157,179,152248,1,8,0:0:0:0:
102,34,152410,2,0,B|133:123|45:123|73:209,1,187.000005706787,2|0,1:2|1:0,0:0:0:0:
339,199,152896,2,0,L|246:190,1,93.5000028533936,10|0,0:0|0:0,0:0:0:0:
23,324,153221,6,0,P|79:298|159:332,1,140.25000428009,6|0,1:2|0:0,0:0:0:0:
222,373,153544,2,0,L|231:279,1,93.5000028533936,8|0,0:0|0:0,0:0:0:0:
113,95,153869,2,0,L|122:189,1,93.5000028533936,0|0,1:0|1:0,0:0:0:0:
334,64,154194,1,10,0:0:0:0:
210,170,154356,1,2,1:2:0:0:
368,245,154518,5,14,0:0:0:0:
232,70,154680,1,0,1:0:0:0:
147,265,154842,1,8,0:0:0:0:
334,64,155004,1,0,1:0:0:0:
397,357,155167,5,10,0:0:0:0:
101,184,155329,1,10,0:0:0:0:
101,184,155653,6,0,B|239:172|239:172|201:203,1,187.000005706787,6|0,1:2|1:0,0:0:0:0:
81,102,156139,2,0,P|38:126|15:178,1,93.5000028533936,8|0,0:0|0:0,0:0:0:0:
49,333,156464,1,0,1:0:0:0:
101,184,156626,1,0,1:0:0:0:
268,317,156788,2,0,L|174:308,1,93.5000028533936,8|0,0:0|0:0,0:0:0:0:
276,54,157112,6,0,B|269:126|269:126|232:162|232:162|227:225,1,187.000005706787,2|8,1:2|0:0,0:0:0:0:
187,82,157599,1,0,1:0:0:0:
318,203,157761,2,0,P|367:216|419:196,1,93.5000028533936,2|0,0:0|1:0,0:0:0:0:
512,67,158085,2,0,P|463:54|411:74,1,93.5000028533936,8|0,0:0|0:0,0:0:0:0:
227,224,158410,6,0,P|168:205|79:205,1,140.25000428009,6|0,1:2|0:0,0:0:0:0:
26,265,158734,2,0,P|66:242|90:203,1,93.5000028533936,8|0,0:0|0:0,0:0:0:0:
56,18,159058,1,2,1:2:0:0:
4,181,159221,1,0,1:0:0:0:
209,90,159383,2,0,L|115:99,1,93.5000028533936,8|0,0:0|0:0,0:0:0:0:
197,308,159707,6,0,B|286:339|286:251|372:279,1,187.000005706787,2|8,1:2|0:0,0:0:0:0:
478,227,160194,1,0,1:0:0:0:
338,85,160356,2,0,L|347:179,1,93.5000028533936,2|0,0:0|1:0,0:0:0:0:
364,366,160680,1,8,0:0:0:0:
478,227,160842,1,2,0:0:0:0:
237,313,161004,6,0,L|97:300,1,140.25000428009,6|0,1:2|0:0,0:0:0:0:
62,280,161329,2,0,L|156:289,1,93.5000028533936,8|0,0:0|0:0,0:0:0:0:
24,362,161653,1,0,1:0:0:0:
5,208,161815,1,0,1:0:0:0:
237,313,161977,2,0,L|246:219,1,93.5000028533936,8|0,0:0|0:0,0:0:0:0:
88,33,162302,6,0,B|102:170|102:170|125:127,1,187.000005706787,6|8,1:2|0:0,0:0:0:0:
188,13,162788,1,0,0:0:0:0:
9,111,162950,2,0,L|18:205,1,93.5000028533936,0|0,1:0|1:0,0:0:0:0:
152,350,163275,2,0,L|161:256,1,93.5000028533936,8|0,0:0|0:0,0:0:0:0:
123,76,163599,6,0,P|179:102|259:68,1,140.25000428009,6|0,1:2|0:0,0:0:0:0:
322,33,163924,2,0,P|366:20|411:31,1,93.5000028533936,8|0,0:0|1:0,0:0:0:0:
482,66,164166,1,8,0:0:0:0:
482,66,164247,1,10,0:0:0:0:
392,150,164409,1,8,3:0:0:0:
478,221,164571,1,4,3:0:0:0:
414,295,164733,1,4,3:0:0:0:
457,369,164897,5,6,1:2:0:0:
256,192,164978,12,0,166113,0:0:0:0:
67,183,166194,6,0,L|248:167,1,178.499994552612,6|0,1:2|1:0,0:0:0:0:
322,91,166842,2,0,P|269:114|245:167,1,118.999996368408,10|2,0:0|1:2,0:0:0:0:
332,254,167329,5,10,0:0:0:0:
326,172,167491,1,0,1:0:0:0:
458,289,167653,1,8,0:0:0:0:
464,207,167815,2,0,L|471:129,1,59.4999981842042,0|0,1:0|0:0,0:0:0:0:
322,91,168139,1,8,0:0:0:0:
322,91,168464,6,0,P|284:84|246:96,1,59.4999981842042,2|0,0:0|0:0,0:0:0:0:
175,103,168788,2,0,P|187:139|217:166,1,59.4999981842042,2|0,1:2|0:0,0:0:0:0:
254,223,169113,2,0,P|279:193|287:154,1,59.4999981842042,2|0,1:2|0:0,0:0:0:0:
175,103,169437,2,0,P|120:83|65:103,1,118.999996368408,10|2,0:0|1:2,0:0:0:0:
114,247,169924,5,8,0:0:0:0:
120,165,170086,1,2,1:2:0:0:
16,304,170248,1,8,0:0:0:0:
10,222,170410,2,0,L|3:144,1,59.4999981842042,0|0,1:0|0:0,0:0:0:0:
104,330,170734,1,8,0:0:0:0:
254,223,171059,5,2,1:2:0:0:
268,221,171140,1,0,1:0:0:0:
283,220,171221,1,0,1:0:0:0:
298,219,171302,1,0,1:0:0:0:
311,217,171383,2,0,P|318:255|306:293,1,59.4999981842042,6|0,1:2|0:0,0:0:0:0:
398,367,171707,2,0,P|391:329|403:291,1,59.4999981842042,2|0,1:2|0:0,0:0:0:0:
512,202,172031,2,0,L|384:191,1,118.999996368408,10|2,0:0|1:2,0:0:0:0:
251,126,172518,5,8,0:0:0:0:
333,132,172680,1,2,1:2:0:0:
229,287,172842,1,8,0:0:0:0:
311,281,173004,2,0,L|389:274,1,59.4999981842042,0|0,1:0|0:0,0:0:0:0:
508,111,173329,2,0,P|422:131|333:132,1,178.499994552612,10|0,0:0|0:0,0:0:0:0:
212,50,173978,5,2,1:2:0:0:
251,126,174140,2,0,P|258:164|246:202,1,59.4999981842042,8|0,0:0|0:0,0:0:0:0:
293,54,174464,1,2,1:2:0:0:
177,159,174626,2,0,L|99:152,1,59.4999981842042,8|0,0:0|0:0,0:0:0:0:
3,98,174951,2,0,L|81:91,1,59.4999981842042,2|0,1:2|0:0,0:0:0:0:
29,311,175275,5,2,1:2:0:0:
75,234,175437,1,8,0:0:0:0:
117,310,175600,1,0,1:0:0:0:
347,130,175923,5,10,0:0:0:0:
306,311,176085,1,8,0:0:0:0:
245,209,176248,1,0,1:0:0:0:
245,209,176572,6,0,L|64:193,1,178.499994552612,6|0,1:2|1:0,0:0:0:0:
0,122,177221,2,0,L|128:111,1,118.999996368408,10|2,0:0|1:2,0:0:0:0:
231,42,177707,5,10,0:0:0:0:
237,124,177869,1,0,1:0:0:0:
371,25,178032,1,8,0:0:0:0:
365,107,178194,2,0,L|358:185,1,59.4999981842042,0|0,1:0|0:0,0:0:0:0:
511,70,178518,1,8,0:0:0:0:
443,266,178842,5,2,1:2:0:0:
443,266,179004,1,10,0:0:0:0:
443,266,179167,2,0,L|521:259,1,59.4999981842042,2|8,1:2|0:0,0:0:0:0:
430,175,179490,1,0,1:0:0:0:
293,280,179815,1,8,0:0:0:0:
200,146,180139,5,2,1:2:0:0:
200,146,180301,1,10,0:0:0:0:
200,146,180464,2,0,L|122:139,1,59.4999981842042,2|8,1:2|0:0,0:0:0:0:
212,56,180787,1,0,1:0:0:0:
350,160,181112,1,8,0:0:0:0:
191,289,181437,6,0,P|153:282|115:294,1,59.4999981842042,2|8,1:2|0:0,0:0:0:0:
24,378,181761,2,0,P|49:348|57:309,1,59.4999981842042,6|8,1:2|0:0,0:0:0:0:
31,192,182086,2,0,P|43:228|73:255,1,59.4999981842042,2|0,1:2|0:0,0:0:0:0:
191,289,182410,1,10,0:0:0:0:
191,95,182734,6,0,P|153:102|115:90,1,59.4999981842042,2|8,1:2|0:0,0:0:0:0:
24,6,183058,2,0,P|49:35|57:74,1,59.4999981842042,2|0,1:2|0:0,0:0:0:0:
31,192,183383,2,0,P|43:155|73:128,1,59.4999981842042,2|0,1:2|0:0,0:0:0:0:
191,95,183707,1,10,0:0:0:0:
259,266,184031,2,0,L|252:188,1,59.4999981842042,2|10,1:2|0:0,0:0:0:0:
191,95,184356,6,0,P|245:116|299:97,1,118.999996368408,6|2,1:2|0:0,0:0:0:0:
409,54,184842,1,2,1:2:0:0:
409,54,185004,2,0,P|402:92|414:130,1,59.4999981842042,8|0,0:0|1:0,0:0:0:0:
459,215,185329,2,0,P|421:208|383:220,1,59.4999981842042,0|0,1:0|1:0,0:0:0:0:
337,260,185572,5,0,1:0:0:0:
337,260,185653,2,0,L|329:349,1,76.4999976654053,10|0,0:0|1:0,0:0:0:0:
222,219,185978,1,8,3:0:0:0:
222,219,186140,1,8,3:0:0:0:
24,122,186302,1,10,0:0:0:0:
90,324,186464,1,0,1:0:0:0:
184,129,186626,1,10,0:0:0:0:
504,272,186950,5,6,1:2:0:0:
222,219,187112,1,0,1:0:0:0:
455,179,187599,5,8,0:0:0:0:
434,343,187761,1,2,1:2:0:0:
434,343,187842,1,0,1:0:0:0:
434,343,187923,1,8,0:0:0:0:
222,219,188085,6,0,P|310:184|377:227,1,170,6|0,1:2|1:0,0:0:0:0:
192,306,188572,1,10,0:0:0:0:
159,151,188734,1,0,1:0:0:0:
299,272,188896,1,10,0:0:0:0:
299,272,188977,1,8,0:0:0:0:
299,272,189058,1,0,1:0:0:0:
102,253,189221,2,0,L|-5:242,1,85,10|0,0:0|0:0,0:0:0:0:
220,42,189545,6,0,B|253:75|253:75|239:209,1,170,6|10,1:2|0:0,0:0:0:0:
226,384,190031,1,2,1:2:0:0:
226,384,190112,1,8,0:0:0:0:
226,384,190194,1,0,1:0:0:0:
102,253,190356,1,10,0:0:0:0:
299,272,190518,1,8,0:0:0:0:
37,369,190680,6,0,B|4:336|4:336|18:202,1,170,6|0,1:2|1:0,0:0:0:0:
180,51,191167,1,8,0:0:0:0:
41,127,191329,1,0,1:0:0:0:
210,176,191491,1,10,0:0:0:0:
210,176,191572,1,8,0:0:0:0:
210,176,191653,1,0,1:0:0:0:
81,48,191815,2,0,P|37:39|-10:55,1,85,10|0,0:0|0:0,0:0:0:0:
127,333,192139,5,6,1:2:0:0:
180,51,192301,1,0,1:0:0:0:
38,359,192788,5,8,0:0:0:0:
151,245,192950,1,2,1:2:0:0:
151,245,193031,1,0,1:0:0:0:
151,245,193112,1,8,0:0:0:0:
332,374,193275,6,0,P|418:352|509:352,1,170,6|0,1:2|1:0,0:0:0:0:
464,167,193761,2,0,P|419:169|377:197,1,85,10|0,0:0|1:0,0:0:0:0:
313,217,194004,1,0,1:0:0:0:
313,217,194086,2,0,P|270:202|237:165,1,85,10|0,0:0|0:0,0:0:0:0:
445,256,194410,1,10,0:0:0:0:
257,318,194572,5,10,0:0:0:0:
257,318,194653,1,8,0:0:0:0:
257,318,194734,2,0,P|171:296|80:296,1,170,6|10,1:2|0:0,0:0:0:0:
30,118,195221,1,2,1:2:0:0:
30,118,195302,1,8,0:0:0:0:
30,118,195383,1,0,1:0:0:0:
51,211,195545,1,0,1:0:0:0:
166,75,195707,1,8,0:0:0:0:
188,169,195869,1,0,1:0:0:0:
383,44,196031,6,0,P|333:33|284:56,1,85,2|0,0:0|1:0,0:0:0:0:
146,244,196356,2,0,P|196:255|245:232,1,85,10|0,0:0|1:0,0:0:0:0:
263,234,196599,1,8,0:0:0:0:
263,234,196680,1,2,1:2:0:0:
166,75,196842,1,0,1:0:0:0:
31,236,197004,1,10,0:0:0:0:
27,205,197085,1,8,0:0:0:0:
24,175,197166,1,8,0:0:0:0:
21,144,197247,1,8,0:0:0:0:
17,111,197329,6,0,P|81:49|167:76,1,187.000005706787,6|10,1:2|0:0,0:0:0:0:
320,224,197815,1,2,1:2:0:0:
320,224,197896,1,8,0:0:0:0:
320,224,197977,1,0,1:0:0:0:
256,64,198139,1,2,1:2:0:0:
192,224,198302,1,8,0:0:0:0:
345,75,198464,6,0,P|430:49|494:111,1,187.000005706787,6|0,1:2|1:0,0:0:0:0:
311,317,198951,2,0,L|321:207,1,93.5000028533936,10|0,0:0|1:0,0:0:0:0:
324,196,199194,1,8,0:0:0:0:
324,196,199275,1,2,1:2:0:0:
256,64,199437,1,0,1:0:0:0:
111,227,199599,2,0,L|101:117,1,93.5000028533936,10|0,0:0|1:0,0:0:0:0:
23,59,199842,5,8,0:0:0:0:
23,59,199923,2,0,L|14:152,1,93.5000028533936,6|0,1:2|1:0,0:0:0:0:
0,298,200248,1,10,0:0:0:0:
102,133,200410,1,2,1:2:0:0:
230,325,200572,1,8,0:0:0:0:
111,227,200734,1,2,1:2:0:0:
111,227,200815,1,0,1:0:0:0:
111,227,200896,1,8,0:0:0:0:
290,104,201058,6,0,B|382:71|382:158|478:127,1,187.000005706787,6|0,1:2|1:0,0:0:0:0:
230,325,201545,1,8,0:0:0:0:
329,184,201707,1,0,1:0:0:0:
313,374,201869,1,10,0:0:0:0:
211,155,202031,1,0,1:0:0:0:
140,333,202194,1,10,0:0:0:0:
13,102,202356,5,8,0:0:0:0:
13,102,202437,1,8,0:0:0:0:
13,102,202518,2,0,L|33:318,1,187.000005706787,6|8,1:2|0:0,0:0:0:0:
211,155,203004,1,0,0:0:0:0:
136,37,203167,2,0,L|127:130,1,93.5000028533936,2|0,1:2|1:0,0:0:0:0:
302,201,203491,2,0,L|293:107,1,93.5000028533936,8|0,0:0|0:0,0:0:0:0:
235,332,203815,6,0,P|322:287|392:338,1,187.000005706787,6|8,1:2|0:0,0:0:0:0:
302,201,204302,1,0,0:0:0:0:
150,304,204464,2,0,L|141:210,1,93.5000028533936,2|0,1:2|1:0,0:0:0:0:
400,124,204788,2,0,L|391:217,1,93.5000028533936,8|0,0:0|0:0,0:0:0:0:
305,57,205112,5,14,0:0:0:0:
512,87,205275,1,0,1:0:0:0:
512,87,205356,1,0,1:0:0:0:
512,87,205437,1,10,0:0:0:0:
385,326,205599,5,0,1:0:0:0:
385,326,205680,1,0,1:0:0:0:
385,326,205761,2,0,L|449:321,1,46.7500014266968,10|0,0:0|0:0,0:0:0:0:
255,197,205923,6,0,L|319:202,1,46.7500014266968,2|0,1:2|0:0,0:0:0:0:
196,339,206085,6,0,L|260:334,1,46.7500014266968,10|0,0:0|0:0,0:0:0:0:
56,183,206248,6,0,L|120:188,1,46.7500014266968,2|0,1:2|0:0,0:0:0:0:
0,382,206410,5,8,0:0:0:0:
11,341,206491,1,0,1:0:0:0:
41,311,206572,1,0,1:0:0:0:
81,300,206653,1,0,1:0:0:0:
124,301,206734,6,0,B|159:304|159:304|185:281|204:233|189:184,1,153,14|0,0:0|0:0,0:0:0:0:
104,80,207545,6,0,L|124:301,1,220.999989883423,6|0,1:2|1:0,0:0:0:0:
391,244,208031,2,0,L|259:233,1,110.499994941712,8|0,0:0|0:0,0:0:0:0:
457,326,208356,1,0,1:0:0:0:
391,148,208518,1,0,1:0:0:0:
247,343,208680,2,0,L|379:332,1,110.499994941712,8|0,0:0|0:0,0:0:0:0:
315,88,209004,6,0,P|297:147|316:200,1,110.499994941712,2|0,1:2|0:0,0:0:0:0:
405,55,209329,1,8,0:0:0:0:
207,131,209491,2,0,L|75:120,1,110.499994941712,2|0,1:2|0:0,0:0:0:0:
229,33,209815,1,0,1:0:0:0:
167,227,209977,2,0,L|299:216,1,110.499994941712,10|0,0:0|0:0,0:0:0:0:
498,102,210302,6,0,P|381:151|308:92,1,220.999989883423,6|8,1:2|0:0,0:0:0:0:
390,248,210788,2,0,L|379:380,1,110.499994941712,2|0,0:0|1:0,0:0:0:0:
489,230,211112,1,0,1:0:0:0:
287,328,211275,2,0,L|276:196,1,110.499994941712,10|0,0:0|0:0,0:0:0:0:
265,26,211599,5,2,1:2:0:0:
179,169,211761,1,0,1:0:0:0:
376,150,211923,1,8,0:0:0:0:
123,89,212085,2,0,B|81:130|81:130|96:300,1,220.999989883423,0|0,1:0|1:0,0:0:0:0:
275,128,212572,1,10,0:0:0:0:
466,321,212734,5,2,1:2:0:0:
466,321,212815,1,0,1:0:0:0:
466,321,212896,2,0,P|388:287|308:335,1,165.749992412568,6|0,1:2|0:0,0:0:0:0:
244,372,213221,2,0,L|233:240,1,110.499994941712,8|0,0:0|0:0,0:0:0:0:
369,81,213545,1,2,1:2:0:0:
381,252,213707,1,0,1:0:0:0:
164,137,213869,2,0,L|296:126,1,110.499994941712,8|0,0:0|0:0,0:0:0:0:
461,294,214194,6,0,L|289:280,1,165.749992412568,6|0,1:2|0:0,0:0:0:0:
220,352,214518,2,0,P|274:323|298:272,1,110.499994941712,8|0,0:0|0:0,0:0:0:0:
259,94,214842,1,2,1:2:0:0:
204,257,215004,1,0,1:0:0:0:
449,177,215167,2,0,L|317:166,1,110.499994941712,10|0,0:0|0:0,0:0:0:0:
103,322,215491,6,0,B|117:152|117:152|74:197,1,220.999989883423,6|8,1:2|0:0,0:0:0:0:
194,367,215977,2,0,L|204:257,1,110.499994941712,2|0,1:2|0:0,0:0:0:0:
216,85,216302,1,0,1:0:0:0:
394,187,216464,2,0,L|262:176,1,110.499994941712,10|0,0:0|0:0,0:0:0:0:
101,163,216788,5,6,1:2:0:0:
327,82,216950,1,0,1:0:0:0:
77,64,217112,1,8,0:0:0:0:
283,177,217274,1,0,1:0:0:0:
42,370,217437,5,10,0:0:0:0:
390,293,217599,1,10,0:0:0:0:
390,293,217923,6,0,B|332:257|282:273|273:311|224:327|164:288,1,220.999989883423,6|0,1:2|1:0,0:0:0:0:
8,136,218410,1,10,0:0:0:0:
226,210,218572,1,0,1:0:0:0:
20,276,218734,1,10,0:0:0:0:
157,85,218896,1,2,1:2:0:0:
157,85,218977,1,0,1:0:0:0:
157,85,219058,1,8,0:0:0:0:
299,334,219221,6,0,P|400:298|533:298,1,220.999989883423,6|0,1:2|1:0,0:0:0:0:
453,28,219707,1,8,0:0:0:0:
395,261,219869,1,0,1:0:0:0:
157,85,220031,1,10,0:0:0:0:
157,85,220112,1,8,0:0:0:0:
157,85,220194,1,2,1:2:0:0:
381,136,220356,1,8,0:0:0:0:
241,365,220518,6,0,L|261:135,1,220.999989883423,6|0,1:2|1:0,0:0:0:0:
20,272,221005,2,0,L|152:261,1,110.499994941712,10|0,0:0|1:0,0:0:0:0:
210,259,221248,1,8,0:0:0:0:
210,259,221329,1,2,1:2:0:0:
34,170,221491,1,0,1:0:0:0:
102,380,221653,1,10,0:0:0:0:
183,164,221815,1,2,0:0:0:0:
396,354,221977,6,0,L|406:244,1,110.499994941712,6|0,1:2|0:0,0:0:0:0:
237,74,222302,1,10,0:0:0:0:
105,280,222464,1,2,1:2:0:0:
0,77,222626,1,8,0:0:0:0:
31,58,222707,1,0,1:0:0:0:
69,51,222788,1,0,1:0:0:0:
106,59,222869,1,0,1:0:0:0:
137,80,222951,2,0,L|142:135,1,55.2499974708558,8|0,0:0|1:0,0:0:0:0:
15,297,223113,2,0,L|20:241,1,55.2499974708558,2|0,1:2|1:0,0:0:0:0:
237,74,223275,6,0,P|320:53|405:53,1,165.749992412568,6|0,1:2|0:0,0:0:0:0:
439,58,223599,1,10,0:0:0:0:
396,277,223761,1,2,1:2:0:0:
396,277,223842,1,8,0:0:0:0:
396,277,223923,1,0,1:0:0:0:
352,132,224085,1,2,1:2:0:0:
508,290,224248,1,8,0:0:0:0:
271,209,224410,6,0,P|188:188|103:188,1,165.749992412568,6|0,1:2|0:0,0:0:0:0:
70,191,224734,1,2,1:2:0:0:
257,90,224896,1,10,0:0:0:0:
155,277,225058,1,2,1:2:0:0:
116,80,225221,1,8,0:0:0:0:
319,294,225383,1,0,1:0:0:0:
357,76,225545,2,0,L|351:131,1,55.2499974708558,8|0,0:0|1:0,0:0:0:0:
207,354,225707,5,10,0:0:0:0:
207,354,225788,1,8,0:0:0:0:
207,354,225869,2,0,P|109:360|61:297,1,165.749992412568,6|0,1:2|0:0,0:0:0:0:
50,278,226194,1,10,0:0:0:0:
248,202,226356,1,2,1:2:0:0:
248,202,226437,1,8,0:0:0:0:
248,202,226518,1,0,1:0:0:0:
22,71,226680,1,2,1:2:0:0:
155,277,226842,1,8,0:0:0:0:
347,71,227004,6,0,P|254:17|166:74,1,220.999989883423,6|0,1:2|1:0,0:0:0:0:
384,194,227491,1,10,0:0:0:0:
202,379,227653,5,0,1:0:0:0:
202,379,227733,1,0,1:0:0:0:
202,379,227815,1,10,0:0:0:0:
495,245,227978,1,2,1:2:0:0:
495,245,228302,6,0,L|265:225,1,220.999989883423,6|0,1:2|1:0,0:0:0:0:
94,105,228788,2,0,L|204:95,1,110.499994941712,8|0,0:0|0:0,0:0:0:0:
43,196,229112,1,0,1:0:0:0:
27,28,229275,1,0,1:0:0:0:
145,186,229437,2,0,L|135:296,1,110.499994941712,8|0,0:0|0:0,0:0:0:0:
288,62,229761,6,0,P|234:47|183:64,1,110.499994941712,2|0,1:2|0:0,0:0:0:0:
295,200,230085,1,8,0:0:0:0:
401,44,230248,2,0,L|391:154,1,110.499994941712,2|0,1:2|0:0,0:0:0:0:
375,342,230572,1,0,1:0:0:0:
185,210,230734,2,0,L|295:200,1,110.499994941712,10|0,0:0|0:0,0:0:0:0:
477,200,231059,6,0,P|365:251|288:185,1,220.999989883423,6|8,1:2|0:0,0:0:0:0:
216,67,231545,2,0,L|326:77,1,110.499994941712,2|0,0:0|1:0,0:0:0:0:
239,298,231869,1,0,1:0:0:0:
111,149,232031,2,0,L|1:159,1,110.499994941712,10|0,0:0|0:0,0:0:0:0:
194,205,232356,5,2,1:2:0:0:
116,46,232518,1,0,1:0:0:0:
58,253,232680,1,8,0:0:0:0:
204,94,232842,2,0,B|245:52|245:52|415:67,1,220.999989883423,0|0,1:0|1:0,0:0:0:0:
512,223,233329,1,10,0:0:0:0:
285,356,233491,5,2,1:2:0:0:
285,356,233572,1,0,1:0:0:0:
285,356,233653,2,0,L|271:190,1,165.749992412568,6|0,1:2|0:0,0:0:0:0:
284,153,233977,2,0,L|294:263,1,110.499994941712,8|0,0:0|0:0,0:0:0:0:
192,105,234302,1,2,1:2:0:0:
366,92,234464,1,0,1:0:0:0:
183,214,234626,2,0,L|51:203,1,110.499994941712,8|0,0:0|0:0,0:0:0:0:
285,356,234950,6,0,P|353:305|442:334,1,165.749992412568,6|0,1:2|0:0,0:0:0:0:
512,372,235275,2,0,L|501:240,1,110.499994941712,8|0,0:0|0:0,0:0:0:0:
485,68,235599,1,2,1:2:0:0:
414,212,235761,1,0,1:0:0:0:
260,53,235923,2,0,L|392:64,1,110.499994941712,10|0,0:0|0:0,0:0:0:0:
207,231,236248,6,0,P|138:180|49:209,1,165.749992412568,6|0,1:2|0:0,0:0:0:0:
30,223,236572,1,10,0:0:0:0:
282,379,236734,2,0,L|302:149,1,220.999989883423,2|0,1:2|1:0,0:0:0:0:
96,34,237221,2,0,L|107:166,1,110.499994941712,10|0,0:0|0:0,0:0:0:0:
119,339,237545,5,6,1:2:0:0:
202,151,237707,1,0,1:0:0:0:
384,346,237869,1,8,0:0:0:0:
301,158,238031,1,0,1:0:0:0:
44,261,238194,5,10,0:0:0:0:
386,230,238356,1,10,0:0:0:0:
386,230,238437,1,8,0:0:0:0:
386,230,238518,1,8,0:0:0:0:
86,73,238680,6,0,B|93:154|93:154|136:199|136:199|143:290,1,220.999989883423,6|0,1:2|1:0,0:0:0:0:
353,74,239167,2,0,P|299:59|248:76,1,110.499994941712,10|0,0:0|1:0,0:0:0:0:
184,120,239410,1,8,0:0:0:0:
184,120,239491,1,2,1:2:0:0:
289,323,239653,1,2,1:2:0:0:
442,123,239815,1,8,0:0:0:0:
380,384,239977,6,0,P|279:348|146:348,1,220.999989883423,6|0,1:2|1:0,0:0:0:0:
39,83,240464,1,8,0:0:0:0:
248,215,240626,1,0,1:0:0:0:
0,250,240788,1,10,0:0:0:0:
0,250,240868,1,8,0:0:0:0:
0,250,240950,1,2,1:2:0:0:
196,64,241112,1,8,0:0:0:0:
142,360,241275,6,0,L|122:139,1,220.999989883423,6|0,1:2|1:0,0:0:0:0:
0,250,241761,1,10,0:0:0:0:
268,222,241923,1,2,1:2:0:0:
268,222,242004,1,8,0:0:0:0:
268,222,242085,1,0,1:0:0:0:
4,357,242248,1,2,1:2:0:0:
121,103,242410,1,8,0:0:0:0:
309,315,242572,6,0,P|392:294|477:294,1,165.749992412568,6|0,1:2|0:0,0:0:0:0:
511,299,242896,1,2,1:2:0:0:
349,140,243058,1,10,0:0:0:0:
423,377,243221,1,2,1:2:0:0:
499,141,243383,1,8,0:0:0:0:
309,315,243545,1,0,1:0:0:0:
191,97,243707,1,8,0:0:0:0:
160,78,243788,1,0,1:0:0:0:
122,71,243869,1,0,1:0:0:0:
85,79,243950,1,0,1:0:0:0:
54,98,244032,5,6,1:2:0:0:
0,352,244194,1,8,0:0:0:0:
126,169,244356,1,10,0:0:0:0:
309,315,244518,1,2,1:2:0:0:
35,240,244680,1,8,0:0:0:0:
287,140,244842,1,2,1:2:0:0:
287,140,244923,1,8,0:0:0:0:
287,140,245004,1,8,0:0:0:0:
173,375,245167,6,0,L|164:264,1,110.499994941712,6|8,1:2|0:0,0:0:0:0:
154,57,245491,1,2,1:2:0:0:
154,57,245572,1,8,0:0:0:0:
154,57,245653,1,8,0:0:0:0:
400,199,245815,2,0,L|411:67,1,110.499994941712,2|8,1:2|0:0,0:0:0:0:
309,315,246139,1,2,1:2:0:0:
506,209,246302,1,8,0:0:0:0:
163,161,246464,6,0,L|183:382,1,220.999989883423,6|0,1:2|1:0,0:0:0:0:
264,128,246950,1,8,0:0:0:0:
264,128,247032,1,0,1:0:0:0:
264,128,247113,2,0,L|270:197,1,55.2499974708558,0|0,1:0|1:0,0:0:0:0:
412,362,247275,1,8,0:0:0:0:
412,362,247357,1,0,1:0:0:0:
412,362,247438,2,0,L|418:293,1,55.2499974708558,0|0,1:0|1:0,0:0:0:0:
435,80,247599,5,10,0:0:0:0:
283,339,247761,1,6,1:2:0:0:
256,192,247842,12,0,249140,0:0:0:0:
32,199,249221,6,0,B|154:157|154:279|292:227,1,255,6|0,1:2|0:0,0:0:0:0:
431,157,250518,6,0,P|412:221|405:289,2,127.5,2|0|0,3:2|0:0|0:0,0:0:0:0:
274,232,251815,2,0,P|266:168|248:107,2,127.5,2|0|0,0:0|0:0|0:0,0:0:0:0:
173,50,253112,2,0,P|227:17|331:59,1,170,2|0,3:2|0:0,0:0:0:0:
422,218,254085,5,0,0:0:0:0:
422,218,254248,1,0,0:0:0:0:
422,218,254410,2,0,B|393:190|393:190|287:200,1,127.5,2|0,0:0|0:0,0:0:0:0:
230,289,255058,2,0,B|268:277|268:277|306:198,1,127.5,0|0,0:0|0:0,0:0:0:0:
265,87,255707,2,0,B|255:126|255:126|306:198,1,127.5,2|0,3:2|0:0,0:0:0:0:
367,278,256356,1,0,0:0:0:0:
447,143,256680,1,0,0:0:0:0:
306,198,257005,6,0,P|242:179|174:172,2,127.5,2|0|0,0:0|0:0|0:0,0:0:0:0:
465,294,258302,2,0,P|455:245|474:196,1,85,2|0,3:2|0:0,0:0:0:0:
504,67,258950,1,0,0:0:0:0:
489,74,259194,2,0,P|440:84|391:65,1,85
369,52,259599,6,0,L|359:148,1,85,2|0,0:0|0:0,0:0:0:0:
241,252,260248,1,0,0:0:0:0:
241,252,260410,2,0,L|231:156,1,85,0|0,0:0|0:0,0:0:0:0:
222,72,260896,2,0,P|173:82|124:63,1,85,2|0,3:2|0:0,0:0:0:0:
0,165,261545,1,0,0:0:0:0:
14,158,261761,2,0,P|63:148|112:167,1,85
130,182,262194,6,0,L|140:278,1,85,2|0,0:0|0:0,0:0:0:0:
279,377,262842,2,0,L|287:292,1,85
301,140,263491,2,0,P|350:150|399:131,1,85,2|0,3:2|0:0,0:0:0:0:
479,102,263977,1,0,0:0:0:0:
479,102,264139,2,0,P|469:151|488:200,1,85,0|0,0:0|0:0,0:0:0:0:
341,46,264788,6,0,B|252:15|252:103|166:75,1,187.000005706787,6|2,1:2|0:0,0:0:0:0:
41,227,265275,2,0,P|69:182|113:159,1,93.5000028533936,2|8,1:2|0:0,0:0:0:0:
280,178,265599,1,2,1:2:0:0:
165,74,265761,1,8,0:0:0:0:
22,331,265923,6,0,B|94:324|94:324|130:287|130:287|200:281,1,187.000005706787,6|2,1:2|1:2,0:0:0:0:
280,178,266410,1,10,0:0:0:0:
252,363,266572,1,2,1:2:0:0:
475,247,266734,1,8,0:0:0:0:
475,247,266815,1,8,0:0:0:0:
475,247,266896,1,0,1:0:0:0:
305,278,267058,1,8,0:0:0:0:
466,349,267221,1,2,1:2:0:0:
280,178,267383,6,0,P|190:138|113:191,1,187.000005706787,6|10,1:2|0:0,0:0:0:0:
19,350,267869,1,2,1:2:0:0:
0,142,268031,1,8,0:0:0:0:
155,315,268194,1,2,1:2:0:0:
196,60,268356,2,0,L|193:22,2,31.1666676177979,8|8|8,0:0|0:0|0:0,0:0:0:0:
199,94,268518,6,0,P|241:81|295:81,1,85,6|0,1:2|0:0,0:0:0:0:
249,202,269815,6,0,B|192:172|138:196|133:245|81:269|25:237,1,237.999992736817,6|0,1:2|1:0,0:0:0:0:
267,105,270302,2,0,P|315:128|350:194,1,118.999996368408,8|0,0:0|0:0,0:0:0:0:
214,364,270626,1,0,1:0:0:0:
249,202,270788,1,0,1:0:0:0:
436,319,270950,2,0,L|306:308,1,118.999996368408,8|0,0:0|0:0,0:0:0:0:
31,219,271275,6,0,L|161:208,1,118.999996368408,2|0,1:2|0:0,0:0:0:0:
267,105,271599,1,8,0:0:0:0:
159,327,271761,2,0,L|148:197,1,118.999996368408,2|0,1:2|0:0,0:0:0:0:
138,63,272085,1,0,1:0:0:0:
249,202,272248,2,0,P|300:220|371:198,1,118.999996368408,10|0,0:0|0:0,0:0:0:0:
41,321,272572,6,0,L|19:76,1,237.999992736817,6|8,1:2|0:0,0:0:0:0:
249,202,273058,2,0,L|260:72,1,118.999996368408,2|0,0:0|1:0,0:0:0:0:
325,331,273383,1,0,1:0:0:0:
143,221,273545,2,0,P|87:202|30:218,1,118.999996368408,10|0,0:0|0:0,0:0:0:0:
168,372,273869,5,2,1:2:0:0:
249,202,274031,1,0,1:0:0:0:
83,302,274194,1,8,0:0:0:0:
204,102,274356,2,0,B|278:95|278:95|339:141|339:141|426:135,1,237.999992736817,0|0,1:0|1:0,0:0:0:0:
375,38,274842,1,10,0:0:0:0:
257,329,275004,5,0,1:2:0:0:
257,329,275085,1,0,1:0:0:0:
257,329,275167,2,0,P|167:303|68:303,1,178.499994552612,6|0,1:2|0:0,0:0:0:0:
1,379,275491,2,0,P|53:352|82:301,1,118.999996368408,8|0,0:0|0:0,0:0:0:0:
125,92,275815,1,2,1:2:0:0:
180,261,275977,1,0,1:0:0:0:
401,125,276139,2,0,L|271:136,1,118.999996368408,8|0,0:0|0:0,0:0:0:0:
32,291,276464,6,0,P|98:236|180:261,1,178.499994552612,6|0,1:2|0:0,0:0:0:0:
255,335,276788,2,0,L|266:205,1,118.999996368408,8|0,0:0|0:0,0:0:0:0:
280,38,277112,1,2,1:2:0:0:
363,221,277275,1,0,1:0:0:0:
94,131,277437,2,0,L|224:120,1,118.999996368408,10|0,0:0|0:0,0:0:0:0:
474,297,277761,6,0,B|417:267|363:291|358:340|306:364|250:332,1,237.999992736817,6|8,1:2|0:0,0:0:0:0:
360,108,278248,2,0,P|378:164|363:221,1,118.999996368408,2|0,1:2|0:0,0:0:0:0:
280,38,278572,1,0,1:0:0:0:
80,236,278734,2,0,L|210:225,1,118.999996368408,10|0,0:0|0:0,0:0:0:0:
469,207,279058,5,6,1:2:0:0:
258,142,279221,1,0,1:0:0:0:
429,309,279383,1,8,0:0:0:0:
458,65,279545,1,0,1:0:0:0:
222,371,279707,5,10,0:0:0:0:
181,55,279869,1,10,0:0:0:0:
181,55,279950,1,8,0:0:0:0:
181,55,280031,1,8,0:0:0:0:
0,285,280194,6,0,B|180:270|180:270|128:316,1,237.999992736817,6|0,1:2|1:0,0:0:0:0:
40,54,280680,2,0,P|22:105|44:176,1,118.999996368408,10|0,0:0|1:0,0:0:0:0:
81,236,280923,1,8,0:0:0:0:
81,236,281004,1,2,1:2:0:0:
181,55,281167,1,2,1:2:0:0:
283,340,281329,1,8,0:0:0:0:
491,112,281491,6,0,P|393:55|296:114,1,237.999992736817,6|0,1:2|1:0,0:0:0:0:
441,381,281977,1,8,0:0:0:0:
394,158,282139,1,0,1:0:0:0:
180,377,282302,1,10,0:0:0:0:
180,377,282382,1,8,0:0:0:0:
180,377,282464,1,2,1:2:0:0:
296,113,282626,1,8,0:0:0:0:
36,229,282788,6,0,P|134:172|231:230,1,237.999992736817,6|0,1:2|1:0,0:0:0:0:
181,55,283275,1,10,0:0:0:0:
134,278,283437,1,2,1:2:0:0:
134,278,283518,1,8,0:0:0:0:
134,278,283599,1,0,1:0:0:0:
329,34,283761,1,2,1:2:0:0:
393,306,283923,1,8,0:0:0:0:
62,72,284085,6,0,B|15:96|15:96|4:232,1,178.499994552612,6|0,1:2|0:0,0:0:0:0:
0,264,284410,1,2,1:2:0:0:
233,162,284572,1,10,0:0:0:0:
229,351,284734,1,2,1:2:0:0:
166,74,284896,1,8,0:0:0:0:
363,175,285058,1,0,1:0:0:0:
109,303,285221,1,8,0:0:0:0:
106,264,285302,1,0,1:0:0:0:
103,226,285383,1,0,1:0:0:0:
100,188,285464,1,0,1:0:0:0:
96,150,285545,5,6,1:2:0:0:
335,299,285707,1,8,0:0:0:0:
385,18,285869,1,10,0:0:0:0:
241,183,286031,1,2,1:2:0:0:
492,256,286194,1,8,0:0:0:0:
300,94,286356,2,0,P|244:76|187:91,1,118.999996368408,2|0,1:2|1:0,0:0:0:0:
51,364,286680,6,0,L|40:234,1,118.999996368408,14|8,0:0|0:0,0:0:0:0:
31,43,287004,1,2,1:2:0:0:
31,43,287085,1,0,1:0:0:0:
31,43,287167,1,8,0:0:0:0:
230,301,287329,2,0,L|241:171,1,118.999996368408,2|8,1:2|0:0,0:0:0:0:
255,3,287653,1,2,1:2:0:0:
460,202,287815,2,0,L|330:191,1,118.999996368408,8|0,0:0|0:0,0:0:0:0:
0,267,288139,5,6,1:2:0:0:
180,74,288302,1,8,0:0:0:0:
105,293,288464,1,10,0:0:0:0:
81,19,288626,1,2,1:2:0:0:
238,216,288788,1,8,0:0:0:0:
0,127,288950,1,2,1:2:0:0:
0,127,289031,1,0,1:0:0:0:
0,127,289112,1,8,0:0:0:0:
105,293,289275,1,2,1:2:0:0:
374,91,289437,6,0,L|244:80,1,118.999996368408,14|0,0:0|1:0,0:0:0:0:
180,74,289680,1,0,1:0:0:0:
180,74,289761,1,10,0:0:0:0:
352,288,289924,2,0,L|482:277,1,118.999996368408,2|8,1:2|0:0,0:0:0:0:
374,91,290248,1,2,1:2:0:0:
160,288,290410,2,0,L|30:277,1,118.999996368408,8|0,0:0|0:0,0:0:0:0:
276,47,290734,5,6,1:2:0:0:
352,288,290896,1,8,0:0:0:0:
476,69,291058,1,10,0:0:0:0:
254,327,291221,1,2,1:2:0:0:
374,91,291383,1,8,0:0:0:0:
443,353,291545,1,2,1:2:0:0:
443,353,291626,1,8,0:0:0:0:
443,353,291707,1,8,0:0:0:0:
152,139,291869,6,0,L|22:128,1,118.999996368408,6|8,1:2|0:0,0:0:0:0:
374,91,292194,1,2,1:2:0:0:
374,91,292275,1,8,0:0:0:0:
374,91,292356,1,8,0:0:0:0:
284,380,292518,2,0,L|273:250,1,118.999996368408,2|8,1:2|0:0,0:0:0:0:
256,32,292842,1,2,1:2:0:0:
396,253,293004,1,8,0:0:0:0:
18,139,293167,6,0,P|116:82|213:140,1,237.999992736817,6|0,1:2|1:0,0:0:0:0:
284,380,293653,1,8,0:0:0:0:
284,380,293734,1,0,1:0:0:0:
284,380,293815,2,0,L|290:315,1,59.4999981842042,0|0,1:0|1:0,0:0:0:0:
465,116,293978,1,8,0:0:0:0:
465,116,294059,1,0,1:0:0:0:
465,116,294140,2,0,L|471:181,1,59.4999981842042,0|0,1:0|1:0,0:0:0:0:
486,379,294302,1,10,0:0:0:0:
213,140,294464,6,0,P|172:129|136:129,1,68,6|0,1:2|0:0,0:0:0:0:
427,167,295924,6,0,L|274:152,1,152.999995330811,6|0,1:2|0:0,0:0:0:0:
240,128,296248,2,0,L|362:140,1,101.999996887207,8|0,0:0|0:0,0:0:0:0:
200,217,296572,1,0,1:0:0:0:
179,54,296734,1,0,1:0:0:0:
293,243,296896,2,0,P|262:293|211:313,1,101.999996887207,8|0,0:0|0:0,0:0:0:0:
29,217,297221,6,0,P|114:169|199:216,1,203.999993774414,2|8,1:2|0:0,0:0:0:0:
376,189,297706,1,0,1:0:0:0:
302,344,297869,2,0,L|293:243,1,101.999996887207,2|0,0:0|1:0,0:0:0:0:
474,138,298193,2,0,L|464:239,1,101.999996887207,8|0,0:0|0:0,0:0:0:0:
275,92,298517,6,0,P|211:56|134:83,1,152.999995330811,6|0,1:2|0:0,0:0:0:0:
70,137,298842,2,0,L|60:35,1,101.999996887207,8|0,0:0|0:0,0:0:0:0:
0,204,299166,1,2,1:2:0:0:
153,185,299328,1,0,1:0:0:0:
90,352,299490,2,0,L|80:250,1,101.999996887207,8|0,0:0|0:0,0:0:0:0:
60,35,299814,5,2,1:2:0:0:
153,185,299977,1,2,1:2:0:0:
211,17,300139,1,10,0:0:0:0:
303,171,300301,2,0,B|381:162|381:162|419:122|419:122|503:114,1,203.999993774414,2|0,1:2|1:0,0:0:0:0:
232,243,300787,1,10,0:0:0:0:
334,71,300950,1,2,0:0:0:0:
474,287,301112,6,0,P|396:269|297:269,1,152.999995330811,6|0,1:2|0:0,0:0:0:0:
256,335,301436,2,0,P|306:304|326:253,1,101.999996887207,8|0,0:0|0:0,0:0:0:0:
233,96,301760,1,0,1:0:0:0:
232,243,301923,1,0,1:0:0:0:
435,115,302085,2,0,L|333:106,1,101.999996887207,8|0,0:0|0:0,0:0:0:0:
106,162,302410,5,6,1:2:0:0:
233,96,302571,1,0,1:0:0:0:
111,265,302733,1,10,0:0:0:0:
65,71,302896,1,0,1:0:0:0:
14,303,303058,1,2,0:0:0:0:
106,162,303221,1,2,1:2:0:0:
278,313,303382,1,10,0:0:0:0:
233,96,303545,1,2,0:0:0:0:
14,303,303707,6,0,L|-1:150,1,152.999995330811,6|0,1:2|0:0,0:0:0:0:
15,84,304032,2,0,L|24:186,1,101.999996887207,8|0,0:0|1:0,0:0:0:0:
87,243,304274,1,8,0:0:0:0:
87,243,304356,1,10,0:0:0:0:
191,150,304517,1,8,3:0:0:0:
285,228,304679,1,4,3:0:0:0:
366,153,304841,1,4,3:0:0:0:
436,213,305005,6,0,B|448:366|448:366|421:363|394:341|394:341|408:320,1,237.999992736817,6|6,1:2|1:2,0:0:0:0:
256,192,306383,12,0,316680,0:0:0:0:
