osu file format v14

[General]
AudioFilename: audio.mp3
AudioLeadIn: 0
PreviewTime: 58000
Countdown: 0
SampleSet: Soft
StackLeniency: 0.7
Mode: 0
LetterboxInBreaks: 0
WidescreenStoryboard: 1

[Editor]
DistanceSpacing: 1
BeatDivisor: 4
GridSize: 32
TimelineZoom: 6.549997

[Metadata]
Title:Kodou (TV Size)
TitleUnicode:鼓動 (TV Size)
Artist:Aoi Eir
ArtistUnicode:藍井エイル
Creator:Nevertary
Version:Normal
Source:バック・アロウ
Tags:Back Arrow anime opening op season 2 s2 山田竜平 Yamada Ryuuhei japanese pop jpop j-pop rock jrock j-rock
BeatmapID:3116395
BeatmapSetID:1522877

[Difficulty]
HPDrainRate:4
CircleSize:3.5
OverallDifficulty:4
ApproachRate:5.5
SliderMultiplier:1
SliderTickRate:1

[Events]
//Background and Video events
0,0,"BG.jpg",0,0
Video,0,"bgv.mp4"
//Break Periods
//Storyboard Layer 0 (Background)
//Storyboard Layer 1 (Fail)
//Storyboard Layer 2 (Pass)
//Storyboard Layer 3 (Foreground)
//Storyboard Layer 4 (Overlay)
//Storyboard Sound Samples

[TimingPoints]
365,326.086956521739,4,2,2,55,1,0
365,-111.111111111111,4,2,2,55,0,0
6886,-105.263157894737,4,2,2,65,0,0
12104,-100,4,2,2,75,0,0
22538,-100,4,2,2,60,0,0
32973,-100,4,2,2,65,0,0
43408,-100,4,2,2,70,0,0
48625,-105.263157894737,4,2,2,60,0,0
53843,-111.111111111111,4,2,2,55,0,0
59060,-100,4,2,1,80,0,1
68843,-100,4,2,1,80,0,0
69332,-100,4,2,1,80,0,1
78951,-100,4,2,2,75,0,0
79930,-100,4,2,2,75,0,0
89549,-100,4,2,2,5,0,0

[Colours]
Combo1 : 255,159,64
Combo2 : 12,57,126
Combo3 : 222,118,186
Combo4 : 84,147,222

[HitObjects]
219,371,1669,5,2,0:0:0:0:
296,277,2973,1,2,0:0:0:0:
199,210,4278,1,2,0:0:0:0:
276,116,5582,1,2,0:0:0:0:
276,116,6886,6,0,L|170:89,1,94.9999974632264,4|0,1:2|1:0,0:0:0:0:
91,70,7538,1,0,1:0:0:0:
4,108,7864,1,0,1:0:0:0:
33,198,8191,2,0,P|44:252|30:299,1,94.9999974632264,0|0,1:0|1:0,0:0:0:0:
108,350,8843,2,0,P|162:339|209:353,1,94.9999974632264,0|0,1:0|1:0,0:0:0:0:
294,341,9495,6,0,L|400:314,2,94.9999974632264,2|2|2,1:2|1:2|1:2,0:0:0:0:
238,263,10473,2,0,P|235:233|243:199,1,47.4999987316132,8|8,0:0|0:0,0:0:0:0:
247,169,10799,2,0,P|258:115|244:68,1,94.9999974632264,8|0,0:0|3:0,0:0:0:0:
247,29,11288,2,0,P|301:40|348:26,1,94.9999974632264,8|0,0:0|3:0,0:0:0:0:
385,18,11778,1,12,0:0:0:0:
446,97,12104,6,0,L|473:206,1,100,6|10,1:2|0:0,0:0:0:0:
458,293,12756,2,0,L|405:280,1,50,2|0,1:2|1:0,0:0:0:0:
368,306,13082,1,10,0:0:0:0:
368,306,13245,2,0,L|259:279,1,100,4|0,1:2|1:0,0:0:0:0:
222,268,13734,1,10,0:0:0:0:
159,345,14060,2,0,L|106:332,1,50,2|0,1:2|1:0,0:0:0:0:
61,321,14386,1,10,0:0:0:0:
25,227,14712,6,0,P|17:173|36:122,1,100,6|10,1:2|0:0,0:0:0:0:
96,55,15364,2,0,L|149:42,1,50,2|0,1:2|1:0,0:0:0:0:
192,68,15691,1,10,0:0:0:0:
192,68,15854,2,0,L|301:41,1,100,4|0,1:2|1:0,0:0:0:0:
338,36,16343,1,10,0:0:0:0:
422,89,16669,2,0,L|435:142,1,50,2|0,1:2|1:0,0:0:0:0:
416,184,16995,2,0,L|429:237,1,50,8|8,0:0|0:0,0:0:0:0:
441,280,17321,6,0,L|332:253,1,100,6|14,1:2|0:0,0:0:0:0:
245,273,17973,2,0,L|232:220,1,50,2|0,1:2|1:0,0:0:0:0:
250,180,18299,1,10,0:0:0:0:
250,180,18462,2,0,L|223:71,1,100,4|0,1:2|1:0,0:0:0:0:
216,33,18951,1,10,0:0:0:0:
126,78,19278,2,0,L|73:65,1,50,2|0,1:2|1:0,0:0:0:0:
29,53,19604,1,10,0:0:0:0:
35,152,19930,6,0,P|43:206|24:257,1,100,4|8,1:2|3:0,0:0:0:0:
14,296,20419,2,0,P|68:288|119:307,1,100,4|4,1:2|3:0,0:0:0:0:
153,327,20908,1,4,1:2:0:0:
243,277,21234,1,2,3:0:0:0:
243,277,21397,2,0,L|352:250,1,100,4|0,1:2|3:0,0:0:0:0:
388,264,21886,2,0,L|441:251,1,50,12|0,1:2|1:0,0:0:0:0:
485,240,22212,1,12,0:0:0:0:
502,141,22538,6,0,P|479:93|431:66,1,100,6|8,1:2|0:0,0:0:0:0:
343,70,23191,1,0,1:0:0:0:
343,70,23354,2,0,L|290:57,1,50,0|0,1:0|0:0,0:0:0:0:
249,80,23680,2,0,L|140:53,1,100,10|0,0:0|1:0,0:0:0:0:
53,74,24332,2,0,P|14:105|0:151,1,100,2|0,0:0|1:0,0:0:0:0:
32,251,24984,5,0,0:0:0:0:
32,251,25147,2,0,L|140:278,1,100,6|8,1:2|0:0,0:0:0:0:
176,291,25636,1,0,0:0:0:0:
256,350,25962,1,0,1:0:0:0:
334,287,26288,2,0,L|431:262,1,100,10|0,1:2|1:0,0:0:0:0:
480,253,26778,1,8,0:0:0:0:
500,155,27104,2,0,L|513:102,2,50,0|0|8,1:0|1:0|0:0,0:0:0:0:
480,253,27756,5,6,1:2:0:0:
409,324,28082,2,0,L|300:297,1,100,12|0,0:0|1:0,0:0:0:0:
262,291,28571,1,0,1:0:0:0:
224,203,28897,1,10,0:0:0:0:
224,203,29060,2,0,P|213:156|226:100,1,100,0|8,0:0|0:0,0:0:0:0:
245,61,29549,1,2,0:0:0:0:
148,34,29875,2,0,P|101:45|45:32,1,100,0|0,1:0|1:0,0:0:0:0:
15,70,30364,6,0,P|10:100|14:129,1,50,6|0,1:2|0:0,1:2:0:0:
18,168,30691,1,8,0:0:0:0:
51,262,31017,2,0,L|104:249,1,50,0|0,1:0|1:0,0:0:0:0:
144,271,31343,2,0,L|197:258,1,50,12|0,0:0|1:0,0:0:0:0:
244,250,31669,1,8,0:0:0:0:
244,250,31832,1,8,0:0:0:0:
409,362,32484,6,0,L|462:349,1,50,8|2,0:0|3:0,0:0:0:0:
484,253,32973,6,0,P|498:202|481:150,1,100,4|14,1:2|0:0,0:0:0:0:
400,117,33625,1,2,0:0:0:0:
400,117,33788,2,0,L|347:104,1,50,2|8,1:2|0:0,0:0:0:0:
320,65,34114,2,0,L|211:38,1,100,2|2,1:2|1:2,0:0:0:0:
145,108,34767,2,0,L|36:81,1,100,2|2,0:0|1:2,0:0:0:0:
0,76,35256,1,10,0:0:0:0:
26,172,35582,6,0,P|37:219|24:275,1,100,4|10,1:2|0:0,0:0:0:0:
12,316,36071,1,2,0:0:0:0:
102,358,36397,2,0,P|138:361|157:356,1,50,2|8,1:2|0:0,1:0:0:0:
198,341,36723,2,0,P|245:330|301:343,1,100,2|2,1:2|1:2,0:0:0:0:
339,362,37212,1,8,0:0:0:0:
438,370,37538,2,0,L|451:317,1,50,0|8,1:0|0:0,0:0:0:0:
434,273,37864,2,0,L|447:220,1,50,8|2,3:0|3:0,0:0:0:0:
430,182,38191,6,0,L|457:73,1,100,4|14,1:2|0:0,0:0:0:0:
466,36,38680,1,2,0:0:0:0:
366,46,39006,2,0,L|313:33,1,50,2|8,1:2|0:0,0:0:0:0:
269,49,39332,2,0,L|160:22,1,100,2|2,1:2|1:2,0:0:0:0:
97,91,39984,2,0,P|86:138|99:194,1,100,2|2,0:0|1:2,0:0:0:0:
180,258,40636,5,2,0:0:0:0:
180,258,40799,2,0,L|289:231,1,100,4|10,1:2|0:0,0:0:0:0:
326,224,41288,1,2,0:0:0:0:
417,264,41614,2,0,L|470:251,1,50,2|8,1:2|0:0,0:0:0:0:
490,208,41941,2,0,P|501:161|488:105,1,100,2|2,1:2|1:2,0:0:0:0:
470,65,42430,1,8,0:0:0:0:
374,35,42756,2,0,L|321:22,1,50,8|2,0:0|3:0,0:0:0:0:
286,54,43082,2,0,L|233:41,1,50,8|0,0:0|3:0,0:0:0:0:
214,86,43408,6,0,P|203:133|216:189,1,100,12|0,0:0|0:0,0:0:0:0:
176,275,44060,1,12,0:0:0:0:
176,275,44223,2,0,P|129:264|73:277,1,100,2|0,1:2|1:0,0:0:0:0:
36,295,44712,1,12,0:0:0:0:
36,295,44875,2,0,P|47:248|34:192,1,100,2|0,1:2|1:0,0:0:0:0:
26,153,45364,1,12,0:0:0:0:
26,153,45527,1,2,1:2:0:0:
58,60,45854,5,0,1:0:0:0:
58,60,46017,2,0,L|167:33,1,100,12|0,0:0|0:0,0:0:0:0:
206,54,46506,1,0,1:0:0:0:
206,54,46669,2,0,L|259:41,1,50,12|0,0:0|1:0,0:0:0:0:
353,77,47158,1,0,1:0:0:0:
353,77,47321,2,0,L|406:64,1,50,12|0,0:0|1:0,0:0:0:0:
450,55,47647,1,0,1:0:0:0:
478,150,47973,2,0,P|483:180|475:214,1,50,12|2,0:0|3:0,0:0:0:0:
468,247,48299,2,0,P|463:277|471:311,1,50,8|2,3:0|3:0,0:0:0:0:
460,343,48625,6,0,L|354:316,1,94.9999974632264,4|2,1:2|0:0,0:0:0:0:
332,349,49114,1,0,1:0:0:0:
332,349,49278,2,0,L|226:322,1,94.9999974632264,8|2,0:0|0:0,0:0:0:0:
149,298,49930,2,0,P|160:251|144:195,1,94.9999974632264,0|2,1:0|0:0,0:0:0:0:
133,167,50419,1,0,1:0:0:0:
133,167,50582,2,0,P|122:120|138:64,1,94.9999974632264,8|2,0:0|0:0,0:0:0:0:
224,53,51234,6,0,L|330:26,1,94.9999974632264,4|2,1:2|0:0,0:0:0:0:
365,45,51723,1,0,1:0:0:0:
365,45,51887,2,0,L|471:18,1,94.9999974632264,8|2,0:0|0:0,0:0:0:0:
486,111,52538,2,0,P|497:158|481:214,1,94.9999974632264,0|2,1:0|0:0,0:0:0:0:
448,289,53191,2,0,L|399:277,1,47.4999987316132,8|0,0:0|1:0,0:0:0:0:
368,311,53517,2,0,L|319:299,1,47.4999987316132,10|8,0:0|0:0,0:0:0:0:
285,326,53843,6,0,B|198:330|170:263|170:263|143:194|60:199,1,269.999991760254,8|0,3:0|0:0,0:0:0:0:
40,113,55147,2,0,P|77:46|137:32,1,134.999995880127,2|0,0:0|0:0,0:0:0:0:
283,189,56451,2,0,P|418:142|370:63,1,269.999991760254,2|0,0:0|0:0,0:0:0:0:
302,28,57756,5,8,0:0:0:0:
302,28,57919,1,8,0:0:0:0:
302,28,59060,6,0,L|193:1,1,100,4|14,1:2|0:0,0:0:0:0:
112,35,59712,1,2,1:2:0:0:
112,35,59875,2,0,L|59:22,1,50,2|8,1:2|0:0,0:0:0:0:
20,48,60201,2,0,P|6:105|19:149,1,100,6|2,1:2|1:2,0:0:0:0:
38,188,60691,1,10,0:0:0:0:
90,279,61017,1,2,1:2:0:0:
90,279,61180,2,0,L|143:266,1,50,2|8,1:2|0:0,0:0:0:0:
180,294,61506,6,0,L|289:267,1,100,4|2,1:2|1:2,0:0:0:0:
326,262,61995,1,10,0:0:0:0:
407,328,62321,1,2,1:2:0:0:
407,328,62484,2,0,L|460:315,1,50,2|8,1:2|0:0,0:0:0:0:
489,279,62810,2,0,P|503:222|490:178,1,100,4|0,1:2|1:0,0:0:0:0:
480,134,63299,1,10,0:0:0:0:
409,70,63625,1,2,1:2:0:0:
409,70,63788,2,0,L|356:57,1,50,10|8,0:0|0:0,0:0:0:0:
316,81,64114,6,0,L|207:54,1,100,4|2,1:2|1:2,0:0:0:0:
170,43,64604,1,14,0:0:0:0:
99,114,64930,1,2,1:2:0:0:
99,114,65093,2,0,L|86:167,1,50,2|8,1:2|0:0,0:0:0:0:
100,210,65419,2,0,L|73:319,1,100,6|2,1:2|1:2,0:0:0:0:
69,356,65908,1,10,0:0:0:0:
171,345,66234,1,2,1:2:0:0:
171,345,66397,2,0,L|224:332,1,50,2|8,1:2|0:0,0:0:0:0:
258,304,66723,6,0,P|272:247|259:203,1,100,4|2,1:2|1:2,0:0:0:0:
243,167,67212,1,8,0:0:0:0:
243,167,67375,1,4,1:2:0:0:
272,78,67701,2,0,L|325:65,1,50,2|8,1:2|0:0,0:0:0:0:
361,88,68028,2,0,L|470:61,1,100,4|8,1:2|0:0,0:0:0:0:
500,56,68517,1,8,3:0:0:0:
488,152,68843,1,8,0:0:0:0:
488,152,69006,1,8,0:0:0:0:
465,245,69332,6,0,L|356:218,1,100,4|2,1:2|1:2,0:0:0:0:
319,210,69821,1,12,0:0:0:0:
271,297,70147,2,0,L|218:284,1,50,8|2,0:0|1:2,0:0:0:0:
175,301,70473,2,0,L|122:288,1,50,8|2,0:0|1:2,0:0:0:0:
81,280,70799,1,8,0:0:0:0:
81,280,70962,1,2,1:2:0:0:
9,209,71288,2,0,L|22:156,1,50,2|8,1:2|0:0,0:0:0:0:
66,139,71614,2,0,L|79:86,1,50,2|8,1:2|0:0,0:0:0:0:
94,45,71940,5,2,1:2:0:0:
94,45,72104,1,12,0:0:0:0:
188,77,72430,2,0,L|241:64,1,50,8|2,0:0|1:2,0:0:0:0:
287,84,72756,1,8,0:0:0:0:
287,84,72919,2,0,L|396:57,1,100,2|2,1:2|1:2,0:0:0:0:
432,71,73408,2,0,L|445:18,2,50,8|2|8,0:0|1:2|0:0,0:0:0:0:
458,114,73897,1,2,1:2:0:0:
458,114,74060,1,8,0:0:0:0:
486,212,74386,1,12,0:0:0:0:
432,301,74712,6,0,L|323:274,1,100,14|0,0:0|1:0,0:0:0:0:
285,269,75201,1,14,0:0:0:0:
223,348,75528,1,0,1:0:0:0:
223,348,75691,2,0,L|114:321,1,100,14|0,0:0|1:0,0:0:0:0:
76,314,76180,1,14,0:0:0:0:
30,230,76506,1,0,1:0:0:0:
30,230,76669,2,0,L|17:177,1,50,14|0,0:0|1:0,0:0:0:0:
6,132,76995,1,14,1:2:0:0:
76,61,77321,5,8,0:0:0:0:
76,61,77484,2,0,L|141:46,1,50,8|2,3:0|3:0,0:0:0:0:
171,67,77810,1,8,0:0:0:0:
171,67,77973,2,0,L|224:54,1,50,0|0,3:0|3:0,0:0:0:0:
265,74,78299,2,0,L|318:61,1,50,8|0,0:0|3:0,0:0:0:0:
366,56,78625,1,8,0:0:0:0:
366,56,78788,1,8,0:0:0:0:
477,235,79441,5,0,1:0:0:0:
477,235,79604,2,0,L|424:222,1,50,12|0,0:0|0:0,0:0:0:0:
381,218,79930,6,0,P|334:246|314:300,1,100,6|10,1:2|0:0,0:0:0:0:
229,335,80582,2,0,L|176:322,1,50,2|0,1:2|1:0,0:0:0:0:
149,283,80908,1,10,0:0:0:0:
149,283,81071,2,0,L|40:256,1,100,4|0,1:2|1:0,0:0:0:0:
3,244,81560,1,10,0:0:0:0:
31,148,81886,2,0,L|44:95,1,50,2|0,1:2|1:0,0:0:0:0:
59,52,82212,1,10,0:0:0:0:
157,34,82538,6,0,P|214:20|258:33,1,100,12|8,0:0|3:0,0:0:0:0:
294,57,83028,1,12,0:0:0:0:
366,133,83354,1,4,3:0:0:0:
366,133,83517,2,0,P|423:147|467:134,1,100,12|2,0:0|3:0,0:0:0:0:
508,117,84006,1,12,0:0:0:0:
512,220,84332,1,0,3:0:0:0:
512,220,84495,2,0,L|485:329,1,100,12|2,0:0|3:0,0:0:0:0:
476,365,84984,1,4,1:2:0:0:
256,192,85147,12,0,89549,0:0:0:0:
