osu file format v14

[General]
AudioFilename: audio.mp3
AudioLeadIn: 0
PreviewTime: 58000
Countdown: 0
SampleSet: Soft
StackLeniency: 0.2
Mode: 0
LetterboxInBreaks: 0
WidescreenStoryboard: 1

[Editor]
DistanceSpacing: 0.7
BeatDivisor: 4
GridSize: 32
TimelineZoom: 6.549997

[Metadata]
Title:Kodou (TV Size)
TitleUnicode:鼓動 (TV Size)
Artist:Aoi Eir
ArtistUnicode:藍井エイル
Creator:Nevertary
Version:Insane
Source:バック・アロウ
Tags:Back Arrow anime opening op season 2 s2 山田竜平 Yamada Ryuuhei japanese pop jpop j-pop rock jrock j-rock
BeatmapID:3116394
BeatmapSetID:1522877

[Difficulty]
HPDrainRate:5.5
CircleSize:4
OverallDifficulty:8
ApproachRate:9
SliderMultiplier:1.6
SliderTickRate:1

[Events]
//Background and Video events
0,0,"BG.jpg",0,0
Video,0,"bgv.mp4"
//Break Periods
//Storyboard Layer 0 (Background)
//Storyboard Layer 1 (Fail)
//Storyboard Layer 2 (Pass)
//Storyboard Layer 3 (Foreground)
//Storyboard Layer 4 (Overlay)
//Storyboard Sound Samples

[TimingPoints]
365,326.086956521739,4,2,2,55,1,0
365,-200,4,2,2,55,0,0
5582,-333.333333333333,4,2,2,55,0,0
6560,-100,4,2,2,55,0,0
6805,-100,4,2,2,5,0,0
6886,-142.857142857143,4,2,2,65,0,0
9495,-100,4,2,2,65,0,0
9739,-100,4,2,2,5,0,0
9821,-83.3333333333333,4,2,2,64,0,0
10066,-83.3333333333333,4,2,2,5,0,0
10147,-71.4285714285714,4,2,2,65,0,0
10392,-71.4285714285714,4,2,2,5,0,0
10473,-90.9090909090909,4,2,2,65,0,0
10799,-90.9090909090909,4,2,2,70,0,0
11778,-62.5,4,2,2,60,0,0
12022,-62.5,4,2,2,5,0,0
12104,-90.9090909090909,4,2,2,75,0,0
12348,-90.9090909090909,4,2,2,5,0,0
12430,-90.9090909090909,4,2,2,75,0,0
14957,-90.9090909090909,4,2,2,5,0,0
15038,-90.9090909090909,4,2,2,75,0,0
17566,-90.9090909090909,4,2,2,5,0,0
17647,-90.9090909090909,4,2,2,75,0,0
19930,-83.3333333333333,4,2,2,75,0,0
20419,-71.4285714285714,4,2,2,75,0,0
20908,-62.5,4,2,2,75,0,0
21397,-55.5555555555556,4,2,2,75,0,0
21886,-83.3333333333333,4,2,2,75,0,0
22538,-125,4,2,2,60,0,0
28000,-125,4,2,2,5,0,0
28082,-125,4,2,2,60,0,0
32973,-111.111111111111,4,2,2,65,0,0
33218,-111.111111111111,4,2,2,5,0,0
33299,-111.111111111111,4,2,2,65,0,0
38435,-111.111111111111,4,2,2,5,0,0
38517,-111.111111111111,4,2,2,65,0,0
43408,-90.9090909090909,4,2,2,70,0,0
48625,-142.857142857143,4,2,2,60,0,0
53843,-250,4,2,2,55,0,0
56451,-200,4,2,2,60,0,0
59060,-83.3333333333333,4,2,1,80,0,1
59305,-83.3333333333333,4,2,1,5,0,1
59386,-83.3333333333333,4,2,1,80,0,1
66723,-62.5,4,2,1,80,0,1
66968,-62.5,4,2,1,5,0,1
67049,-62.5,4,2,1,80,0,1
67375,-71.4285714285714,4,2,1,80,0,1
67620,-71.4285714285714,4,2,1,5,0,1
67701,-71.4285714285714,4,2,1,80,0,1
68028,-83.3333333333333,4,2,1,80,0,1
68272,-83.3333333333333,4,2,1,5,0,1
68354,-83.3333333333333,4,2,1,80,0,1
68843,-83.3333333333333,4,2,1,100,0,0
69332,-83.3333333333333,4,2,1,80,0,1
78951,-83.3333333333333,4,2,2,75,0,0
79604,-62.5,4,2,2,75,0,0
79848,-62.5,4,2,2,5,0,0
79930,-90.9090909090909,4,2,2,75,0,0
80174,-90.9090909090909,4,2,2,5,0,0
80256,-90.9090909090909,4,2,2,75,0,0
82538,-83.3333333333333,4,2,2,75,0,0
83028,-71.4285714285714,4,2,2,75,0,0
83517,-62.5,4,2,2,75,0,0
84006,-55.5555555555556,4,2,2,75,0,0
84495,-83.3333333333333,4,2,2,75,0,0
84984,-333.333333333333,4,2,2,75,0,0
89549,-200,4,2,2,5,0,0

[Colours]
Combo1 : 255,159,64
Combo2 : 12,57,126
Combo3 : 222,118,186
Combo4 : 84,147,222

[HitObjects]
319,154,1669,6,0,L|437:123,2,120,2|0|2,0:0|0:0|0:0,0:0:0:0:
157,100,2973,6,0,P|123:52|65:38,2,120,2|0|2,0:0|0:0|0:0,0:0:0:0:
81,241,4278,6,0,B|93:214|79:185|79:185|62:152|74:123,2,120,2|0|2,0:0|0:0|0:0,0:0:0:0:
58,377,5582,6,0,B|73:345|73:345|164:322,1,119.999996337891,2|2,0:0|0:0,0:0:0:0:
244,353,6479,5,2,0:0:0:0:
244,353,6560,2,0,P|290:355|348:309,1,120,2|0,0:0|0:0,0:0:0:0:
416,263,6886,5,4,1:2:0:0:
426,299,7212,1,0,1:0:0:0:
436,335,7538,1,0,1:0:0:0:
445,371,7864,1,0,1:0:0:0:
455,114,8191,5,0,1:0:0:0:
442,163,8517,1,0,1:0:0:0:
429,213,8843,1,0,1:0:0:0:
416,263,9169,1,0,1:0:0:0:
331,71,9495,6,0,B|241:47|241:47|216:64,1,120,2|0,1:2|0:0,0:0:0:0:
150,93,9821,6,0,B|175:74|175:74|284:102,1,143.999995605469,2|0,1:2|0:0,0:0:0:0:
237,133,10147,6,0,B|109:100|109:100|74:128,1,167.999994873047,2|0,1:2|0:0,0:0:0:0:
11,176,10473,6,0,L|-1:131,3,44.0000013427735,8|8|8|8,0:0|0:0|0:0|0:0,0:0:0:0:
81,234,10799,6,0,L|105:325,1,88.000002685547,8|0,0:0|3:0,0:0:0:0:
115,352,11044,1,0,3:0:0:0:
115,352,11125,1,0,3:0:0:0:
249,173,11288,6,0,L|225:264,1,88.000002685547,8|0,0:0|3:0,0:0:0:0:
220,295,11533,1,0,3:0:0:0:
220,295,11614,1,0,3:0:0:0:
89,118,11778,6,0,B|146:115|163:63|163:63|177:13|236:8,1,192,12|0,0:0|0:0,0:0:0:0:
253,5,12104,6,0,B|241:51|241:51|249:84|249:84|236:134,1,132.00000402832,6|0,1:2|0:0,0:0:0:0:
249,173,12430,2,0,L|272:84,1,88.000002685547,10|0,0:0|0:0,0:0:0:0:
438,78,12756,1,2,1:2:0:0:
438,78,12919,1,0,1:0:0:0:
371,19,13082,1,10,0:0:0:0:
410,215,13245,6,0,P|349:175|241:175,1,176.000005371094,4|0,1:2|1:0,0:0:0:0:
149,310,13734,2,0,P|187:288|210:245,1,88.000002685547,10|0,0:0|0:0,0:0:0:0:
97,109,14060,1,2,1:2:0:0:
97,109,14223,1,0,1:0:0:0:
73,195,14386,2,0,P|31:169|11:130,1,88.000002685547,10|0,0:0|0:0,0:0:0:0:
216,44,14712,6,0,B|247:62|247:62|346:36,1,132.00000402832,6|0,1:2|0:0,0:0:0:0:
367,8,15038,2,0,L|278:31,1,88.000002685547,10|0,0:0|0:0,0:0:0:0:
216,209,15364,1,2,1:2:0:0:
216,209,15528,1,0,1:0:0:0:
283,145,15691,1,10,0:0:0:0:
328,327,15854,6,0,B|370:349|411:320|411:320|452:289|497:315,1,176.000005371094,4|0,1:2|1:0,0:0:0:0:
283,145,16343,1,10,0:0:0:0:
306,236,16506,1,0,0:0:0:0:
455,171,16669,2,0,P|414:160|366:172,1,88.000002685547,2|0,1:2|1:0,0:0:0:0:
239,299,16995,5,8,0:0:0:0:
210,291,17076,1,8,0:0:0:0:
182,284,17158,1,8,0:0:0:0:
153,276,17239,1,8,0:0:0:0:
126,268,17321,6,0,P|71:239|52:172,1,132.00000402832,6|0,1:2|0:0,0:0:0:0:
38,145,17647,2,0,P|33:194|45:233,1,88.000002685547,14|0,0:0|0:0,0:0:0:0:
173,88,17973,1,2,1:2:0:0:
173,88,18136,1,0,1:0:0:0:
112,21,18299,1,10,0:0:0:0:
149,179,18462,6,0,B|283:143|283:143|263:149|250:167,1,176.000005371094,4|0,1:2|1:0,0:0:0:0:
346,282,18951,2,0,L|257:259,1,88.000002685547,10|0,0:0|0:0,0:0:0:0:
384,129,19278,1,2,1:2:0:0:
384,129,19441,1,0,1:0:0:0:
305,58,19604,2,0,L|282:147,1,88.000002685547,10|0,0:0|0:0,0:0:0:0:
106,19,19930,6,0,P|53:29|19:67,1,95.9999970703126,4|8,1:2|3:0,0:0:0:0:
12,89,20174,1,8,3:0:0:0:
12,89,20256,1,8,3:0:0:0:
187,101,20419,6,0,P|252:111|286:149,1,111.999996582031,4|4,1:2|3:0,0:0:0:0:
293,175,20663,1,4,3:0:0:0:
293,175,20745,1,4,3:0:0:0:
122,214,20908,6,0,P|45:223|11:261,1,128,4|2,1:2|3:0,0:0:0:0:
0,290,21152,1,2,3:0:0:0:
0,290,21234,1,2,3:0:0:0:
207,296,21397,6,0,P|298:305|332:343,1,143.999995605469,4|0,1:2|3:0,0:0:0:0:
347,374,21641,1,0,3:0:0:0:
347,374,21723,1,0,3:0:0:0:
478,143,21886,5,12,0:2:0:0:
436,306,22049,1,0,1:0:0:0:
267,197,22212,2,0,L|364:172,1,95.9999970703126,12|0,0:0|0:0,0:0:0:0:
136,47,22538,6,0,P|74:65|46:125,2,128,6|8|0,1:2|0:0|1:0,0:0:0:0:
190,143,23354,2,0,L|122:126,1,64,0|0,1:0|0:0,0:0:0:0:
10,249,23680,6,0,L|140:215,1,128,10|0,0:0|1:0,0:0:0:0:
273,283,24169,2,0,L|341:266,1,64,8|0,0:0|0:0,0:0:0:0:
355,141,24495,1,0,1:0:0:0:
355,141,24658,1,0,1:0:0:0:
265,133,24821,2,0,L|282:201,1,64,8|0,0:0|0:0,0:0:0:0:
459,45,25147,6,0,B|426:69|426:69|342:48,2,128,6|8|0,1:2|0:0|1:0,0:0:0:0:
500,193,25962,2,0,P|484:166|456:146,1,64,0|0,1:0|0:0,0:0:0:0:
328,294,26288,6,0,P|365:237|424:224,1,128,10|0,0:0|1:0,0:0:0:0:
453,352,26778,2,0,P|437:325|409:305,1,64,8|0,0:0|0:0,0:0:0:0:
248,267,27104,1,0,1:0:0:0:
248,267,27267,1,0,1:0:0:0:
210,346,27430,2,0,P|184:327|167:300,1,64,8|8,0:0|3:0,0:0:0:0:
126,229,27674,5,4,3:0:0:0:
126,229,27756,2,0,P|90:210|33:210,1,96,6|0,1:2|0:0,0:0:0:0:
19,216,28082,2,0,P|26:182|21:154,1,64,12|0,0:0|0:0,0:0:0:0:
120,64,28408,1,0,1:0:0:0:
120,64,28571,2,0,P|113:98|118:126,1,64,0|0,1:0|0:0,0:0:0:0:
209,211,28897,6,0,B|309:187|309:187|291:207,1,128,10|0,0:0|1:0,0:0:0:0:
347,43,29386,2,0,L|330:111,1,64,8|0,0:0|0:0,0:0:0:0:
408,233,29712,1,0,1:0:0:0:
408,233,29875,1,0,1:0:0:0:
479,178,30038,2,0,L|496:246,1,64,8|0,0:0|0:0,0:0:0:0:
370,368,30364,6,0,B|340:380|311:363|311:363|278:341|248:354,2,128,6|8|0,1:2|0:0|1:0,0:0:0:0:
408,233,31180,1,0,1:0:0:0:
347,291,31343,1,12,0:0:0:0:
384,154,31506,1,0,1:0:0:0:
490,256,31669,5,8,0:0:0:0:
299,204,31832,1,8,0:0:0:0:
299,204,32484,6,0,L|287:238,3,21.3333333333333,8|8|4|2,0:0|3:0|3:0|3:0,0:0:0:0:
291,224,32973,6,0,L|182:195,1,107.999996704102,4|0,1:2|0:0,0:0:0:0:
160,202,33299,2,0,L|84:182,1,71.9999978027344,14|2,0:0|0:0,0:0:0:0:
11,27,33625,1,2,0:0:0:0:
1,119,33788,2,0,L|77:99,1,71.9999978027344,2|8,1:2|0:0,0:0:0:0:
150,15,34114,6,0,P|183:37|201:66,1,71.9999978027344,2|0,1:2|0:0,0:0:0:0:
169,216,34441,2,0,P|171:175|187:145,1,71.9999978027344,2|8,1:2|0:0,0:0:0:0:
335,98,34767,2,0,P|298:116|264:116,1,71.9999978027344,2|0,0:0|0:0,0:0:0:0:
281,29,35093,1,2,1:2:0:0:
421,82,35256,1,10,0:0:0:0:
366,15,35419,1,0,0:0:0:0:
267,116,35582,6,0,P|189:89|129:89,1,143.999995605469,4|10,1:2|0:0,0:0:0:0:
14,193,36071,2,0,P|36:159|65:141,1,71.9999978027344,2|0,0:0|0:0,0:0:0:0:
142,271,36397,2,0,P|119:237|90:219,1,71.9999978027344,2|8,1:2|0:0,0:0:0:0:
231,147,36723,6,0,L|211:223,1,71.9999978027344,2|0,1:2|0:0,0:0:0:0:
357,180,37049,2,0,L|337:256,1,71.9999978027344,2|8,1:2|0:0,0:0:0:0:
328,39,37375,2,0,L|308:115,1,71.9999978027344,2|0,0:0|1:0,0:0:0:0:
432,248,37701,5,8,0:0:0:0:
432,248,37783,1,8,0:0:0:0:
432,248,37864,2,0,L|474:259,3,35.9999989013672,8|4|2|0,3:0|3:0|3:0|3:0,0:0:0:0:
402,257,38191,6,0,L|293:228,1,107.999996704102,4|0,1:2|0:0,0:0:0:0:
277,224,38517,1,14,0:0:0:0:
227,75,38680,2,0,P|253:105|262:138,1,71.9999978027344,2|0,0:0|0:0,0:0:0:0:
218,293,39006,2,0,P|187:319|154:328,1,71.9999978027344,2|8,1:2|0:0,0:0:0:0:
106,178,39332,6,0,L|30:158,1,71.9999978027344,2|0,1:2|0:0,0:0:0:0:
207,205,39658,2,0,L|283:225,1,71.9999978027344,2|8,1:2|0:0,0:0:0:0:
87,247,39984,2,0,L|106:178,1,71.9999978027344,2|0,0:0|0:0,0:0:0:0:
225,135,40310,2,0,L|207:205,1,71.9999978027344,2|8,1:2|0:0,0:0:0:0:
245,50,40636,1,2,0:0:0:0:
331,182,40799,6,0,B|369:170|398:201|398:201|424:226|462:214,1,143.999995605469,4|10,1:2|0:0,0:0:0:0:
303,263,41288,2,0,P|269:241|251:212,1,71.9999978027344,2|0,0:0|1:0,0:0:0:0:
330,342,41614,2,0,P|364:320|382:291,1,71.9999978027344,2|8,1:2|0:0,0:0:0:0:
312,112,41941,6,0,L|330:181,1,71.9999978027344,2|0,1:2|0:0,0:0:0:0:
443,80,42267,2,0,L|461:149,1,71.9999978027344,2|10,1:2|0:0,0:0:0:0:
365,42,42593,1,2,1:2:0:0:
200,112,42756,5,8,0:0:0:0:
196,127,42837,1,8,0:0:0:0:
193,141,42919,1,2,3:0:0:0:
69,80,43082,5,8,0:0:0:0:
65,95,43163,1,8,0:0:0:0:
62,109,43245,1,0,3:0:0:0:
256,32,43408,5,12,0:0:0:0:
337,151,43571,2,0,B|460:118|460:118|436:124|418:151,1,176.000005371094,2|0,1:2|1:0,0:0:0:0:
256,280,44060,5,12,0:0:0:0:
405,324,44223,2,0,B|356:310|321:347|321:347|286:384|236:369,1,176.000005371094,2|0,1:2|1:0,0:0:0:0:
223,372,44631,5,0,1:0:0:0:
223,372,44712,1,12,0:0:0:0:
136,242,44875,2,0,B|103:365|103:365|109:341|95:313,1,176.000005371094,2|0,1:2|1:0,0:0:0:0:
165,132,45364,5,12,0:0:0:0:
14,205,45528,2,0,P|78:275|138:239,1,176.000005371094,2|0,1:2|1:0,0:0:0:0:
216,205,45935,5,0,1:0:0:0:
216,205,46017,2,0,B|233:273|233:273|272:294|272:294|289:359,1,176.000005371094,12|0,0:0|0:0,0:0:0:0:
392,179,46506,5,0,1:0:0:0:
512,344,46669,2,0,P|441:276|361:278,1,176.000005371094,12|0,0:0|0:0,0:0:0:0:
192,376,47158,5,0,1:0:0:0:
192,376,47239,1,0,1:0:0:0:
192,376,47321,2,0,B|156:245|156:245|190:279,1,176.000005371094,12|0,0:0|0:0,0:0:0:0:
0,209,47810,5,0,1:0:0:0:
86,332,47973,1,12,0:0:0:0:
181,163,48136,5,2,3:0:0:0:
181,163,48218,1,0,3:0:0:0:
181,163,48299,2,0,L|228:151,3,44.0000013427735,8|4|2|0,3:0|3:0|3:0|3:0,0:0:0:0:
243,163,48625,6,0,L|352:135,1,111.999996582031,4|2,1:2|0:0,0:0:0:0:
496,256,49114,1,0,1:0:0:0:
496,256,49196,1,0,1:0:0:0:
496,256,49278,2,0,P|454:210|406:203,1,111.999996582031,8|2,0:0|0:0,0:0:0:0:
374,348,49767,5,0,1:0:0:0:
374,348,49930,2,0,B|384:304|384:304|420:282,2,83.9999974365235,0|0|0,1:0|1:0|1:0,0:0:0:0:
272,348,50582,2,0,L|163:320,1,111.999996582031,8|2,0:0|0:0,0:0:0:0:
14,384,51071,5,0,1:0:0:0:
14,384,51153,1,0,1:0:0:0:
14,384,51235,2,0,P|60:342|67:294,1,111.999996582031,4|2,1:2|0:0,0:0:0:0:
74,100,51723,1,0,1:0:0:0:
74,100,51805,1,0,1:0:0:0:
74,100,51886,2,0,L|46:209,1,111.999996582031,8|2,0:0|0:0,0:0:0:0:
211,185,52375,5,0,1:0:0:0:
211,185,52538,2,0,B|255:195|255:195|277:231,2,83.9999974365235,0|0|0,1:0|1:0|1:0,0:0:0:0:
240,72,53191,2,0,L|255:12,1,55.9999982910157,8|0,0:0|1:0,0:0:0:0:
211,185,53517,1,10,0:0:0:0:
330,92,53680,1,8,0:0:0:0:
382,210,53843,6,0,B|320:188|280:239|280:239|240:286|180:264,1,224,8|0,3:0|0:0,0:0:0:0:
120,186,55147,6,0,L|26:164,2,96,2|0|0,0:0|0:0|0:0,0:0:0:0:
237,215,56451,6,0,P|251:293|123:310,1,240,2|0,0:0|0:0,0:0:0:0:
77,167,57593,5,0,1:0:0:0:
81,155,57674,1,0,1:0:0:0:
85,143,57756,1,8,0:0:0:0:
25,350,57919,1,8,0:0:0:0:
25,350,59060,6,0,B|11:294|11:294|22:254|22:254|8:202,1,143.999995605469,4|0,1:2|0:0,0:0:0:0:
21,177,59386,2,0,L|47:276,1,95.9999970703126,14|0,0:0|0:0,0:0:0:0:
177,98,59712,1,2,1:2:0:0:
247,170,59875,2,0,L|273:71,1,95.9999970703126,2|8,1:2|0:0,0:0:0:0:
489,251,60201,6,0,P|428:182|339:202,1,191.999994140625,6|2,1:2|1:2,0:0:0:0:
376,357,60691,1,10,0:0:0:0:
401,265,60854,1,0,0:0:0:0:
189,338,61017,1,2,1:2:0:0:
256,268,61180,2,0,L|280:360,1,95.9999970703126,2|8,1:2|0:0,0:0:0:0:
44,171,61506,6,0,B|81:209|81:209|226:171,1,191.999994140625,4|2,1:2|1:2,0:0:0:0:
140,12,61995,1,10,0:0:0:0:
115,104,62158,1,0,0:0:0:0:
307,11,62321,1,2,1:2:0:0:
330,107,62484,2,0,L|237:82,1,95.9999970703126,2|8,1:2|0:0,0:0:0:0:
345,323,62810,6,0,B|397:337|431:292|431:292|464:244|515:258,1,191.999994140625,4|0,1:2|1:0,0:0:0:0:
478,65,63299,2,0,P|431:96|416:140,1,95.9999970703126,10|0,0:0|0:0,0:0:0:0:
500,342,63625,1,2,1:2:0:0:
411,258,63788,1,10,0:0:0:0:
267,372,63951,1,8,0:0:0:0:
103,217,64114,6,0,B|66:355|66:355|72:330|93:317,1,191.999994140625,4|2,1:2|1:2,0:0:0:0:
37,147,64604,1,14,0:0:0:0:
12,239,64767,1,0,0:0:0:0:
200,158,64930,1,2,1:2:0:0:
258,234,65093,2,0,L|351:209,1,95.9999970703126,2|8,1:2|0:0,0:0:0:0:
488,34,65419,6,0,P|414:37|411:137,1,191.999994140625,6|2,1:2|1:2,0:0:0:0:
473,319,65908,1,10,0:0:0:0:
448,227,66071,1,0,0:0:0:0:
280,329,66234,1,2,1:2:0:0:
197,267,66397,2,0,L|172:360,1,95.9999970703126,2|8,1:2|0:0,0:0:0:0:
116,104,66723,6,0,B|135:175|135:175|182:208|182:208|199:275,1,192,4|0,1:2|0:0,0:0:0:0:
200,285,67049,1,2,1:2:0:0:
73,238,67212,1,8,0:0:0:0:
195,66,67375,6,0,B|210:123|210:123|257:156|257:156|271:212,1,167.999994873047,4|0,1:2|0:0,0:0:0:0:
274,224,67701,1,2,1:2:0:0:
147,183,67864,1,8,0:0:0:0:
274,25,68028,6,0,B|286:73|286:73|327:100|327:100|342:153,1,143.999995605469,4|0,1:2|0:0,0:0:0:0:
367,229,68354,1,8,0:0:0:0:
367,229,68435,1,8,0:0:0:0:
367,229,68517,2,0,L|378:278,3,47.9999985351563,8|4|2|0,3:0|3:0|3:0|3:0,0:0:0:0:
395,356,68843,5,8,0:0:0:0:
480,128,69006,1,8,0:0:0:0:
480,128,69332,6,0,B|428:142|394:97|394:97|361:49|310:63,1,191.999994140625,4|2,1:2|1:2,0:0:0:0:
144,153,69821,2,0,L|119:60,1,95.9999970703126,12|2,0:0|1:2,0:0:0:0:
299,240,70147,2,0,L|324:147,1,95.9999970703126,8|2,0:0|1:2,0:0:0:0:
103,246,70473,1,8,0:0:0:0:
238,124,70636,5,2,1:2:0:0:
238,124,70718,1,0,1:0:0:0:
238,124,70799,1,8,0:0:0:0:
393,229,70962,2,0,L|418:136,1,95.9999970703126,2|8,1:2|0:0,0:0:0:0:
119,60,71288,2,0,L|144:153,1,95.9999970703126,2|8,1:2|0:0,0:0:0:0:
322,36,71614,1,2,1:2:0:0:
322,36,71696,1,0,1:0:0:0:
322,36,71778,1,8,0:0:0:0:
393,229,71941,5,2,1:2:0:0:
393,229,72022,1,0,1:0:0:0:
393,229,72104,2,0,L|300:204,1,95.9999970703126,12|2,0:0|1:2,0:0:0:0:
216,379,72430,1,8,0:0:0:0:
293,308,72593,1,2,1:2:0:0:
118,257,72756,1,8,0:0:0:0:
169,93,72919,2,0,L|194:186,1,95.9999970703126,2|8,1:2|0:0,0:0:0:0:
322,36,73245,5,2,1:2:0:0:
322,36,73326,1,0,1:0:0:0:
322,36,73408,1,8,0:0:0:0:
343,141,73571,1,2,1:2:0:0:
512,36,73734,1,8,0:0:0:0:
485,141,73897,1,2,1:2:0:0:
417,23,74060,5,8,0:0:0:0:
417,14,74141,1,8,0:0:0:0:
417,5,74223,1,8,3:0:0:0:
255,109,74386,2,0,L|162:84,1,95.9999970703126,12|0,0:0|1:0,0:0:0:0:
50,318,74712,6,0,P|38:271|51:225,1,95.9999970703126,14|0,0:0|1:0,0:0:0:0:
85,140,75038,1,0,1:0:0:0:
197,342,75201,6,0,P|155:317|131:275,1,95.9999970703126,14|0,0:0|1:0,0:0:0:0:
166,187,75528,1,0,1:0:0:0:
315,342,75691,6,0,P|356:317|380:275,1,95.9999970703126,14|0,0:0|1:0,0:0:0:0:
346,187,76018,1,0,1:0:0:0:
462,318,76180,6,0,P|474:271|461:225,1,95.9999970703126,14|0,0:0|1:0,0:0:0:0:
427,140,76506,1,0,1:0:0:0:
233,304,76669,6,0,L|140:279,1,95.9999970703126,14|0,0:0|1:0,0:0:0:0:
260,114,76995,2,0,L|353:89,1,95.9999970703126,14|0,0:0|1:0,0:0:0:0:
144,164,77321,6,0,L|92:150,1,47.9999985351563,8|8,0:0|0:0,0:0:0:0:
6,126,77484,1,8,3:0:0:0:
12,149,77565,1,4,3:0:0:0:
18,172,77647,1,2,3:0:0:0:
24,195,77728,1,0,3:0:0:0:
30,218,77810,6,0,P|43:241|65:258,1,47.9999985351563,8|8,0:0|0:0,0:0:0:0:
135,268,77973,2,0,P|161:262|184:246,1,47.9999985351563,0|0,3:0|3:0,0:0:0:0:
217,189,78136,2,0,P|220:161|212:135,1,47.9999985351563,0|0,3:0|3:0,0:0:0:0:
166,89,78299,2,0,P|141:77|113:77,1,47.9999985351563,8|8,0:0|3:0,0:0:0:0:
51,102,78462,2,0,P|32:122|23:148,1,47.9999985351563,4|2,3:0|3:0,0:0:0:0:
39,379,78625,5,8,0:0:0:0:
120,173,78788,1,8,0:0:0:0:
120,173,79441,5,0,1:0:0:0:
123,183,79522,1,0,1:0:0:0:
127,192,79604,2,0,B|182:174|216:216|216:216|247:258|304:241,1,192,12|0,0:0|0:0,0:0:0:0:
342,321,79930,6,0,B|324:290|324:290|350:191,1,132.00000402832,6|0,1:2|0:0,0:0:0:0:
378,170,80256,2,0,L|355:259,1,88.000002685547,10|0,0:0|0:0,0:0:0:0:
399,85,80582,1,2,1:2:0:0:
399,85,80745,1,0,1:0:0:0:
465,146,80908,1,10,0:0:0:0:
274,94,81071,6,0,B|140:58|140:58|160:64|173:82,1,176.000005371094,4|0,1:2|1:0,0:0:0:0:
23,157,81560,2,0,L|112:134,1,88.000002685547,10|0,0:0|0:0,0:0:0:0:
44,62,81886,1,2,1:2:0:0:
44,62,82049,1,0,1:0:0:0:
181,193,82212,2,0,L|193:241,2,44.0000013427735,10|8|0,0:0|0:0|1:0,0:0:0:0:
390,30,82538,6,0,P|443:40|477:78,1,95.9999970703126,12|8,0:0|3:0,0:0:0:0:
484,90,82782,1,8,3:0:0:0:
484,90,82864,1,8,3:0:0:0:
287,181,83028,6,0,P|352:171|386:133,1,111.999996582031,12|4,0:0|3:0,0:0:0:0:
399,120,83272,1,4,3:0:0:0:
399,120,83354,1,4,3:0:0:0:
179,29,83517,6,0,P|256:38|290:76,1,128,12|2,0:0|3:0,0:0:0:0:
302,94,83761,1,2,3:0:0:0:
302,94,83843,1,2,3:0:0:0:
72,188,84006,6,0,P|163:179|197:141,1,143.999995605469,12|0,0:0|3:0,0:0:0:0:
211,122,84250,1,0,3:0:0:0:
211,122,84332,1,0,3:0:0:0:
36,47,84495,5,12,0:0:0:0:
72,188,84658,1,8,3:0:0:0:
78,211,84739,1,4,3:0:0:0:
84,234,84821,1,2,3:0:0:0:
90,257,84902,1,0,3:0:0:0:
96,280,84984,6,0,B|173:269|212:327|247:339|247:339|234:305|235:279|235:279|264:290|298:277|298:277|274:260|264:235|264:235|297:212|300:170|300:170|229:220|188:174|112:183|90:260,1,671.999979492188,4|0,1:2|0:0,0:0:0:0:
