osu file format v14

[General]
AudioFilename: audio.mp3
AudioLeadIn: 0
PreviewTime: 58000
Countdown: 0
SampleSet: Soft
StackLeniency: 0.4
Mode: 0
LetterboxInBreaks: 0
WidescreenStoryboard: 1

[Editor]
DistanceSpacing: 0.75
BeatDivisor: 4
GridSize: 32
TimelineZoom: 6.549997

[Metadata]
Title:Kodou (TV Size)
TitleUnicode:鼓動 (TV Size)
Artist:Aoi Eir
ArtistUnicode:藍井エイル
Creator:Nevertary
Version:Hard
Source:バック・アロウ
Tags:Back Arrow anime opening op season 2 s2 山田竜平 Yamada Ryuuhei japanese pop jpop j-pop rock jrock j-rock
BeatmapID:3116393
BeatmapSetID:1522877

[Difficulty]
HPDrainRate:5
CircleSize:3.8
OverallDifficulty:6
ApproachRate:8
SliderMultiplier:1.5
SliderTickRate:1

[Events]
//Background and Video events
0,0,"BG.jpg",0,0
Video,0,"bgv.mp4"
//Break Periods
//Storyboard Layer 0 (Background)
//Storyboard Layer 1 (Fail)
//Storyboard Layer 2 (Pass)
//Storyboard Layer 3 (Foreground)
//Storyboard Layer 4 (Overlay)
//Storyboard Sound Samples

[TimingPoints]
365,326.086956521739,4,2,2,55,1,0
365,-166.666666666667,4,2,2,55,0,0
6886,-133.333333333333,4,2,2,65,0,0
10799,-117.647058823529,4,2,2,70,0,0
12022,-117.647058823529,4,2,2,5,0,0
12104,-100,4,2,2,75,0,0
22538,-125,4,2,2,60,0,0
32973,-111.111111111111,4,2,2,65,0,0
43408,-100,4,2,2,70,0,0
48625,-133.333333333333,4,2,2,60,0,0
53843,-166.666666666667,4,2,2,55,0,0
56451,-142.857142857143,4,2,2,60,0,0
59060,-90.9090909090909,4,2,1,80,0,1
68843,-90.9090909090909,4,2,1,80,0,0
69332,-90.9090909090909,4,2,1,80,0,1
78951,-117.647058823529,4,2,2,75,0,0
79848,-117.647058823529,4,2,2,5,0,0
79930,-100,4,2,2,75,0,0
89549,-100,4,2,2,5,0,0

[Colours]
Combo1 : 255,159,64
Combo2 : 12,57,126
Combo3 : 222,118,186
Combo4 : 84,147,222

[HitObjects]
275,127,1669,6,0,B|291:64|291:64|354:30,2,134.999995880127,2|0|2,0:0|0:0|0:0,0:0:0:0:
189,207,2973,2,0,B|127:225|127:225|66:187,2,134.999995880127,2|0|2,0:0|0:0|0:0,0:0:0:0:
302,241,4278,2,0,B|348:286|348:286|346:358,2,134.999995880127,2|0|2,0:0|0:0|0:0,0:0:0:0:
256,128,5582,6,0,B|193:105|152:155|152:155|115:202|50:180,1,224.999993133545,2|2,0:0|0:0,0:0:0:0:
30,177,6479,1,2,0:0:0:0:
30,177,6560,1,2,0:0:0:0:
46,319,6886,6,0,L|156:291,1,112.500004291535,4|0,1:2|1:0,0:0:0:0:
280,315,7538,2,0,L|252:205,1,112.500004291535,0|0,1:0|1:0,0:0:0:0:
282,80,8191,2,0,L|172:108,1,112.500004291535,0|0,1:0|1:0,0:0:0:0:
48,84,8843,2,0,L|76:194,1,112.500004291535,0|0,1:0|1:0,0:0:0:0:
45,346,9495,6,0,L|103:331,1,56.2500021457673,2|0,1:2|0:0,0:0:0:0:
173,374,9821,2,0,L|231:359,1,56.2500021457673,2|0,1:2|0:0,0:0:0:0:
275,291,10147,2,0,L|333:276,1,56.2500021457673,2|0,1:2|0:0,0:0:0:0:
404,316,10473,2,0,L|435:308,3,28.1250010728836,8|8|8|8,0:0|0:0|0:0|0:0,0:0:0:0:
456,293,10799,6,0,P|463:259|456:227,1,63.7500012159348,8|0,0:0|3:0,0:0:0:0:
452,194,11044,1,0,3:0:0:0:
452,194,11125,1,0,3:0:0:0:
391,123,11288,2,0,P|384:89|391:57,1,63.7500012159348,8|0,0:0|3:0,0:0:0:0:
395,24,11533,1,0,3:0:0:0:
395,24,11614,1,0,3:0:0:0:
297,72,11778,2,0,P|249:61|190:79,1,95.6250018239022,12|0,0:0|0:0,0:0:0:0:
174,80,12104,6,0,L|102:62,1,75,6|0,1:2|0:0,0:0:0:0:
32,9,12430,2,0,L|14:81,1,75,10|0,0:0|0:0,0:0:0:0:
57,158,12756,2,0,L|39:230,1,75,2|0,1:2|1:0,0:0:0:0:
14,313,13082,1,10,0:0:0:0:
122,294,13245,6,0,B|167:275|198:300|198:300|229:323|271:306,1,150,4|0,1:2|1:0,0:0:0:0:
344,282,13734,2,0,P|386:288|413:308,1,75,10|0,0:0|0:0,0:0:0:0:
490,350,14060,1,2,1:2:0:0:
490,350,14223,1,0,1:0:0:0:
485,259,14386,2,0,P|491:223|512:192,1,75,10|0,0:0|0:0,0:0:0:0:
501,106,14712,6,0,L|429:88,1,75,6|0,1:2|0:0,0:0:0:0:
358,35,15038,2,0,L|340:107,1,75,10|0,0:0|0:0,0:0:0:0:
382,184,15364,2,0,L|364:256,1,75,2|0,1:2|1:0,0:0:0:0:
388,341,15691,1,10,0:0:0:0:
284,317,15854,6,0,B|166:287|166:287|189:314,1,150,4|0,1:2|1:0,0:0:0:0:
113,356,16343,2,0,P|72:351|40:330,1,75,10|0,0:0|0:0,0:0:0:0:
0,263,16669,1,2,1:2:0:0:
0,263,16832,1,0,1:0:0:0:
49,190,16995,2,0,L|39:152,3,37.5,8|8|8|8,0:0|0:0|0:0|0:0,0:0:0:0:
47,128,17321,6,0,L|29:56,1,75,6|0,1:2|0:0,0:0:0:0:
111,31,17647,2,0,L|183:13,1,75,14|0,0:0|0:0,0:0:0:0:
260,51,17973,2,0,L|332:33,1,75,2|0,1:2|1:0,0:0:0:0:
417,12,18299,1,10,0:0:0:0:
447,108,18462,6,0,B|459:161|459:161|490:187|490:187|503:242,1,150,4|0,1:2|1:0,0:0:0:0:
488,327,18951,2,0,P|451:355|418:361,1,75,10|0,0:0|0:0,0:0:0:0:
342,360,19278,1,2,1:2:0:0:
342,360,19441,1,0,1:0:0:0:
258,331,19604,2,0,P|212:322|180:332,1,75,10|0,0:0|0:0,0:0:0:0:
77,377,19930,6,0,L|59:305,1,75,4|8,1:2|3:0,0:0:0:0:
38,219,20256,1,8,3:0:0:0:
127,231,20419,2,0,L|109:159,1,75,4|4,1:2|3:0,0:0:0:0:
88,75,20745,1,4,3:0:0:0:
171,99,20908,6,0,L|243:81,1,75,4|2,1:2|3:0,0:0:0:0:
327,62,21234,1,2,3:0:0:0:
311,150,21397,2,0,L|383:132,1,75,4|0,1:2|3:0,0:0:0:0:
468,183,21723,5,0,3:0:0:0:
468,183,21805,1,0,3:0:0:0:
468,183,21886,2,0,P|499:216|508:248,1,75,12|0,0:2|1:0,0:0:0:0:
474,326,22212,2,0,P|447:352|412:363,1,75,12|0,0:0|0:0,0:0:0:0:
296,323,22538,6,0,P|231:312|188:345,2,120,6|8|0,1:2|0:0|1:0,0:0:0:0:
319,240,23354,2,0,L|335:176,1,60,0|0,1:0|0:0,0:0:0:0:
270,129,23680,2,0,B|181:107|181:107|170:80,1,120,10|0,0:0|1:0,0:0:0:0:
97,33,24169,2,0,L|81:97,1,60,8|0,0:0|0:0,0:0:0:0:
64,176,24495,1,0,1:0:0:0:
64,176,24658,1,0,1:0:0:0:
15,249,24821,2,0,L|79:265,1,60,8|0,0:0|0:0,0:0:0:0:
175,264,25147,6,0,B|187:311|187:311|174:340|174:340|184:384,2,120,6|8|0,1:2|0:0|1:0,0:0:0:0:
200,184,25962,2,0,L|184:120,1,60,0|0,1:0|0:0,0:0:0:0:
115,78,26288,2,0,P|168:44|227:51,1,120,10|0,0:0|1:0,0:0:0:0:
288,102,26778,2,0,L|352:86,1,60,8|0,0:0|0:0,0:0:0:0:
429,70,27104,1,0,1:0:0:0:
429,70,27267,1,0,1:0:0:0:
449,151,27430,2,0,L|465:215,1,60,8|8,0:0|3:0,0:0:0:0:
458,239,27674,5,4,3:0:0:0:
458,239,27756,2,0,B|470:286|470:286|457:315|457:315|467:359,2,120,6|12|0,1:2|0:0|1:0,0:0:0:0:
377,218,28571,2,0,L|313:202,1,60,0|0,1:0|0:0,0:0:0:0:
249,254,28897,2,0,L|129:225,1,120,10|0,0:0|1:0,0:0:0:0:
60,277,29386,2,0,L|44:213,1,60,8|0,0:0|0:0,0:0:0:0:
27,137,29712,1,0,1:0:0:0:
27,137,29875,1,0,1:0:0:0:
99,90,30038,2,0,L|115:26,1,60,8|0,0:0|0:0,0:0:0:0:
196,48,30364,6,0,P|254:52|303:19,2,120,6|8|0,1:2|0:0|1:0,0:0:0:0:
123,10,31180,1,0,1:0:0:0:
99,90,31343,2,0,L|83:154,1,60,8|0,0:0|1:0,0:0:0:0:
65,234,31669,5,8,0:0:0:0:
149,208,31832,1,8,0:0:0:0:
149,208,32484,6,0,L|182:200,2,30,8|0|2,0:0|0:0|3:0,0:0:0:0:
144,330,32973,6,0,L|214:314,1,67.4999979400635,4|0,1:2|0:0,0:0:0:0:
284,352,33299,2,0,L|421:321,1,134.999995880127,14|2,0:0|0:0,0:0:0:0:
487,369,33788,2,0,L|503:299,1,67.4999979400635,2|8,1:2|0:0,0:0:0:0:
501,221,34114,6,0,P|490:183|470:160,1,67.4999979400635,2|0,1:2|0:0,0:0:0:0:
395,131,34441,2,0,P|357:142|334:162,1,67.4999979400635,2|8,1:2|0:0,0:0:0:0:
272,212,34767,2,0,B|242:235|242:235|145:213,1,134.999995880127,2|2,0:0|1:2,0:0:0:0:
67,196,35256,1,10,0:0:0:0:
67,196,35419,1,0,0:0:0:0:
26,120,35582,6,0,P|43:51|100:22,1,134.999995880127,4|10,1:2|0:0,0:0:0:0:
171,57,36071,2,0,L|241:41,1,67.4999979400635,2|0,0:0|0:0,0:0:0:0:
307,84,36397,2,0,L|377:68,1,67.4999979400635,2|8,1:2|0:0,0:0:0:0:
451,51,36723,6,0,P|482:74|497:100,1,67.4999979400635,2|0,1:2|0:0,0:0:0:0:
498,182,37049,2,0,P|466:205|451:231,1,67.4999979400635,2|8,1:2|0:0,0:0:0:0:
401,295,37375,2,0,P|361:295|333:283,1,67.4999979400635,2|0,0:0|1:0,0:0:0:0:
259,256,37701,1,8,0:0:0:0:
259,256,37783,1,8,0:0:0:0:
259,256,37864,2,0,L|225:248,3,33.7499989700318,8|4|2|0,3:0|3:0|3:0|3:0,0:0:0:0:
214,228,38191,6,0,B|199:195|224:164|224:164|247:133|233:99,1,134.999995880127,4|14,1:2|0:0,0:0:0:0:
245,17,38680,2,0,L|175:33,1,67.4999979400635,2|0,0:0|0:0,0:0:0:0:
127,98,39006,2,0,L|57:114,1,67.4999979400635,2|8,1:2|0:0,0:0:0:0:
4,180,39332,6,0,P|-5:212|1:250,1,67.4999979400635,2|0,1:2|0:0,0:0:0:0:
71,287,39658,2,0,P|80:255|74:217,1,67.4999979400635,2|8,1:2|0:0,0:0:0:0:
131,163,39984,2,0,P|122:131|128:93,1,67.4999979400635,2|0,0:0|0:0,0:0:0:0:
198,56,40310,2,0,P|207:88|201:126,1,67.4999979400635,2|8,1:2|0:0,0:0:0:0:
204,206,40636,1,2,0:0:0:0:
158,274,40799,6,0,P|216:234|283:247,1,134.999995880127,4|10,1:2|0:0,0:0:0:0:
344,291,41288,2,0,L|414:275,1,67.4999979400635,2|0,0:0|1:0,0:0:0:0:
492,256,41614,2,0,L|508:186,1,67.4999979400635,2|8,1:2|0:0,0:0:0:0:
506,108,41941,6,0,P|498:75|473:47,1,67.4999979400635,2|0,1:2|0:0,0:0:0:0:
400,19,42267,1,2,1:2:0:0:
363,94,42430,2,0,P|334:111|296:113,1,67.4999979400635,8|2,0:0|1:2,0:0:0:0:
230,72,42756,2,0,L|196:64,2,33.7499989700318,8|8|2,0:0|0:0|3:0,0:0:0:0:
132,120,43082,2,0,L|98:112,2,33.7499989700318,8|8|0,0:0|0:0|3:0,0:0:0:0:
0,176,43408,5,12,0:0:0:0:
21,262,43571,2,0,B|47:371|47:371|58:328,1,150,2|0,1:2|1:0,0:0:0:0:
136,253,44060,1,12,0:0:0:0:
189,322,44223,2,0,B|234:341|265:316|265:316|296:293|338:310,1,150,2|0,1:2|1:0,0:0:0:0:
355,318,44631,1,0,1:0:0:0:
356,317,44712,1,12,0:0:0:0:
453,366,44875,6,0,B|464:314|464:314|492:284|492:284|504:227,1,150,2|0,1:2|1:0,0:0:0:0:
487,110,45364,1,12,0:0:0:0:
412,155,45528,2,0,P|356:124|270:124,1,150,2|0,1:2|1:0,0:0:0:0:
259,139,45935,5,0,1:0:0:0:
259,139,46017,2,0,B|233:173|233:173|257:278,1,150,12|0,0:0|0:0,0:0:0:0:
187,365,46506,1,0,1:0:0:0:
133,295,46669,2,0,P|56:267|0:296,1,150,12|0,0:0|0:0,0:0:0:0:
0,196,47158,5,0,1:0:0:0:
0,196,47239,1,0,1:0:0:0:
0,196,47321,2,0,B|26:162|26:162|2:57,1,150,12|0,0:0|0:0,0:0:0:0:
73,11,47810,1,0,1:0:0:0:
133,69,47973,1,12,0:0:0:0:
221,58,48136,1,2,3:0:0:0:
221,58,48218,1,0,3:0:0:0:
221,58,48299,2,0,L|259:49,3,37.5,8|4|2|0,3:0|3:0|3:0|3:0,0:0:0:0:
281,61,48625,6,0,L|396:35,1,112.500004291535,4|2,1:2|0:0,0:0:0:0:
474,83,49114,1,0,1:0:0:0:
474,83,49196,1,0,1:0:0:0:
474,83,49278,2,0,P|494:138|477:190,1,112.500004291535,8|2,0:0|0:0,0:0:0:0:
428,258,49767,5,0,1:0:0:0:
428,258,49930,2,0,B|442:320|442:320|466:329,2,84.3750032186509,0|0|0,1:0|1:0|1:0,0:0:0:0:
347,237,50582,2,0,L|232:211,1,112.500004291535,8|2,0:0|0:0,0:0:0:0:
175,272,51071,5,0,1:0:0:0:
175,272,51153,1,0,1:0:0:0:
175,272,51234,2,0,P|121:289|64:270,1,112.500004291535,4|2,1:2|0:0,0:0:0:0:
8,215,51723,1,0,1:0:0:0:
63,150,51886,2,0,B|81:120|81:120|63:40,1,112.500004291535,8|2,0:0|0:0,0:0:0:0:
152,38,52375,5,0,1:0:0:0:
152,38,52538,2,0,B|214:24|214:24|223:0,2,84.3750032186509,0|0|0,1:0|1:0|1:0,0:0:0:0:
63,44,53191,2,0,L|76:103,1,56.2500021457673,8|0,0:0|1:0,0:0:0:0:
95,184,53517,1,10,0:0:0:0:
116,269,53680,1,8,0:0:0:0:
178,207,53843,6,0,B|239:162|305:215|305:215|367:264|428:221,1,269.999991760254,8|0,3:0|0:0,0:0:0:0:
405,124,55147,2,0,P|417:70|469:11,2,134.999995880127,2|0|0,0:0|0:0|0:0,0:0:0:0:
358,221,56451,6,0,B|224:190|224:190|196:148|196:148|70:120,1,314.999990386963,2|0,0:0|0:0,0:0:0:0:
15,186,57593,5,0,1:0:0:0:
15,186,57674,1,0,1:0:0:0:
15,186,57756,1,8,0:0:0:0:
32,269,57919,1,8,0:0:0:0:
32,269,59060,6,0,L|116:248,1,82.5000025177003,4|0,1:2|0:0,0:0:0:0:
171,308,59386,2,0,P|194:268|196:230,1,82.5000025177003,14|0,0:0|0:0,0:0:0:0:
215,148,59712,1,2,1:2:0:0:
276,210,59875,2,0,L|360:189,1,82.5000025177003,2|8,1:2|0:0,0:0:0:0:
461,137,60201,6,0,P|447:52|377:13,1,165.000005035401,6|2,1:2|1:2,0:0:0:0:
298,6,60691,2,0,P|271:41|266:86,1,82.5000025177003,10|0,0:0|0:0,0:0:0:0:
183,51,61017,1,2,1:2:0:0:
126,118,61180,2,0,P|85:119|48:102,1,82.5000025177003,2|8,1:2|0:0,0:0:0:0:
0,15,61506,6,0,B|29:138|29:138|9:173,1,165.000005035401,4|2,1:2|1:2,0:0:0:0:
0,269,61995,2,0,L|84:248,1,82.5000025177003,10|0,0:0|0:0,0:0:0:0:
160,285,62321,1,2,1:2:0:0:
216,219,62484,2,0,L|300:198,1,82.5000025177003,2|8,1:2|0:0,0:0:0:0:
357,307,62810,6,0,B|399:336|434:311|434:311|475:284|516:310,1,165.000005035401,4|0,1:2|1:0,0:0:0:0:
512,218,63299,2,0,P|520:170|510:136,1,82.5000025177003,10|0,0:0|0:0,0:0:0:0:
441,90,63625,1,2,1:2:0:0:
366,131,63788,1,10,0:0:0:0:
294,86,63951,1,8,0:0:0:0:
228,191,64114,6,0,P|145:190|67:164,1,165.000005035401,4|2,1:2|1:2,0:0:0:0:
32,83,64604,2,0,P|51:44|89:21,1,82.5000025177003,14|0,0:0|0:0,0:0:0:0:
168,8,64930,1,2,1:2:0:0:
241,57,65093,2,0,P|283:64|328:51,1,82.5000025177003,2|8,1:2|0:0,0:0:0:0:
416,25,65419,6,0,B|445:148|445:148|425:183,1,165.000005035401,6|2,1:2|1:2,0:0:0:0:
412,267,65908,2,0,L|328:246,1,82.5000025177003,10|0,0:0|0:0,0:0:0:0:
290,169,66234,1,2,1:2:0:0:
216,216,66397,2,0,L|132:195,1,82.5000025177003,2|8,1:2|0:0,0:0:0:0:
39,146,66723,6,0,B|10:188|35:223|35:223|62:264|36:305,1,165.000005035401,4|2,1:2|1:2,0:0:0:0:
82,377,67212,1,8,0:0:0:0:
180,322,67375,2,0,P|246:292|336:296,1,165.000005035401,4|2,1:2|1:2,0:0:0:0:
410,339,67864,1,8,0:0:0:0:
480,253,68028,6,0,P|487:209|474:168,1,82.5000025177003,4|0,1:2|0:0,0:0:0:0:
434,99,68354,1,8,0:0:0:0:
434,99,68435,1,8,0:0:0:0:
434,99,68517,2,0,L|387:87,3,41.2500012588501,8|4|2|0,3:0|3:0|3:0|3:0,0:0:0:0:
367,81,68843,5,8,0:0:0:0:
313,167,69006,1,8,0:0:0:0:
313,167,69332,6,0,L|152:126,1,165.000005035401,4|2,1:2|1:2,0:0:0:0:
92,66,69821,2,0,P|74:93|70:144,1,82.5000025177003,12|2,0:0|1:2,0:0:0:0:
72,229,70147,2,0,P|69:268|49:304,1,82.5000025177003,8|2,0:0|1:2,0:0:0:0:
106,375,70473,1,8,0:0:0:0:
174,315,70636,5,2,1:2:0:0:
174,315,70718,1,0,1:0:0:0:
174,315,70799,1,8,0:0:0:0:
246,365,70962,2,0,L|330:344,1,82.5000025177003,2|8,1:2|0:0,0:0:0:0:
370,267,71288,2,0,L|454:246,1,82.5000025177003,2|8,1:2|0:0,0:0:0:0:
473,160,71614,2,0,L|520:148,2,41.2500012588501,2|0|8,1:2|1:0|0:0,0:0:0:0:
413,96,71941,5,2,1:2:0:0:
413,96,72022,1,0,1:0:0:0:
413,96,72104,2,0,P|372:87|331:96,1,82.5000025177003,12|2,0:0|1:2,0:0:0:0:
254,134,72430,2,0,P|213:143|172:134,1,82.5000025177003,8|2,0:0|1:2,0:0:0:0:
103,91,72756,1,8,0:0:0:0:
25,52,72919,2,0,P|16:93|25:134,1,82.5000025177003,2|8,1:2|0:0,0:0:0:0:
57,225,73245,5,2,1:2:0:0:
57,225,73326,1,0,1:0:0:0:
57,225,73408,2,0,L|36:309,1,82.5000025177003,8|2,0:0|1:2,0:0:0:0:
109,352,73734,1,8,0:0:0:0:
177,300,73897,1,2,1:2:0:0:
242,355,74060,2,0,L|289:343,2,41.2500012588501,8|8|8,0:0|0:0|3:0,0:0:0:0:
314,265,74386,2,0,L|398:244,1,82.5000025177003,12|0,0:0|1:0,0:0:0:0:
442,151,74712,6,0,P|462:109|460:69,1,82.5000025177003,14|0,0:0|1:0,0:0:0:0:
399,13,75038,1,0,1:0:0:0:
378,97,75201,2,0,P|336:117|296:115,1,82.5000025177003,14|0,0:0|1:0,0:0:0:0:
256,43,75528,1,0,1:0:0:0:
211,116,75691,6,0,P|170:115|134:97,1,82.5000025177003,14|0,0:0|1:0,0:0:0:0:
113,13,76017,1,0,1:0:0:0:
50,73,76180,2,0,P|51:114|70:151,1,82.5000025177003,14|0,0:0|1:0,0:0:0:0:
144,196,76506,1,0,1:0:0:0:
211,116,76669,6,0,L|295:95,1,82.5000025177003,12|0,0:0|1:0,0:0:0:0:
357,155,76995,2,0,L|441:134,1,82.5000025177003,12|0,0:0|1:0,0:0:0:0:
425,33,77321,5,8,0:0:0:0:
425,33,77403,1,8,0:0:0:0:
425,33,77484,2,0,L|341:12,1,82.5000025177003,8|2,3:0|3:0,0:0:0:0:
271,57,77810,1,8,0:0:0:0:
271,57,77891,1,8,0:0:0:0:
271,57,77973,2,0,L|224:45,3,41.2500012588501,0|0|0|0,3:0|3:0|3:0|3:0,0:0:0:0:
204,75,78299,2,0,L|157:63,3,41.2500012588501,8|8|4|2,0:0|3:0|3:0|3:0,0:0:0:0:
131,56,78625,5,8,0:0:0:0:
143,153,78788,1,8,0:0:0:0:
143,153,79441,5,0,1:0:0:0:
143,153,79522,1,0,1:0:0:0:
143,153,79604,2,0,B|127:218|127:218|99:239,1,95.6250018239022,12|0,0:0|0:0,0:0:0:0:
77,258,79930,6,0,L|95:330,1,75,6|0,1:2|0:0,0:0:0:0:
173,366,80256,2,0,L|245:348,1,75,10|0,0:0|0:0,0:0:0:0:
290,276,80582,2,0,L|362:258,1,75,2|0,1:2|1:0,0:0:0:0:
436,303,80908,1,10,0:0:0:0:
457,185,81071,6,0,B|469:132|469:132|500:106|500:106|513:51,1,150,4|0,1:2|1:0,0:0:0:0:
433,32,81560,2,0,P|393:17|357:21,1,75,10|0,0:0|0:0,0:0:0:0:
286,58,81886,1,2,1:2:0:0:
286,58,82049,1,0,1:0:0:0:
210,96,82212,2,0,P|172:97|138:83,1,75,10|0,0:0|1:0,0:0:0:0:
14,69,82538,6,0,L|32:141,1,75,12|8,0:0|3:0,0:0:0:0:
56,227,82864,1,8,3:0:0:0:
129,174,83028,2,0,L|147:246,1,75,12|4,0:0|3:0,0:0:0:0:
168,333,83354,1,4,3:0:0:0:
231,271,83518,6,0,L|303:253,1,75,12|0,0:0|0:0,0:0:0:0:
377,303,83843,1,2,3:0:0:0:
421,228,84007,2,0,L|493:210,1,75,12|0,0:0|0:0,0:0:0:0:
509,124,84332,1,0,3:0:0:0:
438,65,84496,6,0,L|420:137,1,75,12|0,0:0|0:0,0:0:0:0:
336,229,84821,1,2,3:0:0:0:
292,154,84984,1,4,1:2:0:0:
256,192,85066,12,0,89549,0:0:0:0:
