osu file format v14

[General]
AudioFilename: audio.mp3
AudioLeadIn: 0
PreviewTime: 58000
Countdown: 0
SampleSet: Soft
StackLeniency: 0.2
Mode: 0
LetterboxInBreaks: 0
WidescreenStoryboard: 1

[Editor]
DistanceSpacing: 0.7
BeatDivisor: 4
GridSize: 32
TimelineZoom: 6.549997

[Metadata]
Title:Kodou (TV Size)
TitleUnicode:鼓動 (TV Size)
Artist:Aoi Eir
ArtistUnicode:藍井エイル
Creator:Nevertary
Version:Angelic Sparkle
Source:バック・アロウ
Tags:Back Arrow anime opening op season 2 s2 山田竜平 Yamada Ryuuhei japanese pop jpop j-pop rock jrock j-rock
BeatmapID:3116391
BeatmapSetID:1522877

[Difficulty]
HPDrainRate:6
CircleSize:4
OverallDifficulty:9
ApproachRate:9.2
SliderMultiplier:1.7
SliderTickRate:1

[Events]
//Background and Video events
0,0,"BG.jpg",0,0
Video,0,"bgv.mp4"
//Break Periods
//Storyboard Layer 0 (Background)
//Storyboard Layer 1 (Fail)
//Storyboard Layer 2 (Pass)
//Storyboard Layer 3 (Foreground)
//Storyboard Layer 4 (Overlay)
//Storyboard Sound Samples

[TimingPoints]
365,326.086956521739,4,2,2,55,1,0
365,-166.666666666667,4,2,2,55,0,0
5582,-500,4,2,2,55,0,0
6560,-83.3333333333333,4,2,2,55,0,0
6805,-83.3333333333333,4,2,2,5,0,0
6886,-142.857142857143,4,2,2,65,0,0
9495,-83.3333333333333,4,2,2,65,0,0
9739,-83.3333333333333,4,2,2,5,0,0
9821,-71.4285714285714,4,2,2,65,0,0
10066,-71.4285714285714,4,2,2,5,0,0
10147,-62.5,4,2,2,65,0,0
10392,-62.5,4,2,2,5,0,0
10473,-62.5,4,2,2,65,0,0
10799,-83.3333333333333,4,2,2,70,0,0
10881,-83.3333333333333,4,2,2,5,0,0
10962,-83.3333333333333,4,2,2,70,0,0
11370,-83.3333333333333,4,2,2,5,0,0
11451,-83.3333333333333,4,2,2,70,0,0
11778,-55.5555555555556,4,2,2,70,0,0
12022,-55.5555555555556,4,2,2,5,0,0
12104,-83.3333333333333,4,2,2,75,0,0
12348,-83.3333333333333,4,2,2,5,0,0
12430,-83.3333333333333,4,2,2,75,0,0
14957,-83.3333333333333,4,2,2,5,0,0
15038,-83.3333333333333,4,2,2,75,0,0
17566,-83.3333333333333,4,2,2,5,0,0
17647,-83.3333333333333,4,2,2,75,0,0
19930,-76.9230769230769,4,2,2,75,0,0
20011,-76.9230769230769,4,2,2,5,0,0
20093,-76.9230769230769,4,2,2,75,0,0
20419,-66.6666666666667,4,2,2,75,0,0
20500,-66.6666666666667,4,2,2,5,0,0
20582,-66.6666666666667,4,2,2,75,0,0
20908,-58.8235294117647,4,2,2,75,0,0
20989,-58.8235294117647,4,2,2,5,0,0
21071,-58.8235294117647,4,2,2,75,0,0
21397,-52.6315789473684,4,2,2,75,0,0
21479,-52.6315789473684,4,2,2,5,0,0
21560,-52.6315789473684,4,2,2,75,0,0
21886,-71.4285714285714,4,2,2,75,0,0
22538,-117.647058823529,4,2,2,60,0,0
22783,-117.647058823529,4,2,2,5,0,0
22864,-117.647058823529,4,2,2,60,0,0
25392,-117.647058823529,4,2,2,5,0,0
25473,-117.647058823529,4,2,2,60,0,0
28000,-117.647058823529,4,2,2,5,0,0
28082,-117.647058823529,4,2,2,60,0,0
30609,-117.647058823529,4,2,2,5,0,0
30691,-117.647058823529,4,2,2,60,0,0
32973,-100,4,2,2,65,0,0
33218,-100,4,2,2,5,0,0
33299,-100,4,2,2,65,0,0
35826,-100,4,2,2,5,0,0
35908,-100,4,2,2,65,0,0
38435,-100,4,2,2,5,0,0
38517,-100,4,2,2,65,0,0
41044,-100,4,2,2,5,0,0
41125,-100,4,2,2,65,0,0
43408,-83.3333333333333,4,2,2,70,0,0
43489,-83.3333333333333,4,2,2,5,0,0
43571,-83.3333333333333,4,2,2,70,0,0
44142,-83.3333333333333,4,2,2,5,0,0
44223,-83.3333333333333,4,2,2,70,0,0
45446,-83.3333333333333,4,2,2,5,0,0
45528,-83.3333333333333,4,2,2,70,0,0
46587,-83.3333333333333,4,2,2,5,0,0
46669,-83.3333333333333,4,2,2,70,0,0
47892,-83.3333333333333,4,2,2,5,0,0
47973,-83.3333333333333,4,2,2,70,0,0
48625,-125,4,2,2,60,0,0
53843,-250,4,2,2,55,0,0
55066,-250,4,2,2,5,0,0
55147,-250,4,2,2,55,0,0
55555,-250,4,2,2,5,0,0
55636,-250,4,2,2,55,0,0
56125,-250,4,2,2,5,0,0
56451,-200,4,2,2,60,0,0
57511,-200,4,2,2,5,0,0
57593,-200,4,2,2,60,0,0
57756,-83.3333333333333,4,2,2,60,0,0
57837,-83.3333333333333,4,2,2,5,0,0
57919,-83.3333333333333,4,2,2,60,0,0
58000,-83.3333333333333,4,2,2,5,0,0
59060,-71.4285714285714,4,2,1,80,0,1
59305,-71.4285714285714,4,2,1,5,0,1
59386,-71.4285714285714,4,2,1,80,0,1
63870,-71.4285714285714,4,2,1,5,0,1
63951,-71.4285714285714,4,2,1,80,0,1
64033,-71.4285714285714,4,2,1,5,0,1
64114,-71.4285714285714,4,2,1,80,0,1
66723,-55.5555555555556,4,2,1,80,0,1
66968,-55.5555555555556,4,2,1,5,0,1
67049,-55.5555555555556,4,2,1,80,0,1
67131,-55.5555555555556,4,2,1,5,0,1
67212,-55.5555555555556,4,2,1,80,0,1
67375,-62.5,4,2,1,80,0,1
67620,-62.5,4,2,1,5,0,1
67701,-62.5,4,2,1,80,0,1
67783,-62.5,4,2,1,5,0,1
67864,-62.5,4,2,1,80,0,1
68028,-71.4285714285714,4,2,1,80,0,1
68272,-71.4285714285714,4,2,1,5,0,1
68354,-71.4285714285714,4,2,1,80,0,1
68843,-71.4285714285714,4,2,1,80,0,0
68924,-71.4285714285714,4,2,1,5,0,0
69006,-71.4285714285714,4,2,1,80,0,0
69332,-71.4285714285714,4,2,1,80,0,1
78951,-71.4285714285714,4,2,2,75,0,0
79604,-55.5555555555556,4,2,2,75,0,0
79848,-55.5555555555556,4,2,2,5,0,0
79930,-83.3333333333333,4,2,2,75,0,0
80174,-83.3333333333333,4,2,2,5,0,0
80256,-83.3333333333333,4,2,2,75,0,0
82538,-76.9230769230769,4,2,2,75,0,0
82620,-76.9230769230769,4,2,2,5,0,0
82701,-76.9230769230769,4,2,2,75,0,0
83028,-66.6666666666667,4,2,2,75,0,0
83109,-66.6666666666667,4,2,2,5,0,0
83191,-66.6666666666667,4,2,2,75,0,0
83517,-58.8235294117647,4,2,2,75,0,0
83598,-58.8235294117647,4,2,2,5,0,0
83680,-58.8235294117647,4,2,2,75,0,0
84006,-52.6315789473684,4,2,2,75,0,0
84087,-52.6315789473684,4,2,2,5,0,0
84169,-52.6315789473684,4,2,2,75,0,0
84495,-71.4285714285714,4,2,2,75,0,0
84576,-71.4285714285714,4,2,2,5,0,0
84658,-71.4285714285714,4,2,2,75,0,0
84984,-212.765957446809,4,2,2,75,0,0
89549,-212.765957446809,4,2,2,5,0,0

[Colours]
Combo1 : 255,159,64
Combo2 : 12,57,126
Combo3 : 222,118,186
Combo4 : 84,147,222

[HitObjects]
391,228,1669,6,0,P|386:192|360:71,2,152.999995330811,2|0|2,0:0|0:0|0:0,0:0:0:0:
290,31,2973,6,0,P|367:53|429:11,2,152.999995330811,2|0|2,0:0|0:0|0:0,0:0:0:0:
168,252,4278,6,0,B|125:264|99:232|99:232|73:198|24:211,2,152.999995330811,2|0|2,0:0|0:0|0:0,0:0:0:0:
119,39,5582,6,0,L|103:125,1,85,2|2,0:0|0:0,0:0:0:0:
15,167,6479,5,2,0:0:0:0:
25,161,6560,2,0,P|80:142|158:196,1,152.999995330811,2|0,0:0|0:0,0:0:0:0:
199,259,6886,5,4,1:2:0:0:
240,250,7212,1,0,1:0:0:0:
282,241,7538,1,0,1:0:0:0:
323,233,7864,1,0,1:0:0:0:
497,149,8191,5,0,1:0:0:0:
422,131,8517,1,0,1:0:0:0:
348,113,8843,1,0,1:0:0:0:
273,95,9169,1,0,1:0:0:0:
320,273,9495,6,0,B|434:245|434:245|404:270,1,152.999995330811,2|0,1:2|0:0,0:0:0:0:
221,278,9821,6,0,B|353:246|353:246|302:286,1,178.499994552612,2|0,1:2|0:0,0:0:0:0:
98,284,10147,6,0,B|253:247|253:247|218:280,1,204,2|0,1:2|0:0,0:0:0:0:
19,280,10473,5,8,0:0:0:0:
68,268,10554,1,8,0:0:0:0:
118,256,10636,1,8,0:0:0:0:
167,244,10717,1,8,0:0:0:0:
217,232,10799,6,0,L|276:217,1,50.9999984436036,8|0,0:0|0:0,0:0:0:0:
404,184,10962,1,0,3:0:0:0:
428,177,11043,1,0,3:0:0:0:
453,171,11125,1,0,3:0:0:0:
307,86,11288,6,0,L|322:145,1,50.9999984436036,8|0,0:0|0:0,0:0:0:0:
355,273,11451,1,0,3:0:0:0:
362,297,11532,1,0,3:0:0:0:
368,322,11614,1,0,3:0:0:0:
375,346,11696,1,0,3:0:0:0:
382,370,11778,6,0,B|324:400|275:355|275:355|223:311|169:342,1,229.499992996216,12|0,0:0|0:0,0:0:0:0:
86,380,12104,6,0,B|70:322|70:322|86:284|86:284|71:225,1,152.999995330811,6|0,1:2|0:0,0:0:0:0:
75,156,12430,2,0,L|104:267,1,101.999996887207,10|0,0:0|0:0,0:0:0:0:
269,66,12756,1,2,1:2:0:0:
190,146,12919,1,0,1:0:0:0:
43,35,13082,1,10,0:0:0:0:
100,254,13245,6,0,P|169:195|295:212,1,203.999993774414,4|0,1:2|1:0,0:0:0:0:
409,358,13734,2,0,P|363:319|352:273,1,101.999996887207,10|0,0:0|0:0,0:0:0:0:
476,150,14060,1,2,1:2:0:0:
445,271,14223,1,0,1:0:0:0:
277,201,14386,2,0,L|388:172,1,101.999996887207,10|0,0:0|0:0,0:0:0:0:
159,29,14712,6,0,B|132:134|132:134|86:150,1,152.999995330811,6|0,1:2|0:0,0:0:0:0:
64,247,15038,2,0,L|93:136,1,101.999996887207,10|0,0:0|0:0,0:0:0:0:
283,20,15364,1,2,1:2:0:0:
235,118,15528,1,0,1:0:0:0:
402,18,15691,1,10,0:0:0:0:
472,224,15854,6,0,P|386:155|306:187,1,203.999993774414,4|0,1:2|1:0,0:0:0:0:
348,344,16343,5,10,0:0:0:0:
380,246,16506,1,0,0:0:0:0:
230,369,16669,1,2,1:2:0:0:
198,271,16832,1,0,1:0:0:0:
0,320,16995,5,8,0:0:0:0:
49,308,17076,1,8,0:0:0:0:
99,296,17158,1,8,0:0:0:0:
148,284,17239,1,8,0:0:0:0:
198,271,17321,6,0,L|357:231,1,152.999995330811,6|0,1:2|0:0,0:0:0:0:
301,362,17647,2,0,B|271:322|271:322|277:270,1,101.999996887207,14|0,0:0|0:0,0:0:0:0:
383,139,17973,1,2,1:2:0:0:
437,238,18136,1,0,1:0:0:0:
495,62,18299,1,10,0:0:0:0:
278,162,18462,6,0,B|221:186|180:143|180:143|138:101|86:123,1,203.999993774414,4|0,1:2|1:0,0:0:0:0:
0,284,18951,2,0,P|28:240|79:217,1,101.999996887207,10|0,0:0|0:0,0:0:0:0:
198,352,19278,1,2,1:2:0:0:
94,314,19441,1,0,1:0:0:0:
205,148,19604,2,0,L|176:259,1,101.999996887207,10|0,0:0|0:0,0:0:0:0:
472,75,19930,6,0,B|463:65|466:48|466:48|477:62|473:75,1,55.2499974708558,4|0,1:2|0:0,0:0:0:0:
500,169,20093,1,8,3:0:0:0:
506,190,20174,1,8,3:0:0:0:
512,212,20256,1,8,3:0:0:0:
343,86,20419,6,0,B|332:74|336:56|336:56|348:68|344:86,1,63.7500024318696,4|0,1:2|0:0,0:0:0:0:
379,211,20582,1,4,3:0:0:0:
387,242,20663,1,4,3:0:0:0:
395,273,20745,1,4,3:0:0:0:
210,98,20908,6,0,B|196:83|203:63|203:63|217:77|211:97,1,72.2500013780594,4|0,1:2|0:0,0:0:0:0:
254,256,21071,1,2,3:0:0:0:
264,290,21152,1,2,3:0:0:0:
273,327,21234,1,2,3:0:0:0:
83,108,21397,6,0,B|69:90|75:70|75:70|88:86|82:109,1,80.7499978437424,4|0,1:2|0:0,0:0:0:0:
114,252,21560,1,0,3:0:0:0:
120,285,21641,1,0,3:0:0:0:
126,318,21723,1,0,3:0:0:0:
134,353,21805,1,0,3:0:0:0:
140,384,21886,5,12,0:2:0:0:
0,273,22049,1,0,1:0:0:0:
283,140,22212,2,0,L|253:257,1,118.999996368408,12|0,0:0|0:0,0:0:0:0:
14,80,22538,6,0,P|72:85|119:55,1,108.375002067089,6|0,1:2|0:0,0:0:0:0:
143,36,22864,2,0,L|123:118,1,72.2500013780594,8|0,0:0|0:0,0:0:0:0:
165,243,23191,1,0,1:0:0:0:
165,243,23354,2,0,L|186:157,1,72.2500013780594,0|0,1:0|0:0,0:0:0:0:
265,384,23680,6,0,P|215:332|143:334,1,144.500002756119,10|0,0:0|1:0,0:0:0:0:
312,293,24169,2,0,L|395:272,1,72.2500013780594,8|0,0:0|0:0,0:0:0:0:
504,143,24495,1,0,1:0:0:0:
504,143,24658,1,0,1:0:0:0:
413,130,24821,2,0,L|434:213,1,72.2500013780594,8|0,0:0|0:0,0:0:0:0:
317,83,25147,6,0,P|258:56|202:55,1,108.375002067089,6|0,1:2|0:0,0:0:0:0:
164,99,25473,2,0,P|198:81|218:48,1,72.2500013780594,8|0,0:0|0:0,0:0:0:0:
263,219,25799,1,0,1:0:0:0:
263,219,25962,2,0,P|229:201|209:168,1,72.2500013780594,0|0,1:0|0:0,0:0:0:0:
37,300,26288,6,0,P|98:269|177:269,1,144.500002756119,10|0,0:0|1:0,0:0:0:0:
30,139,26778,2,0,P|61:155|82:184,1,72.2500013780594,8|0,0:0|0:0,0:0:0:0:
137,56,27104,1,0,1:0:0:0:
137,56,27267,1,0,1:0:0:0:
196,123,27430,1,8,0:0:0:0:
350,43,27593,5,8,3:0:0:0:
354,53,27674,1,4,3:0:0:0:
358,63,27756,2,0,L|329:175,1,108.375002067089,6|0,1:2|0:0,0:0:0:0:
326,245,28082,2,0,L|347:165,1,72.2500013780594,12|0,0:0|0:0,0:0:0:0:
450,91,28408,1,0,1:0:0:0:
450,91,28571,2,0,L|431:160,1,72.2500013780594,0|0,1:0|0:0,0:0:0:0:
444,295,28897,6,0,P|396:244|326:245,1,144.500002756119,10|0,0:0|1:0,0:0:0:0:
240,320,29386,2,0,L|165:300,1,72.2500013780594,8|0,0:0|0:0,0:0:0:0:
43,180,29712,1,0,1:0:0:0:
43,180,29875,1,0,1:0:0:0:
27,271,30038,2,0,L|98:253,1,72.2500013780594,8|0,0:0|0:0,0:0:0:0:
220,93,30364,6,0,B|187:112|187:112|104:91,1,108.375002067089,6|0,1:2|0:0,0:0:0:0:
99,103,30691,2,0,L|28:85,1,72.2500013780594,8|0,0:0|0:0,0:0:0:0:
175,21,31017,1,0,1:0:0:0:
175,21,31180,1,0,1:0:0:0:
271,163,31343,1,12,0:0:0:0:
306,85,31506,1,0,1:0:0:0:
119,321,31669,5,8,0:0:0:0:
375,257,31832,1,8,0:0:0:0:
375,257,32484,6,0,L|383:225,3,24.0833337926865,8|8|4|2,0:0|3:0|3:0|3:0,0:0:0:0:
375,257,32973,6,0,B|280:233|280:233|254:254,1,127.5,4|0,1:2|0:0,0:0:0:0:
244,265,33299,2,0,L|156:242,1,85,14|0,0:0|0:0,0:0:0:0:
10,165,33625,1,2,0:0:0:0:
79,99,33788,2,0,L|102:186,1,85,2|8,1:2|0:0,0:0:0:0:
256,32,34114,6,0,P|216:57|194:102,1,85,2|0,1:2|0:0,0:0:0:0:
363,114,34441,2,0,P|317:103|270:120,1,85,2|8,1:2|0:0,0:0:0:0:
379,248,34767,2,0,P|353:208|308:186,1,85,2|0,0:0|0:0,0:0:0:0:
235,338,35093,1,2,1:2:0:0:
127,257,35256,1,10,0:0:0:0:
57,315,35419,1,0,0:0:0:0:
0,171,35582,6,0,P|75:170|116:133,1,127.5,4|0,1:2|0:0,0:0:0:0:
124,124,35908,1,10,0:0:0:0:
16,11,36071,2,0,L|38:98,1,85,2|0,0:0|0:0,0:0:0:0:
199,186,36397,2,0,L|219:103,1,85,2|8,1:2|0:0,0:0:0:0:
366,265,36723,6,0,P|376:310|360:358,1,85,2|0,1:2|0:0,0:0:0:0:
333,173,37049,1,2,1:2:0:0:
200,267,37212,2,0,P|189:221|205:173,1,85,8|2,0:0|0:0,0:0:0:0:
366,265,37538,1,0,1:0:0:0:
445,66,37701,5,8,0:0:0:0:
414,58,37783,1,8,0:0:0:0:
390,78,37865,1,8,3:0:0:0:
390,110,37947,1,4,3:0:0:0:
414,130,38027,1,2,3:0:0:0:
445,123,38109,1,0,3:0:0:0:
459,94,38191,6,0,P|393:74|322:74,1,127.5,4|0,1:2|0:0,0:0:0:0:
316,75,38517,1,14,0:0:0:0:
278,249,38680,2,0,P|319:223|339:178,1,85,2|0,0:0|0:0,0:0:0:0:
175,125,39006,2,0,P|164:172|181:217,1,85,2|8,1:2|0:0,0:0:0:0:
259,341,39332,6,0,L|346:318,1,85,2|0,1:2|0:0,0:0:0:0:
411,260,39658,2,0,L|433:347,1,85,2|8,1:2|0:0,0:0:0:0:
256,166,39984,2,0,L|277:248,1,85,2|0,0:0|0:0,0:0:0:0:
431,168,40310,2,0,L|343:190,1,85,2|8,1:2|0:0,0:0:0:0:
364,99,40636,1,2,0:0:0:0:
183,232,40799,6,0,B|88:208|88:208|62:229,1,127.5,4|0,1:2|0:0,0:0:0:0:
54,239,41125,1,10,0:0:0:0:
0,69,41288,2,0,P|41:95|61:139,1,85,2|0,0:0|1:0,0:0:0:0:
180,0,41614,2,0,P|139:26|118:70,1,85,2|8,1:2|0:0,0:0:0:0:
258,173,41941,6,0,L|236:91,1,85,2|0,1:2|0:0,0:0:0:0:
350,248,42267,2,0,L|370:165,1,85,2|8,1:2|0:0,0:0:0:0:
440,322,42593,1,2,1:2:0:0:
208,261,42756,5,8,0:0:0:0:
204,281,42837,1,8,0:0:0:0:
200,302,42919,1,2,3:0:0:0:
63,188,43082,5,8,0:0:0:0:
67,208,43163,1,8,0:0:0:0:
71,229,43245,1,0,3:0:0:0:
251,46,43408,6,0,P|251:34|249:48,1,50.9999984436036,12|0,0:0|0:0,0:0:0:0:
414,60,43571,2,0,B|355:43|319:95|319:95|281:144|225:128,1,203.999993774414,2|0,1:2|1:0,0:0:0:0:
399,242,44060,6,0,P|399:230|401:244,1,50.9999984436036,12|0,0:0|0:0,0:0:0:0:
236,256,44223,2,0,B|295:239|331:291|331:291|369:340|425:324,1,203.999993774414,2|0,1:2|1:0,0:0:0:0:
445,323,44631,5,0,1:0:0:0:
458,321,44712,1,12,0:0:0:0:
255,355,44875,2,0,B|176:337|176:337|149:302|149:302|57:279,1,203.999993774414,2|0,1:2|1:0,0:0:0:0:
228,46,45364,6,0,L|214:100,1,50.9999984436036,12|0,0:0|0:0,0:0:0:0:
236,256,45528,2,0,B|256:177|256:177|291:150|291:150|314:58,1,203.999993774414,2|0,1:2|1:0,0:0:0:0:
387,170,45935,5,0,1:0:0:0:
395,177,46017,2,0,P|464:185|497:71,1,203.999993774414,12|0,0:0|0:0,0:0:0:0:
309,74,46506,6,0,L|297:129,1,50.9999984436036,0|0,1:0|0:0,0:0:0:0:
343,260,46669,2,0,B|196:222|196:222|243:262,1,203.999993774414,12|0,0:0|0:0,0:0:0:0:
137,16,47158,5,0,1:0:0:0:
141,25,47239,1,0,1:0:0:0:
146,34,47321,2,0,B|108:181|108:181|148:134,1,203.999993774414,12|0,0:0|0:0,0:0:0:0:
399,125,47810,6,0,P|395:140|394:121,1,50.9999984436036,0|0,1:0|0:0,0:0:0:0:
369,29,47973,1,12,0:0:0:0:
419,238,48136,5,2,3:0:0:0:
423,254,48217,1,0,3:0:0:0:
427,270,48299,1,8,3:0:0:0:
431,287,48380,1,4,3:0:0:0:
435,303,48462,1,2,3:0:0:0:
440,320,48543,1,0,3:0:0:0:
444,336,48625,6,0,B|406:320|375:345|375:345|344:371|307:357,1,136,4|2,1:2|0:0,0:0:0:0:
164,280,49114,1,0,1:0:0:0:
152,276,49196,1,0,1:0:0:0:
140,274,49278,2,0,P|88:288|54:357,1,136,8|2,0:0|0:0,0:0:0:0:
33,71,49767,5,0,1:0:0:0:
33,71,49930,2,0,L|62:182,2,101.999996887207,0|0|0,1:0|1:0|1:0,0:0:0:0:
199,201,50582,2,0,P|260:170|334:170,1,136,8|2,0:0|0:0,0:0:0:0:
512,261,51071,5,0,1:0:0:0:
506,269,51153,1,0,1:0:0:0:
499,278,51234,2,0,B|461:294|430:269|430:269|399:243|362:257,1,136,4|2,1:2|0:0,0:0:0:0:
448,38,51723,1,0,1:0:0:0:
454,47,51805,1,0,1:0:0:0:
459,56,51886,2,0,B|432:160|432:160|459:126,1,136,8|2,0:0|0:0,0:0:0:0:
227,231,52375,5,0,1:0:0:0:
227,231,52538,2,0,P|270:246|307:304,2,102,0|0|0,1:0|1:0|1:0,0:0:0:0:
75,283,53191,2,0,L|-2:263,1,68,8|0,0:0|1:0,0:0:0:0:
62,186,53517,1,10,0:0:0:0:
20,363,53680,1,8,0:0:0:0:
75,283,53843,6,0,B|145:256|192:313|192:313|234:365|304:339,1,255,8|0,3:0|0:0,0:0:0:0:
394,336,55147,6,0,P|415:356|385:344,1,85,2|0,0:0|0:0,0:0:0:0:
401,253,55636,6,0,P|407:204|423:151,1,102,2|0,0:0|0:0,0:0:0:0:
213,122,56451,6,0,B|184:106|157:111|130:128|124:180|146:206|188:212|243:206|281:177|309:157,1,276.25,2|0,0:0|0:0,0:0:0:0:
381,96,57593,5,0,1:0:0:0:
384,84,57674,1,0,1:0:0:0:
387,73,57756,2,0,L|403:15,1,50.9999984436036,8|0,0:0|0:0,0:0:0:0:
322,303,57919,2,0,L|306:361,1,50.9999984436036,8|0,0:0|0:0,0:0:0:0:
322,303,59060,6,0,B|189:269|189:269|153:298,1,178.499994552612,4|0,1:2|0:0,0:0:0:0:
142,310,59386,2,0,L|17:278,1,118.999996368408,14|0,0:0|0:0,0:0:0:0:
173,97,59712,1,2,1:2:0:0:
338,211,59875,2,0,L|213:179,1,118.999996368408,2|8,1:2|0:0,0:0:0:0:
6,102,60201,6,0,P|90:118|153:-5,1,237.999992736817,6|2,1:2|1:2,0:0:0:0:
239,290,60691,1,10,0:0:0:0:
133,136,60854,1,0,0:0:0:0:
173,384,61017,1,2,1:2:0:0:
187,213,61180,1,2,1:2:0:0:
353,251,61343,1,8,0:0:0:0:
46,373,61506,6,0,B|223:326|223:326|196:334|179:362,1,237.999992736817,4|2,1:2|1:2,0:0:0:0:
389,150,61995,1,10,0:0:0:0:
187,213,62158,1,0,0:0:0:0:
458,246,62321,1,2,1:2:0:0:
289,182,62484,1,2,1:2:0:0:
393,33,62647,1,8,0:0:0:0:
187,213,62810,6,0,B|119:215|97:145|97:145|74:75|9:77,1,237.999992736817,4|0,1:2|1:0,0:0:0:0:
0,358,63299,2,0,P|13:297|53:255,1,118.999996368408,10|0,0:0|0:0,0:0:0:0:
195,118,63625,1,2,1:2:0:0:
313,281,63788,2,0,L|296:343,1,59.4999981842042,10|0,0:0|0:0,0:0:0:0:
370,84,63951,2,0,L|353:146,1,59.4999981842042,8|0,0:0|0:0,0:0:0:0:
509,384,64114,6,0,B|421:360|421:360|394:303|394:303|292:276,1,237.999992736817,4|2,1:2|1:2,0:0:0:0:
0,358,64604,1,14,0:0:0:0:
157,248,64767,1,0,0:0:0:0:
262,369,64930,1,2,1:2:0:0:
47,186,65093,2,0,L|79:311,1,118.999996368408,2|8,1:2|0:0,0:0:0:0:
319,137,65419,6,0,L|262:369,1,237.999992736817,6|2,1:2|1:2,0:0:0:0:
243,70,65908,1,10,0:0:0:0:
399,200,66071,1,0,0:0:0:0:
220,163,66234,1,2,1:2:0:0:
416,106,66397,1,2,1:2:0:0:
281,293,66560,1,8,0:0:0:0:
29,48,66723,6,0,B|87:14|140:58|140:58|191:98|245:68,1,229.499992996216,4|0,1:2|0:0,0:0:0:0:
343,24,67049,2,0,P|340:47|345:26,1,76.4999976654053,2|0,1:2|0:0,0:0:0:0:
220,163,67212,1,8,0:0:0:0:
512,181,67375,6,0,B|458:154|413:192|413:192|370:227|317:201,1,204,4|0,1:2|0:0,0:0:0:0:
219,163,67701,2,0,P|222:186|217:165,1,68,2|0,1:2|0:0,0:0:0:0:
340,295,67864,1,8,0:0:0:0:
70,307,68028,6,0,B|124:284|161:316|161:316|198:348|248:328,1,178.499994552612,4|0,1:2|0:0,0:0:0:0:
340,295,68354,5,8,0:0:0:0:
354,291,68435,1,8,0:0:0:0:
369,288,68517,1,8,3:0:0:0:
383,284,68598,1,4,3:0:0:0:
397,280,68680,1,2,3:0:0:0:
412,276,68761,1,0,3:0:0:0:
426,273,68843,6,0,L|488:256,1,59.4999981842042,8|0,0:0|0:0,0:0:0:0:
160,345,69006,1,8,0:0:0:0:
160,345,69332,6,0,P|35:327|54:217,1,237.999992736817,4|2,1:2|1:2,0:0:0:0:
119,9,69821,5,12,0:0:0:0:
314,149,69984,1,2,1:2:0:0:
340,55,70147,5,8,0:0:0:0:
170,190,70310,1,2,1:2:0:0:
143,98,70473,5,8,0:0:0:0:
316,241,70636,2,0,L|333:303,1,59.4999981842042,2|0,1:2|1:0,0:0:0:0:
512,14,70799,5,8,0:0:0:0:
314,149,70962,1,2,1:2:0:0:
340,55,71125,5,8,0:0:0:0:
502,231,71288,1,2,1:2:0:0:
450,155,71451,5,8,0:0:0:0:
288,331,71614,2,0,L|226:314,1,59.4999981842042,2|0,1:2|1:0,0:0:0:0:
3,264,71778,5,8,0:0:0:0:
232,202,71941,2,0,L|294:185,1,59.4999981842042,2|0,1:2|1:0,0:0:0:0:
37,7,72104,5,12,0:0:0:0:
99,236,72267,1,2,1:2:0:0:
85,136,72430,5,8,0:0:0:0:
23,365,72593,1,2,1:2:0:0:
3,264,72756,5,8,0:0:0:0:
204,384,72919,1,2,1:2:0:0:
119,332,73082,5,8,0:0:0:0:
332,217,73245,2,0,L|349:155,1,59.4999981842042,2|0,1:2|1:0,0:0:0:0:
416,346,73408,5,8,0:0:0:0:
232,202,73571,1,2,1:2:0:0:
272,294,73734,5,8,0:0:0:0:
456,150,73897,1,2,1:2:0:0:
416,346,74060,5,8,0:0:0:0:
408,318,74141,1,8,0:0:0:0:
400,289,74223,1,8,3:0:0:0:
328,12,74386,6,0,L|296:137,1,118.999996368408,12|0,0:0|1:0,0:0:0:0:
57,252,74712,5,14,0:0:0:0:
28,136,74875,1,0,1:0:0:0:
0,20,75038,1,0,1:0:0:0:
119,332,75201,5,14,0:0:0:0:
148,216,75364,1,0,1:0:0:0:
176,100,75527,1,0,1:0:0:0:
393,332,75691,5,14,0:0:0:0:
364,216,75854,1,0,1:0:0:0:
336,100,76017,1,0,1:0:0:0:
455,252,76180,5,14,0:0:0:0:
484,136,76343,1,0,1:0:0:0:
512,20,76506,1,0,1:0:0:0:
256,299,76669,5,14,0:0:0:0:
176,100,76832,1,0,1:0:0:0:
136,201,76995,5,14,0:0:0:0:
216,2,77158,1,0,1:0:0:0:
426,151,77321,6,0,L|488:134,1,59.4999981842042,8|8,0:0|0:0,0:0:0:0:
455,252,77484,1,8,3:0:0:0:
422,243,77565,1,4,3:0:0:0:
390,234,77647,1,2,3:0:0:0:
358,225,77728,1,0,3:0:0:0:
325,216,77810,6,0,P|293:212|261:222,1,59.4999981842042,8|8,0:0|0:0,0:0:0:0:
211,338,77973,2,0,P|204:306|185:278,1,59.4999981842042,0|0,3:0|3:0,0:0:0:0:
67,259,78136,2,0,P|95:243|115:216,1,59.4999981842042,0|0,3:0|3:0,0:0:0:0:
95,99,78299,2,0,P|118:121|150:131,1,59.4999981842042,8|8,0:0|3:0,0:0:0:0:
259,70,78462,2,0,P|245:99|244:132,1,59.4999981842042,4|2,3:0|3:0,0:0:0:0:
353,367,78625,5,8,0:0:0:0:
441,48,78788,1,8,0:0:0:0:
450,25,79441,5,0,1:0:0:0:
445,37,79522,1,0,1:0:0:0:
441,48,79604,2,0,B|383:18|334:63|334:63|282:107|228:76,1,229.499992996216,12|0,0:0|0:0,0:0:0:0:
152,19,79930,6,0,B|124:123|124:123|157:160,1,152.999995330811,6|0,1:2|0:0,0:0:0:0:
129,255,80256,2,0,L|154:156,1,101.999996887207,10|0,0:0|0:0,0:0:0:0:
0,75,80582,1,2,1:2:0:0:
44,188,80745,1,0,1:0:0:0:
229,76,80908,1,10,0:0:0:0:
326,270,81071,6,0,P|419:297|490:231,1,203.999993774414,4|0,1:2|1:0,0:0:0:0:
288,184,81560,2,0,P|242:223|228:269,1,101.999996887207,10|0,0:0|0:0,0:0:0:0:
381,86,81886,1,2,1:2:0:0:
398,204,82049,1,0,1:0:0:0:
267,71,82212,1,10,0:0:0:0:
243,64,82293,1,8,0:0:0:0:
218,58,82375,1,0,1:0:0:0:
68,272,82538,6,0,P|67:293|61:277,1,55.2499974708558,12|0,0:0|0:0,0:0:0:0:
30,149,82701,1,8,3:0:0:0:
24,128,82782,1,8,3:0:0:0:
18,106,82864,1,8,3:0:0:0:
186,286,83028,6,0,P|190:309|180:287,1,63.7500024318696,12|0,0:0|0:0,0:0:0:0:
136,139,83191,1,4,3:0:0:0:
128,108,83272,1,4,3:0:0:0:
120,77,83354,1,4,3:0:0:0:
306,304,83517,6,0,P|312:330|300:305,1,72.2500013780594,12|0,0:0|0:0,0:0:0:0:
249,120,83680,1,2,3:0:0:0:
239,86,83761,1,2,3:0:0:0:
230,49,83843,1,2,3:0:0:0:
438,323,84006,6,0,P|446:352|432:324,1,80.7499978437424,12|0,0:0|0:0,0:0:0:0:
374,100,84169,1,0,3:0:0:0:
362,60,84250,1,0,3:0:0:0:
350,20,84332,1,0,3:0:0:0:
186,286,84495,6,0,P|187:308|193:291,1,59.4999981842042,12|0,0:0|0:0,0:0:0:0:
488,127,84658,1,8,3:0:0:0:
494,151,84739,1,4,3:0:0:0:
500,176,84821,1,2,3:0:0:0:
506,201,84902,1,0,3:0:0:0:
512,225,84984,6,0,B|190:99|190:99|148:45|148:45|3:53|3:53|90:169|90:169|161:164|161:164|489:293,1,1118.59998293152,4|0,1:2|0:0,0:0:0:0:
