osu file format v14

[General]
AudioFilename: audio.mp3
AudioLeadIn: 0
PreviewTime: 57964
Countdown: 0
SampleSet: Normal
StackLeniency: 0.7
Mode: 1
LetterboxInBreaks: 0
WidescreenStoryboard: 0

[Editor]
DistanceSpacing: 1.35
BeatDivisor: 4
GridSize: 32
TimelineZoom: 1

[Metadata]
Title:KASUMI (Cut Ver.)
TitleUnicode:KASUMI (Cut Ver.)
Artist:Aoi Eir
ArtistUnicode:藍井エイル
Creator:Faputa
Version:Oni
Source:
Tags:Blackbq version BlackBN Aube SACRA MUSIC Japanese Jpop J-pop pop Jrock J-rock rock
BeatmapID:2966087
BeatmapSetID:1441817

[Difficulty]
HPDrainRate:5
CircleSize:2
OverallDifficulty:5
ApproachRate:10
SliderMultiplier:1.4
SliderTickRate:1

[Events]
//Background and Video events
0,0,"kasumii.jpg",0,15
//Break Periods
//Storyboard Layer 0 (Background)
//Storyboard Layer 1 (Fail)
//Storyboard Layer 2 (Pass)
//Storyboard Layer 3 (Foreground)
//Storyboard Layer 4 (Overlay)
//Storyboard Sound Samples

[TimingPoints]
72,495.867768595041,4,1,0,60,1,0
7757,-100,4,1,0,80,0,0
23129,-101.010101010101,4,1,0,80,0,0
23377,-102.040816326531,4,1,0,80,0,0
23501,-103.092783505155,4,1,0,80,0,0
23625,-104.166666666667,4,1,0,80,0,0
23749,-105.263157894737,4,1,0,70,0,0
38749,-105.263157894737,4,1,0,70,0,0
38997,-103.910030539158,4,1,0,70,0,0
39245,-102.591249787123,4,1,0,70,0,0
39369,-101.944281333594,4,1,0,70,0,0
39493,-101.305524291545,4,1,0,70,0,0
39617,-100,4,1,0,75,0,0
57840,-99.009900990099,4,1,0,60,0,0
58336,-98.0392156862745,4,1,0,60,0,0
58832,-97.0873786407767,4,1,0,60,0,0
59328,-96.1538461538461,4,1,0,85,0,0
59576,-95.2380952380952,4,1,0,85,0,1
91311,-95.2380952380952,4,1,0,85,0,0
93047,-90.9090909090909,4,1,0,85,0,0

[HitObjects]
256,192,72,5,8,0:0:0:0:
256,192,567,1,8,0:0:0:0:
256,192,815,1,8,0:0:0:0:
256,192,939,1,8,0:0:0:0:
256,192,1311,1,0,0:0:0:0:
256,192,1559,1,8,0:0:0:0:
256,192,2055,1,8,0:0:0:0:
256,192,2551,1,0,0:0:0:0:
256,192,2799,1,0,0:0:0:0:
256,192,2923,1,8,0:0:0:0:
256,192,3295,1,0,0:0:0:0:
256,192,3543,1,8,0:0:0:0:
256,192,4038,1,8,0:0:0:0:
256,192,4534,1,8,0:0:0:0:
256,192,4782,1,8,0:0:0:0:
256,192,4906,1,8,0:0:0:0:
256,192,5278,1,0,0:0:0:0:
256,192,5526,1,8,0:0:0:0:
256,192,6022,1,8,0:0:0:0:
256,192,6518,1,8,0:0:0:0:
256,192,6890,1,8,0:0:0:0:
256,192,7014,1,0,0:0:0:0:
256,192,7262,1,8,0:0:0:0:
256,192,7510,1,4,0:0:0:0:
256,192,8005,1,12,0:0:0:0:
256,192,8501,1,8,0:0:0:0:
256,192,8749,1,0,0:0:0:0:
256,192,8873,1,8,0:0:0:0:
256,192,9245,1,0,0:0:0:0:
256,192,9493,1,8,0:0:0:0:
256,192,9741,1,8,0:0:0:0:
256,192,9989,1,0,0:0:0:0:
256,192,10237,1,0,0:0:0:0:
256,192,10485,1,8,0:0:0:0:
256,192,10733,1,8,0:0:0:0:
256,192,10857,1,0,0:0:0:0:
256,192,11105,1,0,0:0:0:0:
256,192,11229,1,8,0:0:0:0:
256,192,11476,1,8,0:0:0:0:
256,192,11724,1,0,0:0:0:0:
256,192,11972,1,8,0:0:0:0:
256,192,12468,1,8,0:0:0:0:
256,192,12716,1,0,0:0:0:0:
256,192,12840,1,8,0:0:0:0:
256,192,13212,1,0,0:0:0:0:
256,192,13460,1,8,0:0:0:0:
256,192,13708,1,0,0:0:0:0:
256,192,13956,1,8,0:0:0:0:
256,192,14204,1,8,0:0:0:0:
256,192,14452,1,0,0:0:0:0:
256,192,14700,1,0,0:0:0:0:
256,192,14824,1,8,0:0:0:0:
256,192,15071,1,8,0:0:0:0:
256,192,15195,1,0,0:0:0:0:
256,192,15443,1,8,0:0:0:0:
256,192,15567,1,8,0:0:0:0:
256,192,15691,1,0,0:0:0:0:
256,192,15939,1,12,0:0:0:0:
256,192,16435,1,8,0:0:0:0:
256,192,16683,1,8,0:0:0:0:
256,192,16807,1,0,0:0:0:0:
256,192,17179,1,0,0:0:0:0:
256,192,17427,1,8,0:0:0:0:
256,192,17675,1,8,0:0:0:0:
256,192,17923,1,0,0:0:0:0:
256,192,18171,1,0,0:0:0:0:
256,192,18419,1,8,0:0:0:0:
256,192,18667,1,0,0:0:0:0:
256,192,18791,1,0,0:0:0:0:
256,192,18914,1,8,0:0:0:0:
256,192,19162,1,8,0:0:0:0:
256,192,19410,1,8,0:0:0:0:
256,192,19658,1,0,0:0:0:0:
256,192,19906,1,8,0:0:0:0:
256,192,20402,1,8,0:0:0:0:
256,192,20650,1,0,0:0:0:0:
256,192,20774,1,8,0:0:0:0:
256,192,21146,1,0,0:0:0:0:
256,192,21394,1,8,0:0:0:0:
256,192,21642,1,8,0:0:0:0:
256,192,21890,1,4,0:0:0:0:
256,192,22138,1,4,0:0:0:0:
256,192,22386,1,4,0:0:0:0:
256,192,22757,1,8,0:0:0:0:
256,192,22881,1,8,0:0:0:0:
256,192,23129,1,0,0:0:0:0:
256,192,23377,1,8,0:0:0:0:
256,192,23501,1,0,0:0:0:0:
256,192,23625,1,0,0:0:0:0:
256,192,23873,1,12,0:0:0:0:
256,192,24369,1,8,0:0:0:0:
256,192,24493,1,8,0:0:0:0:
256,192,24617,1,8,0:0:0:0:
256,192,24865,1,8,0:0:0:0:
256,192,24989,1,0,0:0:0:0:
256,192,25237,1,8,0:0:0:0:
256,192,25485,1,0,0:0:0:0:
256,192,25609,1,0,0:0:0:0:
256,192,25857,1,8,0:0:0:0:
256,192,26105,1,0,0:0:0:0:
256,192,26352,1,8,0:0:0:0:
256,192,26600,1,8,0:0:0:0:
256,192,26848,1,0,0:0:0:0:
256,192,26972,1,8,0:0:0:0:
256,192,27220,1,0,0:0:0:0:
256,192,27840,1,8,0:0:0:0:
256,192,28336,1,8,0:0:0:0:
256,192,28460,1,8,0:0:0:0:
256,192,28584,1,8,0:0:0:0:
256,192,28832,1,8,0:0:0:0:
256,192,28956,1,0,0:0:0:0:
256,192,29204,1,8,0:0:0:0:
256,192,29452,1,0,0:0:0:0:
256,192,29576,1,0,0:0:0:0:
256,192,29824,1,8,0:0:0:0:
256,192,30319,1,8,0:0:0:0:
256,192,30567,1,8,0:0:0:0:
256,192,30815,1,0,0:0:0:0:
256,192,31063,1,0,0:0:0:0:
256,192,31311,1,8,0:0:0:0:
256,192,31559,1,8,0:0:0:0:
256,192,31807,1,4,0:0:0:0:
256,192,32303,1,8,0:0:0:0:
256,192,32551,1,0,0:0:0:0:
256,192,32799,1,8,0:0:0:0:
256,192,32923,1,0,0:0:0:0:
256,192,33171,1,8,0:0:0:0:
256,192,33419,1,8,0:0:0:0:
256,192,33667,1,0,0:0:0:0:
256,192,33791,1,8,0:0:0:0:
256,192,34038,1,0,0:0:0:0:
256,192,34286,1,8,0:0:0:0:
256,192,34534,1,8,0:0:0:0:
256,192,34782,1,0,0:0:0:0:
256,192,35278,1,8,0:0:0:0:
256,192,35526,1,0,0:0:0:0:
256,192,35650,1,0,0:0:0:0:
256,192,35774,1,8,0:0:0:0:
256,192,36270,1,8,0:0:0:0:
256,192,36518,1,0,0:0:0:0:
256,192,36642,1,0,0:0:0:0:
256,192,36766,1,8,0:0:0:0:
256,192,37262,1,8,0:0:0:0:
256,192,37386,1,8,0:0:0:0:
256,192,37510,1,8,0:0:0:0:
256,192,37757,1,0,0:0:0:0:
256,192,38005,1,0,0:0:0:0:
256,192,38253,1,8,0:0:0:0:
256,192,38501,1,0,0:0:0:0:
256,192,38625,1,8,0:0:0:0:
256,192,38749,1,8,0:0:0:0:
256,192,38997,1,0,0:0:0:0:
256,192,39245,1,8,0:0:0:0:
256,192,39369,1,0,0:0:0:0:
256,192,39493,1,0,0:0:0:0:
256,192,39741,1,12,0:0:0:0:
256,192,40113,1,8,0:0:0:0:
256,192,40485,1,8,0:0:0:0:
256,192,40733,1,8,0:0:0:0:
256,192,40981,1,0,0:0:0:0:
256,192,41229,1,8,0:0:0:0:
256,192,41352,1,8,0:0:0:0:
256,192,41476,1,8,0:0:0:0:
256,192,41724,1,4,0:0:0:0:
256,192,42220,1,8,0:0:0:0:
256,192,42468,1,0,0:0:0:0:
256,192,42716,1,8,0:0:0:0:
256,192,42840,1,8,0:0:0:0:
256,192,42964,1,0,0:0:0:0:
256,192,43212,1,8,0:0:0:0:
256,192,43460,1,0,0:0:0:0:
256,192,43708,1,12,0:0:0:0:
256,192,44080,1,8,0:0:0:0:
256,192,44452,1,8,0:0:0:0:
256,192,44700,1,8,0:0:0:0:
256,192,44948,1,0,0:0:0:0:
256,192,45195,1,8,0:0:0:0:
256,192,45319,1,8,0:0:0:0:
256,192,45443,1,8,0:0:0:0:
256,192,45691,1,4,0:0:0:0:
256,192,46187,1,8,0:0:0:0:
256,192,46435,1,8,0:0:0:0:
256,192,46559,1,8,0:0:0:0:
256,192,46683,1,0,0:0:0:0:
256,192,46931,1,0,0:0:0:0:
256,192,47179,1,8,0:0:0:0:
256,192,47427,1,8,0:0:0:0:
256,192,47675,1,4,0:0:0:0:
256,192,48047,1,0,0:0:0:0:
256,192,48171,1,8,0:0:0:0:
256,192,48419,1,0,0:0:0:0:
256,192,48543,1,8,0:0:0:0:
256,192,48914,1,0,0:0:0:0:
256,192,49162,1,8,0:0:0:0:
256,192,49410,1,8,0:0:0:0:
256,192,49658,1,0,0:0:0:0:
256,192,49906,1,0,0:0:0:0:
256,192,50154,1,8,0:0:0:0:
256,192,50402,1,0,0:0:0:0:
256,192,50526,1,8,0:0:0:0:
256,192,50774,1,8,0:0:0:0:
256,192,50898,1,0,0:0:0:0:
256,192,51146,1,8,0:0:0:0:
256,192,51642,1,8,0:0:0:0:
256,192,51890,1,0,0:0:0:0:
256,192,52138,1,8,0:0:0:0:
256,192,52386,1,0,0:0:0:0:
256,192,52510,1,8,0:0:0:0:
256,192,52633,1,0,0:0:0:0:
256,192,52881,1,0,0:0:0:0:
256,192,53129,1,8,0:0:0:0:
256,192,53377,1,12,0:0:0:0:
256,192,53873,1,0,0:0:0:0:
256,192,54121,1,8,0:0:0:0:
256,192,54369,1,0,0:0:0:0:
256,192,54493,1,0,0:0:0:0:
256,192,54617,1,8,0:0:0:0:
256,192,54865,1,0,0:0:0:0:
256,192,55113,1,8,0:0:0:0:
256,192,55237,1,8,0:0:0:0:
256,192,55361,1,0,0:0:0:0:
256,192,55609,1,8,0:0:0:0:
256,192,55981,1,0,0:0:0:0:
256,192,56105,1,8,0:0:0:0:
256,192,56476,1,0,0:0:0:0:
256,192,56600,1,8,0:0:0:0:
256,192,56848,1,0,0:0:0:0:
256,192,57096,1,0,0:0:0:0:
256,192,57220,1,0,0:0:0:0:
256,192,57344,1,0,0:0:0:0:
256,192,57468,1,0,0:0:0:0:
256,192,57592,1,8,0:0:0:0:
256,192,58088,1,0,0:0:0:0:
256,192,58584,1,8,0:0:0:0:
256,192,59080,1,8,0:0:0:0:
256,192,59576,1,4,0:0:0:0:
256,192,60071,1,8,0:0:0:0:
256,192,60319,1,0,0:0:0:0:
256,192,60443,1,8,0:0:0:0:
256,192,60691,1,8,0:0:0:0:
256,192,60815,1,0,0:0:0:0:
256,192,61063,1,8,0:0:0:0:
256,192,61311,1,0,0:0:0:0:
256,192,61559,1,8,0:0:0:0:
256,192,61683,1,8,0:0:0:0:
256,192,61807,1,0,0:0:0:0:
256,192,62055,1,8,0:0:0:0:
256,192,62303,1,0,0:0:0:0:
256,192,62427,1,8,0:0:0:0:
256,192,62799,1,0,0:0:0:0:
256,192,63047,1,8,0:0:0:0:
256,192,63295,1,8,0:0:0:0:
256,192,63543,1,0,0:0:0:0:
256,192,64038,1,8,0:0:0:0:
256,192,64286,1,0,0:0:0:0:
256,192,64410,1,0,0:0:0:0:
256,192,64534,1,8,0:0:0:0:
256,192,64782,1,0,0:0:0:0:
256,192,65030,1,8,0:0:0:0:
256,192,65278,1,8,0:0:0:0:
256,192,65526,1,0,0:0:0:0:
256,192,66022,1,8,0:0:0:0:
256,192,66270,1,0,0:0:0:0:
256,192,66518,1,0,0:0:0:0:
256,192,66642,1,8,0:0:0:0:
256,192,66890,1,0,0:0:0:0:
256,192,67014,1,8,0:0:0:0:
256,192,67262,1,8,0:0:0:0:
256,192,67510,1,4,0:0:0:0:
256,192,67757,1,8,0:0:0:0:
256,192,68005,1,8,0:0:0:0:
256,192,68129,1,0,0:0:0:0:
256,192,68377,1,8,0:0:0:0:
256,192,68501,1,0,0:0:0:0:
256,192,68749,1,0,0:0:0:0:
256,192,68997,1,8,0:0:0:0:
256,192,69245,1,0,0:0:0:0:
256,192,69493,1,8,0:0:0:0:
256,192,69617,1,8,0:0:0:0:
256,192,69741,1,0,0:0:0:0:
256,192,69989,1,8,0:0:0:0:
256,192,70237,1,0,0:0:0:0:
256,192,70361,1,8,0:0:0:0:
256,192,70733,1,0,0:0:0:0:
256,192,70981,1,8,0:0:0:0:
256,192,71229,1,0,0:0:0:0:
256,192,71476,1,8,0:0:0:0:
256,192,71972,1,8,0:0:0:0:
256,192,72220,1,8,0:0:0:0:
256,192,72344,1,8,0:0:0:0:
256,192,72468,1,0,0:0:0:0:
256,192,72716,1,0,0:0:0:0:
256,192,72964,1,8,0:0:0:0:
256,192,73212,1,0,0:0:0:0:
256,192,73460,1,8,0:0:0:0:
256,192,73708,1,0,0:0:0:0:
256,192,73832,1,8,0:0:0:0:
256,192,74204,1,0,0:0:0:0:
256,192,74452,1,8,0:0:0:0:
256,192,74576,1,8,0:0:0:0:
256,192,74700,1,0,0:0:0:0:
256,192,74824,1,0,0:0:0:0:
256,192,74948,1,8,0:0:0:0:
256,192,75195,1,8,0:0:0:0:
256,192,75443,1,4,0:0:0:0:
256,192,75939,1,8,0:0:0:0:
256,192,76187,1,0,0:0:0:0:
256,192,76311,1,8,0:0:0:0:
256,192,76683,1,0,0:0:0:0:
256,192,76931,1,8,0:0:0:0:
256,192,77179,1,8,0:0:0:0:
256,192,77427,1,0,0:0:0:0:
256,192,77675,1,0,0:0:0:0:
256,192,77923,1,8,0:0:0:0:
256,192,78171,1,0,0:0:0:0:
256,192,78295,1,0,0:0:0:0:
256,192,78419,1,8,0:0:0:0:
256,192,78667,1,0,0:0:0:0:
256,192,78914,1,8,0:0:0:0:
256,192,79162,1,0,0:0:0:0:
256,192,79286,1,8,0:0:0:0:
256,192,79658,1,0,0:0:0:0:
256,192,79906,1,8,0:0:0:0:
256,192,80154,1,0,0:0:0:0:
256,192,80278,1,8,0:0:0:0:
256,192,80650,1,0,0:0:0:0:
256,192,80898,1,8,0:0:0:0:
256,192,81146,1,0,0:0:0:0:
256,192,81394,1,8,0:0:0:0:
256,192,81642,1,8,0:0:0:0:
256,192,81890,1,0,0:0:0:0:
256,192,82138,1,8,0:0:0:0:
256,192,82386,1,0,0:0:0:0:
256,192,82510,1,8,0:0:0:0:
256,192,82633,1,0,0:0:0:0:
256,192,82881,1,8,0:0:0:0:
256,192,83129,1,0,0:0:0:0:
256,192,83377,1,12,0:0:0:0:
256,192,83873,1,8,0:0:0:0:
256,192,84121,1,0,0:0:0:0:
256,192,84245,1,8,0:0:0:0:
256,192,84617,1,0,0:0:0:0:
256,192,84865,1,8,0:0:0:0:
256,192,85113,1,8,0:0:0:0:
256,192,85361,1,0,0:0:0:0:
256,192,85609,1,0,0:0:0:0:
256,192,85857,1,8,0:0:0:0:
256,192,86105,1,0,0:0:0:0:
256,192,86352,1,8,0:0:0:0:
256,192,86848,1,8,0:0:0:0:
256,192,87096,1,0,0:0:0:0:
256,192,87220,1,8,0:0:0:0:
256,192,87592,1,0,0:0:0:0:
256,192,87840,1,8,0:0:0:0:
256,192,88088,1,0,0:0:0:0:
256,192,88212,1,8,0:0:0:0:
256,192,88584,1,8,0:0:0:0:
256,192,88832,1,0,0:0:0:0:
256,192,88956,1,0,0:0:0:0:
256,192,89080,1,0,0:0:0:0:
256,192,89328,1,8,0:0:0:0:
256,192,89576,1,0,0:0:0:0:
256,192,89824,1,8,0:0:0:0:
256,192,90071,1,0,0:0:0:0:
256,192,90195,1,0,0:0:0:0:
256,192,90319,1,8,0:0:0:0:
256,192,90567,1,0,0:0:0:0:
256,192,90815,1,8,0:0:0:0:
256,192,90939,1,8,0:0:0:0:
256,192,91063,1,0,0:0:0:0:
256,192,91311,1,4,0:0:0:0:
256,192,93295,1,12,0:0:0:0:
256,192,93667,1,12,0:0:0:0:
256,192,94038,1,12,0:0:0:0:
256,192,94534,1,4,0:0:0:0:
