osu file format v14

[General]
AudioFilename: audio.mp3
AudioLeadIn: 0
PreviewTime: 57964
Countdown: 0
SampleSet: Normal
StackLeniency: 0.7
Mode: 1
LetterboxInBreaks: 0
WidescreenStoryboard: 1

[Editor]
DistanceSpacing: 1.35
BeatDivisor: 4
GridSize: 32
TimelineZoom: 1

[Metadata]
Title:KASUMI (Cut Ver.)
TitleUnicode:KASUMI (Cut Ver.)
Artist:Aoi Eir
ArtistUnicode:藍井エイル
Creator:Faputa
Version:Futsuu
Source:
Tags:Blackbq version BlackBN Aube SACRA MUSIC Japanese Jpop J-pop pop Jrock J-rock rock
BeatmapID:2966151
BeatmapSetID:1441817

[Difficulty]
HPDrainRate:7.5
CircleSize:2
OverallDifficulty:3.5
ApproachRate:10
SliderMultiplier:1.4
SliderTickRate:1

[Events]
//Background and Video events
0,0,"kasumii.jpg",0,15
//Break Periods
//Storyboard Layer 0 (Background)
//Storyboard Layer 1 (Fail)
//Storyboard Layer 2 (Pass)
//Storyboard Layer 3 (Foreground)
//Storyboard Layer 4 (Overlay)
//Storyboard Sound Samples

[TimingPoints]
72,495.867768595041,4,1,0,60,1,0
7757,-100,4,1,0,80,0,0
23749,-100,4,1,0,70,0,0
39617,-100,4,1,0,75,0,0
59328,-100,4,1,0,85,0,0
59576,-100,4,1,0,85,0,1
91311,-100,4,1,0,85,0,0

[HitObjects]
256,192,72,5,8,0:0:0:0:
256,192,2055,1,0,0:0:0:0:
256,192,3047,1,0,0:0:0:0:
256,192,4038,1,8,0:0:0:0:
256,192,6022,1,8,0:0:0:0:
256,192,7014,1,8,0:0:0:0:
256,192,7510,1,4,0:0:0:0:
256,192,8005,1,12,0:0:0:0:
256,192,8501,1,8,0:0:0:0:
256,192,9493,1,8,0:0:0:0:
256,192,10237,1,0,0:0:0:0:
256,192,10485,1,8,0:0:0:0:
256,192,10981,1,0,0:0:0:0:
256,192,11229,1,0,0:0:0:0:
256,192,11476,1,8,0:0:0:0:
256,192,11972,1,8,0:0:0:0:
256,192,12468,1,8,0:0:0:0:
256,192,13460,1,8,0:0:0:0:
256,192,14204,1,0,0:0:0:0:
256,192,14452,1,8,0:0:0:0:
256,192,14948,1,8,0:0:0:0:
256,192,15195,1,0,0:0:0:0:
256,192,15443,1,8,0:0:0:0:
256,192,15939,1,12,0:0:0:0:
256,192,16435,1,8,0:0:0:0:
256,192,17427,1,8,0:0:0:0:
256,192,18171,1,0,0:0:0:0:
256,192,18419,1,8,0:0:0:0:
256,192,18667,1,8,0:0:0:0:
256,192,19162,1,0,0:0:0:0:
256,192,19410,1,8,0:0:0:0:
256,192,19906,1,0,0:0:0:0:
256,192,20402,1,8,0:0:0:0:
256,192,20898,1,0,0:0:0:0:
256,192,21146,1,0,0:0:0:0:
256,192,21394,1,8,0:0:0:0:
256,192,21890,1,0,0:0:0:0:
256,192,22138,1,0,0:0:0:0:
256,192,22386,1,0,0:0:0:0:
256,192,22881,1,8,0:0:0:0:
256,192,23377,1,8,0:0:0:0:
256,192,23873,1,12,0:0:0:0:
256,192,24865,1,0,0:0:0:0:
256,192,25113,1,0,0:0:0:0:
256,192,25857,1,8,0:0:0:0:
256,192,26105,1,8,0:0:0:0:
256,192,26848,1,0,0:0:0:0:
256,192,27096,1,8,0:0:0:0:
256,192,27840,1,0,0:0:0:0:
256,192,28088,1,0,0:0:0:0:
256,192,28832,1,8,0:0:0:0:
256,192,29080,1,8,0:0:0:0:
256,192,29824,1,0,0:0:0:0:
256,192,30071,1,0,0:0:0:0:
256,192,30815,1,8,0:0:0:0:
256,192,31063,1,8,0:0:0:0:
256,192,31559,1,8,0:0:0:0:
256,192,31807,1,4,0:0:0:0:
256,192,32799,1,0,0:0:0:0:
256,192,33047,1,0,0:0:0:0:
256,192,33791,1,8,0:0:0:0:
256,192,34038,1,8,0:0:0:0:
256,192,34782,1,0,0:0:0:0:
256,192,35030,1,8,0:0:0:0:
256,192,35774,1,8,0:0:0:0:
256,192,36022,1,0,0:0:0:0:
256,192,36766,1,0,0:0:0:0:
256,192,37014,1,8,0:0:0:0:
256,192,37757,1,0,0:0:0:0:
256,192,38005,1,0,0:0:0:0:
256,192,38501,1,0,0:0:0:0:
256,192,38749,1,8,0:0:0:0:
256,192,38997,1,8,0:0:0:0:
256,192,39245,1,0,0:0:0:0:
256,192,39741,1,8,0:0:0:0:
256,192,40113,1,8,0:0:0:0:
256,192,40485,1,8,0:0:0:0:
256,192,40733,1,0,0:0:0:0:
256,192,41229,1,8,0:0:0:0:
256,192,41724,1,4,0:0:0:0:
256,192,42220,1,8,0:0:0:0:
256,192,43212,1,8,0:0:0:0:
256,192,43708,1,0,0:0:0:0:
256,192,44080,1,0,0:0:0:0:
256,192,44452,1,0,0:0:0:0:
256,192,44700,1,8,0:0:0:0:
256,192,45195,1,8,0:0:0:0:
256,192,45691,1,4,0:0:0:0:
256,192,46187,1,8,0:0:0:0:
256,192,46683,1,0,0:0:0:0:
256,192,46931,1,0,0:0:0:0:
256,192,47179,1,8,0:0:0:0:
256,192,47675,1,4,0:0:0:0:
256,192,48171,1,8,0:0:0:0:
256,192,48914,1,0,0:0:0:0:
256,192,49162,1,8,0:0:0:0:
256,192,49658,1,0,0:0:0:0:
256,192,50154,1,8,0:0:0:0:
256,192,50898,1,0,0:0:0:0:
256,192,51146,1,8,0:0:0:0:
256,192,51642,1,8,0:0:0:0:
256,192,52138,1,0,0:0:0:0:
256,192,52386,1,8,0:0:0:0:
256,192,52633,1,8,0:0:0:0:
256,192,52881,1,0,0:0:0:0:
256,192,53377,1,12,0:0:0:0:
256,192,54121,1,8,0:0:0:0:
256,192,54617,1,8,0:0:0:0:
256,192,55113,1,0,0:0:0:0:
256,192,55361,1,0,0:0:0:0:
256,192,55609,1,8,0:0:0:0:
256,192,56105,1,8,0:0:0:0:
256,192,56600,1,8,0:0:0:0:
256,192,57096,1,0,0:0:0:0:
256,192,57344,1,0,0:0:0:0:
256,192,57592,1,8,0:0:0:0:
256,192,59576,1,4,0:0:0:0:
256,192,60071,1,8,0:0:0:0:
256,192,60815,1,0,0:0:0:0:
256,192,61063,1,8,0:0:0:0:
256,192,61559,1,8,0:0:0:0:
256,192,61807,1,8,0:0:0:0:
256,192,62055,1,8,0:0:0:0:
256,192,62551,1,0,0:0:0:0:
256,192,62799,1,0,0:0:0:0:
256,192,63047,1,8,0:0:0:0:
256,192,63295,1,8,0:0:0:0:
256,192,63543,1,0,0:0:0:0:
256,192,64038,1,8,0:0:0:0:
256,192,64782,1,0,0:0:0:0:
256,192,65030,1,8,0:0:0:0:
256,192,65526,1,8,0:0:0:0:
256,192,66022,1,0,0:0:0:0:
256,192,66518,1,8,0:0:0:0:
256,192,67014,1,8,0:0:0:0:
256,192,67510,1,4,0:0:0:0:
256,192,68005,1,8,0:0:0:0:
256,192,68749,1,0,0:0:0:0:
256,192,68997,1,8,0:0:0:0:
256,192,69493,1,8,0:0:0:0:
256,192,69741,1,8,0:0:0:0:
256,192,69989,1,8,0:0:0:0:
256,192,70485,1,0,0:0:0:0:
256,192,70733,1,0,0:0:0:0:
256,192,70981,1,8,0:0:0:0:
256,192,71229,1,0,0:0:0:0:
256,192,71476,1,8,0:0:0:0:
256,192,71972,1,8,0:0:0:0:
256,192,72468,1,0,0:0:0:0:
256,192,72716,1,0,0:0:0:0:
256,192,72964,1,8,0:0:0:0:
256,192,73212,1,8,0:0:0:0:
256,192,73460,1,0,0:0:0:0:
256,192,73956,1,8,0:0:0:0:
256,192,74452,1,8,0:0:0:0:
256,192,75443,1,4,0:0:0:0:
256,192,75939,1,8,0:0:0:0:
256,192,76683,1,0,0:0:0:0:
256,192,76931,1,8,0:0:0:0:
256,192,77427,1,0,0:0:0:0:
256,192,77923,1,8,0:0:0:0:
256,192,78419,1,8,0:0:0:0:
256,192,78914,1,0,0:0:0:0:
256,192,79410,1,0,0:0:0:0:
256,192,79906,1,8,0:0:0:0:
256,192,80650,1,0,0:0:0:0:
256,192,80898,1,8,0:0:0:0:
256,192,81394,1,0,0:0:0:0:
256,192,81890,1,8,0:0:0:0:
256,192,82138,1,8,0:0:0:0:
256,192,82386,1,0,0:0:0:0:
256,192,82633,1,0,0:0:0:0:
256,192,82881,1,8,0:0:0:0:
256,192,83377,1,12,0:0:0:0:
256,192,83873,1,8,0:0:0:0:
256,192,84617,1,0,0:0:0:0:
256,192,84865,1,8,0:0:0:0:
256,192,85361,1,0,0:0:0:0:
256,192,85857,1,8,0:0:0:0:
256,192,86352,1,8,0:0:0:0:
256,192,86848,1,0,0:0:0:0:
256,192,87344,1,0,0:0:0:0:
256,192,87840,1,8,0:0:0:0:
256,192,88336,1,8,0:0:0:0:
256,192,88584,1,0,0:0:0:0:
256,192,88832,1,8,0:0:0:0:
256,192,89328,1,8,0:0:0:0:
256,192,89824,1,8,0:0:0:0:
256,192,90071,1,0,0:0:0:0:
256,192,90319,1,8,0:0:0:0:
256,192,90567,1,0,0:0:0:0:
256,192,90815,1,8,0:0:0:0:
256,192,91311,1,4,0:0:0:0:
256,192,93295,1,8,0:0:0:0:
256,192,93667,1,8,0:0:0:0:
256,192,94038,1,8,0:0:0:0:
256,192,94534,1,0,0:0:0:0:
