osu file format v14

[General]
AudioFilename: audio.mp3
AudioLeadIn: 0
PreviewTime: 55042
Countdown: 0
SampleSet: Soft
StackLeniency: 0.7
Mode: 0
LetterboxInBreaks: 0
WidescreenStoryboard: 0

[Editor]
DistanceSpacing: 1.1
BeatDivisor: 4
GridSize: 32
TimelineZoom: 3.199999

[Metadata]
Title:JUMP!!!
TitleUnicode:JUMP!!!
Artist:Aoi Eir
ArtistUnicode:藍井エイル
Creator:Nevertary
Version:Easy
Source:
Tags:D'AZUR japanese rock j-rock jrock cut short version
BeatmapID:2416027
BeatmapSetID:1147278

[Difficulty]
HPDrainRate:3
CircleSize:3
OverallDifficulty:3
ApproachRate:3.5
SliderMultiplier:0.8
SliderTickRate:1

[Events]
//Background and Video events
0,0,"BG.jpg",0,0
//Break Periods
//Storyboard Layer 0 (Background)
//Storyboard Layer 1 (Fail)
//Storyboard Layer 2 (Pass)
//Storyboard Layer 3 (Foreground)
//Storyboard Layer 4 (Overlay)
//Storyboard Sound Samples

[TimingPoints]
388,319.148936170213,4,2,1,65,1,0
4058,-100,4,2,1,75,0,1
14430,-100,4,2,1,55,0,0
24643,-100,4,2,1,60,0,0
34856,-100,4,2,1,55,0,0
42515,-100,4,2,1,65,0,0
45068,-100,4,2,1,55,0,0
50015,-100,4,2,1,65,0,0
55122,-100,4,2,1,75,0,1
70600,-100,4,2,1,65,0,0
73153,-100,4,2,1,70,0,0
75707,-100,4,2,1,65,0,0
78260,-100,4,2,1,70,0,0
80653,-100,4,2,1,75,0,1
90866,-100,4,2,1,65,0,0
91664,-100,4,2,1,55,0,0
92302,-100,4,2,1,53,0,0
92941,-100,4,2,1,50,0,0
93579,-100,4,2,1,48,0,0
94217,-100,4,2,1,45,0,0
94856,-100,4,2,1,35,0,0
95494,-100,4,2,1,33,0,0
96132,-100,4,2,1,30,0,0
96770,-100,4,2,1,28,0,0
97409,-100,4,2,1,25,0,0
98047,-100,4,2,1,15,0,0
98685,-100,4,2,1,13,0,0
99324,-100,4,2,1,10,0,0
99962,-100,4,2,1,8,0,0
100600,-100,4,2,1,5,0,0

[Colours]
Combo1 : 163,137,184
Combo2 : 226,146,73

[HitObjects]
10,88,1664,6,0,L|131:76,1,120,14|10,0:0|0:0,0:0:0:0:
240,147,2622,2,0,L|361:135,1,120,14|10,0:0|0:0,0:0:0:0:
485,173,3579,1,10,0:0:0:0:
456,302,4058,6,0,P|401:318|336:301,1,120,6|10,1:2|0:0,0:0:0:0:
255,282,4856,1,10,0:0:0:0:
209,357,5175,1,8,0:0:0:0:
121,347,5494,2,0,L|28:338,1,80,8|8,0:0|0:0,0:0:0:0:
2,260,6132,1,10,0:0:0:0:
45,183,6451,1,8,0:0:0:0:
132,192,6770,6,0,L|225:201,1,80,8|10,0:0|0:0,0:0:0:0:
299,210,7409,1,10,0:0:0:0:
422,163,7888,2,0,P|431:122|417:68,1,80,6|2,1:2|1:2,0:0:0:0:
363,22,8526,2,0,P|322:13|268:27,1,80,6|2,1:2|1:2,0:0:0:0:
204,54,9164,6,0,P|149:70|84:53,1,120,6|10,1:2|0:0,0:0:0:0:
14,102,9962,1,10,0:0:0:0:
17,189,10281,1,8,0:0:0:0:
104,198,10600,2,0,L|197:207,1,80,8|10,0:0|0:0,0:0:0:0:
271,215,11239,1,10,0:0:0:0:
280,302,11558,1,8,0:0:0:0:
366,316,11877,6,0,L|459:325,1,80,8|8,0:0|0:0,0:0:0:0:
497,252,12515,1,10,0:0:0:0:
480,121,12994,6,0,B|344:69|344:185|200:135,1,280,6|2,1:2|0:0,0:0:0:0:
126,100,14430,6,0,L|33:91,1,80,4|2,1:2|1:2,0:0:0:0:
8,171,15068,2,0,B|16:262|16:262|47:289,2,120,2|2|2,1:2|0:0|1:2,0:0:0:0:
46,92,16345,2,0,L|126:100,1,80,2|2,1:2|1:2,0:0:0:0:
213,109,16983,6,0,L|332:119,1,120,2|2,1:2|0:0,0:0:0:0:
410,79,17781,1,2,0:0:0:0:
458,152,18100,2,0,P|477:216|452:280,1,120,2|2,0:0|1:2,0:0:0:0:
404,331,18898,1,2,1:2:0:0:
316,326,19217,1,2,1:2:0:0:
242,273,19536,6,0,L|162:265,1,80,4|2,1:2|1:2,0:0:0:0:
74,256,20175,2,0,B|66:347|66:347|35:374,2,120,2|2|2,1:2|0:0|1:2,0:0:0:0:
84,168,21451,2,0,L|91:89,1,80,2|2,1:2|1:2,0:0:0:0:
167,45,22090,6,0,P|246:72|319:36,1,160,2|2,1:2|1:2,0:0:0:0:
444,54,23207,2,0,L|456:187,1,120,14|8,0:0|0:0,0:0:0:0:
455,261,24005,1,2,3:2:0:0:
394,325,24324,1,12,0:0:0:0:
313,290,24643,6,0,P|282:257|267:215,1,80,4|10,1:2|0:0,0:0:0:0:
254,138,25281,1,2,1:2:0:0:
148,57,25760,2,0,L|15:45,1,120,2|10,1:2|0:0,0:0:0:0:
2,130,26558,2,0,P|-4:170|5:209,1,80,2|10,1:2|0:0,0:0:0:0:
30,292,27196,6,0,L|163:280,1,120,2|2,1:2|0:0,0:0:0:0:
231,247,27994,1,2,1:2:0:0:
295,306,28313,2,0,P|372:324|415:304,1,120,2|10,1:2|0:0,0:0:0:0:
473,252,29111,2,0,L|480:172,1,80,2|10,1:2|0:0,0:0:0:0:
492,85,29749,6,0,P|452:92|413:83,1,80,4|10,1:2|0:0,0:0:0:0:
330,56,30388,1,2,1:2:0:0:
224,134,30866,2,0,L|91:146,1,120,2|10,1:2|0:0,0:0:0:0:
16,153,31664,2,0,L|24:233,1,80,2|10,1:2|0:0,0:0:0:0:
38,319,32302,6,0,P|111:352|180:323,1,160,2|2,1:2|1:2,0:0:0:0:
248,266,33260,1,10,0:0:0:0:
320,315,33579,2,0,B|489:298,1,160,2|2,0:0|1:2,0:0:0:0:
500,213,34536,1,8,0:0:0:0:
473,128,34856,6,0,L|394:120,1,80,4|10,1:2|0:0,0:0:0:0:
305,112,35494,1,2,1:2:0:0:
208,202,35973,2,0,P|167:218|80:192,1,120,2|10,0:0|0:0,0:0:0:0:
29,144,36770,1,2,1:2:0:0:
66,64,37090,2,0,L|146:57,1,80,10|0,0:0|1:0,0:0:0:0:
233,48,37728,5,10,0:0:0:0:
320,40,38047,1,2,1:2:0:0:
427,116,38526,2,0,P|450:153|441:243,1,120,2|10,0:0|0:0,0:0:0:0:
407,304,39324,1,2,1:2:0:0:
333,351,39643,2,0,L|254:343,1,80,10|0,0:0|1:0,0:0:0:0:
190,281,40281,5,10,0:0:0:0:
120,335,40600,1,2,1:2:0:0:
44,226,41079,2,0,P|28:185|54:98,1,120,2|10,0:0|0:0,0:0:0:0:
98,43,41877,1,2,1:2:0:0:
178,78,42196,1,10,0:0:0:0:
260,48,42515,6,0,L|394:35,1,120,6|6,1:2|1:2,0:0:0:0:
462,65,43313,1,2,1:2:0:0:
434,147,43632,2,0,P|428:186|437:225,1,80,6|0,1:2|1:0,0:0:0:0:
461,309,44270,2,0,L|342:297,1,120,4|8,1:2|0:0,0:0:0:0:
260,332,45068,6,0,P|253:293|262:254,1,80,4|10,1:2|0:0,0:0:0:0:
292,171,45707,1,2,1:2:0:0:
234,52,46185,2,0,L|114:41,1,120,2|10,0:0|0:0,0:0:0:0:
26,36,46983,1,2,1:2:0:0:
63,115,47302,1,10,0:0:0:0:
23,194,47622,6,0,P|7:235|33:322,1,120,2|2,1:2|0:0,0:0:0:0:
85,367,48419,1,2,1:2:0:0:
166,333,48739,2,0,L|286:322,1,120,6|8,1:2|0:0,0:0:0:0:
363,363,49536,1,2,0:0:0:0:
458,271,50015,6,0,P|474:230|448:143,1,120,6|10,1:2|0:0,0:0:0:0:
408,85,50813,1,2,1:2:0:0:
281,122,51292,2,0,L|161:111,1,120,6|10,1:2|0:0,0:0:0:0:
81,74,52090,1,2,1:2:0:0:
22,139,52409,1,10,0:0:0:0:
11,226,52728,6,0,P|4:266|13:305,1,80,6|8,1:2|0:0,0:0:0:0:
67,372,53366,1,10,0:0:0:0:
190,324,53845,2,0,L|309:313,1,120,4|8,1:2|0:0,0:0:0:0:
397,305,54643,1,8,0:0:0:0:
477,199,55122,6,0,P|493:158|467:71,1,120,6|14,1:2|0:0,0:0:0:0:
415,23,55919,1,2,1:2:0:0:
341,71,56239,1,10,0:0:0:0:
257,42,56558,2,0,L|246:161,1,120,2|2,1:2|0:0,0:0:0:0:
238,249,57356,1,2,1:2:0:0:
232,336,57675,6,0,L|113:325,1,120,6|10,1:2|0:0,0:0:0:0:
29,295,58473,1,2,1:2:0:0:
17,207,58792,1,10,0:0:0:0:
67,135,59111,2,0,P|108:119|195:145,1,120,2|2,1:2|0:0,0:0:0:0:
253,183,59909,1,2,1:2:0:0:
321,127,60228,6,0,P|362:111|449:137,1,120,6|10,1:2|0:0,0:0:0:0:
497,188,61026,1,2,1:2:0:0:
491,275,61345,1,10,0:0:0:0:
436,344,61664,2,0,L|317:333,1,120,2|2,1:2|0:0,0:0:0:0:
228,322,62462,1,2,1:2:0:0:
140,312,62781,6,0,L|129:193,1,120,6|8,1:2|0:0,0:0:0:0:
92,112,63579,2,0,P|132:105|171:114,1,80,2|8,1:2|0:0,0:0:0:0:
255,141,64217,2,0,P|295:148|334:139,1,80,10|2,3:2|3:2,0:0:0:0:
415,108,64856,1,8,0:0:0:0:
493,213,65334,6,0,P|509:254|483:341,1,120,6|12,1:2|0:0,0:0:0:0:
420,374,66132,1,2,1:2:0:0:
345,327,66451,1,10,0:0:0:0:
265,364,66770,2,0,L|146:353,1,120,2|2,1:2|0:0,0:0:0:0:
57,346,67568,1,2,1:2:0:0:
22,264,67888,6,0,L|33:145,1,120,6|8,1:2|0:0,0:0:0:0:
44,57,68685,1,2,1:2:0:0:
158,122,69164,2,0,P|199:138|286:112,1,120,6|8,1:2|0:0,0:0:0:0:
340,68,69962,1,2,1:2:0:0:
424,43,70281,1,8,0:0:0:0:
493,97,70600,6,0,L|500:176,1,80,4|8,1:2|0:0,0:0:0:0:
456,253,71239,2,0,B|464:344|464:344|495:371,2,120,2|2|10,1:2|3:2|0:0,0:0:0:0:
399,185,72515,2,0,L|320:178,1,80,2|14,1:2|0:0,0:0:0:0:
238,213,73153,6,0,P|231:173|240:134,1,80,6|8,1:2|0:0,0:0:0:0:
271,52,73792,1,2,1:2:0:0:
139,65,74270,2,0,L|20:76,1,120,6|8,1:2|0:0,0:0:0:0:
17,164,75068,1,10,0:0:0:0:
21,252,75388,1,8,0:0:0:0:
108,242,75707,6,0,L|187:235,1,80,4|8,1:2|0:0,0:0:0:0:
275,229,76345,2,0,B|267:320|267:320|236:347,2,120,2|2|10,1:2|3:2|0:0,0:0:0:0:
280,140,77622,1,2,1:2:0:0:
354,93,77941,1,14,0:0:0:0:
436,124,78260,6,0,P|443:164|434:203,1,80,6|8,1:2|0:0,0:0:0:0:
394,280,78898,1,2,1:2:0:0:
288,359,79377,2,0,L|169:348,1,120,6|8,1:2|0:0,0:0:0:0:
81,333,80175,1,2,3:2:0:0:
23,214,80653,6,0,P|34:147|81:103,1,120,6|10,1:2|0:0,0:0:0:0:
143,63,81451,1,10,0:0:0:0:
194,134,81770,1,8,0:0:0:0:
261,76,82090,2,0,L|340:69,1,80,8|10,0:0|0:0,0:0:0:0:
428,61,82728,1,10,0:0:0:0:
485,127,83047,1,8,0:0:0:0:
479,214,83366,6,0,L|472:293,1,80,8|10,0:0|0:0,0:0:0:0:
416,362,84005,1,10,0:0:0:0:
291,317,84483,2,0,P|250:308|196:322,1,80,6|2,1:2|1:2,0:0:0:0:
129,342,85122,2,0,P|88:351|34:337,1,80,6|0,1:2|1:0,0:0:0:0:
10,266,85760,6,0,L|21:147,1,120,6|10,1:2|0:0,0:0:0:0:
33,59,86558,1,10,0:0:0:0:
111,108,86877,1,8,0:0:0:0:
177,49,87196,2,0,L|256:42,1,80,8|10,0:0|0:0,0:0:0:0:
326,95,87834,1,10,0:0:0:0:
387,32,88153,1,8,0:0:0:0:
453,89,88473,6,0,L|460:168,1,80,8|8,0:0|0:0,0:0:0:0:
467,256,89111,1,10,0:0:0:0:
414,326,89430,1,2,3:0:0:0:
338,280,89749,2,0,P|282:264|217:281,1,120,14|10,0:0|0:0,0:0:0:0:
101,329,90707,6,0,L|50:324,1,40,14|14,0:0|0:0,0:0:0:0:
256,192,91026,12,0,100600,0:0:0:0:
