osu file format v14

[General]
AudioFilename: Iris.mp3
AudioLeadIn: 0
PreviewTime: 45337
Countdown: 1
SampleSet: Soft
StackLeniency: 0.7
Mode: 2
LetterboxInBreaks: 0
WidescreenStoryboard: 1

[Editor]
Bookmarks: 8399,15841,30725
DistanceSpacing: 2.7
BeatDivisor: 16
GridSize: 8
TimelineZoom: 1.5

[Metadata]
Title:Iris (TV Size)
TitleUnicode:アイリス (TV Size)
Artist:Aoi Eir
ArtistUnicode:藍井エイル
Creator:Yumeno Himiko
Version:Salad
Source:ソードアート・オンライン アリシゼーション
Tags:sword art online alicization sao season 3 three ed ending キリト Kirito アスナ Asuna アリス Alice ユージオ Eugeo フラクトライト examination exam
BeatmapID:1805421
BeatmapSetID:863100

[Difficulty]
HPDrainRate:4
CircleSize:2.5
OverallDifficulty:7
ApproachRate:7
SliderMultiplier:1.7
SliderTickRate:2

[Events]
//Background and Video events
0,0,"Alicization.jpg",0,0
Video,0,"Iris.flv"
//Break Periods
//Storyboard Layer 0 (Background)
//Storyboard Layer 1 (Fail)
//Storyboard Layer 2 (Pass)
//Storyboard Layer 3 (Foreground)
//Storyboard Sound Samples

[TimingPoints]
888,535.714285714286,4,2,1,40,1,0
1384,465.116279069767,4,2,1,40,1,0
8215,-100,4,2,1,20,0,0
8593,-100,4,2,1,40,0,0
8825,-100,4,2,0,60,0,0
8942,-100,4,2,1,60,0,0
13942,-100,4,2,0,60,0,0
15337,-100,4,2,0,40,0,0
16267,-100,4,2,1,60,0,0
31151,-100,4,2,0,70,0,0
31267,-100,4,2,1,70,0,0
44174,-100,4,2,0,70,0,0
45337,-100,4,2,0,50,0,0
45570,-100,4,2,0,60,0,0
45802,-100,4,2,0,70,0,0
46035,-100,4,2,1,80,0,1
60221,-100,4,2,1,50,0,1
60453,-100,4,2,1,60,0,1
60686,-100,4,2,1,70,0,1
60918,-100,4,2,1,80,0,1
75802,-100,4,2,1,80,0,0
81616,-100,4,2,0,80,0,0
82081,-100,4,2,0,60,0,0
83244,-100,4,2,0,80,0,0
83477,-100,4,2,0,60,0,0
86500,-100,4,2,0,40,0,0
86965,-100,4,2,0,80,0,0

[Colours]
Combo1 : 176,130,6
Combo2 : 250,244,141
Combo3 : 55,55,87

[HitObjects]
176,288,888,6,0,L|72:272,1,85,2|0,0:0|0:0,0:0:0:0:
296,240,1384,6,0,P|394:233|427:213,1,127.5,6|2,0:0|0:0,0:0:0:0:
214,239,2081,2,0,P|148:219|191:145,1,170,2|0,0:0|0:0,0:0:0:0:
296,160,2779,2,0,L|400:152,1,85,2|2,0:0|0:0,0:0:0:0:
160,208,3244,6,0,P|200:264|288:264,2,127.5,6|2|2,0:0|0:0|0:0,0:0:0:0:
256,136,4174,1,2,0:0:0:0:
72,80,4639,1,0,0:0:0:0:
136,80,4872,1,2,0:0:0:0:
352,72,5104,6,0,P|398:129|362:180,1,127.5,6|2,0:0|0:0,0:0:0:0:
240,184,5802,2,0,P|184:232|248:296,1,170,2|0,0:0|0:0,0:0:0:0:
352,296,6500,2,0,L|456:296,1,85,2|2,0:0|0:0,0:0:0:0:
208,296,6965,5,6,0:0:0:0:
256,192,7227,12,0,8244,0:0:0:0:
408,224,8593,5,2,0:0:0:0:
200,224,8825,6,0,L|64:224,2,127.5,4|2|2,0:0|0:0|0:0,0:0:0:0:
336,224,9756,2,0,L|344:112,1,85,4|0,0:1|0:0,0:0:0:0:
208,120,10221,2,0,L|112:112,1,85,8|0,0:0|0:0,0:0:0:0:
336,56,10686,6,0,L|496:48,2,127.5,4|0|0,0:0|0:0|0:0,0:0:0:0:
200,64,11616,2,0,P|160:120|240:176,1,170,4|8,0:1|0:0,0:0:0:0:
360,176,12314,1,2,0:0:0:0:
152,176,12546,6,0,L|8:176,2,127.5,4|2|0,0:0|0:0|0:0,0:0:0:0:
288,168,13477,2,0,L|384:168,1,85,4|0,0:1|0:0,0:0:0:0:
160,256,13942,1,4,0:0:0:0:
272,312,14174,1,0,0:0:0:0:
160,312,14407,1,2,3:0:0:0:
360,272,14756,2,0,P|408:232|416:176,1,85,2|2,3:0|3:0,0:0:0:0:
136,112,15337,6,0,L|240:112,1,85,4|4,0:0|0:0,0:0:0:0:
384,272,16035,1,0,3:0:0:0:
176,272,16267,6,0,P|104:272|56:216,2,127.5,4|0|0,0:0|0:0|0:0,0:0:0:0:
312,248,17197,2,0,L|320:144,1,85,2|0,0:0|0:0,0:0:0:0:
176,160,17663,2,0,L|168:64,1,85,8|0,0:0|0:0,0:0:0:0:
384,64,18128,6,0,P|448:64|512:104,2,127.5,2|2|0,0:0|0:0|0:0,0:0:0:0:
248,64,19058,2,0,L|144:64,2,85,0|0|10,0:0|0:0|0:0,0:0:0:0:
384,64,19756,1,0,0:0:0:0:
184,64,19988,6,0,P|112:64|56:112,2,127.5,4|2|2,0:0|0:0|0:0,0:0:0:0:
320,64,20918,2,0,L|304:184,1,85,2|0,0:0|0:0,0:0:0:0:
172,152,21383,2,0,L|188:256,1,85,10|0,0:0|0:0,0:0:0:0:
401,319,21849,6,0,L|417:231,1,85,4|0,0:0|0:0,0:0:0:0:
281,217,22314,2,0,L|205:168,1,85,10|0,0:0|0:0,0:0:0:0:
336,126,22779,2,0,L|440:102,2,85,2|0|8,0:0|0:0|0:0,0:0:0:0:
200,128,23477,1,0,0:0:0:0:
408,120,23709,6,0,P|472:136|512:192,2,127.5,2|2|0,0:0|0:0|0:0,0:0:0:0:
271,118,24639,2,0,L|159:118,1,85,2|0,0:0|0:0,0:0:0:0:
319,120,25104,2,0,L|327:228,1,85,8|0,0:0|0:0,0:0:0:0:
112,112,25570,6,0,P|56:112|8:64,2,127.5,2|0|0,0:0|0:0|0:0,0:0:0:0:
248,112,26500,2,0,L|264:224,1,85,2|0,0:0|0:0,0:0:0:0:
128,224,26965,2,0,L|96:128,1,85,8|2,0:0|0:0,0:0:0:0:
312,88,27430,6,0,P|368:120|312:208,1,170,2|8,0:0|0:0,0:0:0:0:
232,240,28128,1,2,0:0:0:0:
376,280,28360,2,0,L|392:160,1,85,2|0,0:0|0:0,0:0:0:0:
256,160,28825,2,0,L|136:136,1,85,8|2,0:0|0:0,0:0:0:0:
384,88,29290,6,0,P|432:136|368:200,1,170,2|8,0:0|0:0,0:0:0:0:
240,208,29988,1,0,0:0:0:0:
376,232,30221,2,0,L|496:256,1,85,0|0,0:0|0:0,0:0:0:0:
344,280,30686,1,10,0:0:0:0:
488,288,30918,1,0,0:0:0:0:
272,328,31151,6,0,P|216:336|120:320,2,127.5,4|0|0,0:0|0:0|0:0,0:0:0:0:
152,264,32081,2,0,L|136:160,1,85,4|0,0:1|0:0,0:0:0:0:
272,152,32546,2,0,L|392:128,1,85,8|0,0:0|0:0,0:0:0:0:
144,96,33011,6,0,L|8:96,2,127.5,4|0|0,0:1|0:0|0:0,0:0:0:0:
280,96,33942,2,0,L|392:96,1,85,4|0,0:1|0:0,0:0:0:0:
232,96,34407,2,0,L|184:200,1,85,8|0,0:0|0:0,0:0:0:0:
408,184,34872,6,0,P|464:192|504:256,2,127.5,4|0|0,0:0|0:0|0:0,0:0:0:0:
272,184,35802,2,0,L|160:184,1,85,4|0,0:1|0:0,0:0:0:0:
296,184,36267,2,0,L|384:184,1,85,8|0,0:0|0:0,0:0:0:0:
168,88,36732,6,0,P|120:128|168:208,1,170,2|10,0:0|0:0,0:0:0:0:
304,208,37430,1,0,0:0:0:0:
168,200,37663,2,0,P|80:198|13:140,1,170,2|8,0:0|0:0,0:0:0:0:
112,104,38360,1,0,0:0:0:0:
321,104,38593,6,0,L|457:104,2,127.5,2|2|2,0:0|0:0|0:0,0:0:0:0:
184,108,39523,2,0,P|168:172|178:195,1,85,4|0,0:1|0:0,0:0:0:0:
296,232,39988,1,8,0:0:0:0:
160,256,40221,1,0,0:0:0:0:
368,264,40453,6,0,P|424:264|504:224,2,127.5,4|2|2,0:1|0:0|0:0,0:0:0:0:
224,264,41383,2,0,P|168:264|88:224,2,127.5,4|2|2,0:1|0:0|0:0,0:0:0:0:
440,264,42314,6,0,L|456:160,1,85,4|0,0:1|0:0,0:0:0:0:
312,168,42779,2,0,L|200:144,1,85,8|0,0:0|0:0,0:0:0:0:
328,96,43244,2,0,P|336:144|288:208,1,127.5
175,280,43942,1,0,0:0:0:0:
408,280,44174,6,0,P|440:224|392:176,1,127.5,4|4,0:0|0:0,0:0:0:0:
112,144,44872,1,4,0:0:0:0:
320,120,45337,2,0,L|432:104,2,85,2|2|2,0:0|0:0|0:0,0:0:0:0:
112,144,46035,6,0,P|48:144|16:208,2,127.5,4|2|2,0:0|0:0|0:0,0:0:0:0:
336,224,46965,2,0,P|384:240|472:224,2,127.5,2|2|2,0:0|0:0|0:0,0:0:0:0:
136,224,47895,6,0,P|88:176|144:96,1,170,2|8,0:0|0:0,0:0:0:0:
240,80,48593,1,2,0:0:0:0:
357,56,48825,2,0,L|245:48,1,85,2|0,0:0|0:0,0:0:0:0:
172,34,49290,2,0,P|140:90|156:122,1,85,8|2,0:0|0:0,0:0:0:0:
372,264,49756,6,0,P|436:256|500:208,2,127.5,6|2|2,0:0|0:0|0:0,0:0:0:0:
144,272,50686,2,0,P|88:288|0:264,2,127.5,2|2|2,0:0|0:0|0:0,0:0:0:0:
352,272,51616,6,0,L|152:240,1,170,2|8,0:0|0:0,0:0:0:0:
80,224,52314,1,2,0:0:0:0:
214,207,52546,2,0,L|292:165,1,85,2|0,0:0|0:0,0:0:0:0:
184,120,53011,2,0,L|176:24,1,85,8|0,0:0|0:0,0:0:0:0:
400,32,53477,6,0,P|448:48|440:152,1,170,4|8,0:0|0:0,0:0:0:0:
353,212,54174,1,0,0:0:0:0:
136,256,54407,2,0,P|80:272|16:240,2,127.5,2|0|2,0:0|0:0|0:0,0:0:0:0:
360,240,55337,6,0,P|368:160|288:128,1,170,2|10,0:0|0:0,0:0:0:0:
160,120,56035,1,0,0:0:0:0:
294,58,56267,2,0,P|366:74|398:122,2,127.5,2|2|2,0:0|0:0|0:0,0:0:0:0:
91,71,57197,6,0,P|75:127|147:199,1,170,6|8,0:0|0:0,0:0:0:0:
259,207,57895,1,0,0:0:0:0:
129,296,58128,2,0,P|65:280|25:224,2,127.5,2|2|2,0:0|0:0|0:0,0:0:0:0:
328,296,59058,5,2,0:0:0:0:
384,264,59174,2,0,P|400:208|336:152,1,127.5,2|10,0:0|0:0,0:0:0:0:
224,152,59756,1,2,0:0:0:0:
360,128,59988,2,0,L|368:16,1,85,2|2,0:0|0:0,0:0:0:0:
233,38,60453,1,2,0:0:0:0:
368,32,60686,1,2,0:0:0:0:
136,248,60918,6,0,P|64:256|-8:232,2,127.5,4|2|2,0:0|0:0|0:0,0:0:0:0:
376,248,61849,2,0,P|448:256|520:232,2,127.5,2|2|2,0:0|0:0|0:0,0:0:0:0:
176,232,62779,6,0,P|152:176|200:112,1,127.5,2|2,0:0|0:0,0:0:0:0:
344,80,63477,1,2,0:0:0:0:
232,72,63709,2,0,L|120:64,1,85,2|0,0:0|0:0,0:0:0:0:
280,72,64174,2,0,L|272:176,1,85,8|2,0:0|0:0,0:0:0:0:
56,272,64639,6,0,P|104:240|176:240,2,127.5,4|2|2,0:0|0:0|0:0,0:0:0:0:
288,200,65570,2,0,L|432:200,2,127.5,2|2|2,0:0|0:0|0:0,0:0:0:0:
72,192,66500,6,0,P|24:128|88:80,1,170,4|8,0:0|0:0,0:0:0:0:
176,64,67197,1,0,0:0:0:0:
311,46,67430,2,0,L|405:53,1,85,2|0,0:0|0:0,0:0:0:0:
264,168,67895,2,0,L|160:192,1,85,8|0,0:0|0:0,0:0:0:0:
392,256,68360,6,0,P|448:216|424:120,1,170,4|8,0:0|0:0,0:0:0:0:
336,80,69058,1,0,0:0:0:0:
200,80,69290,2,0,P|144:80|88:136,2,127.5,2|0|2,0:0|0:0|0:0,0:0:0:0:
344,88,70221,6,0,P|384:136|320:224,1,170,2|10,0:0|0:0,0:0:0:0:
136,264,71151,2,0,L|0:279,2,127.5,2|2|2,0:0|0:0|0:0,0:0:0:0:
352,208,72081,6,0,P|368:144|272:88,1,170,4|8,0:0|0:0,0:0:0:0:
160,88,72779,1,2,0:0:0:0:
280,192,73011,2,0,P|320:212|424:188,2,127.5,2|2|2,0:0|0:0|0:0,0:0:0:0:
64,176,73942,6,0,P|112:112|216:80,1,170,2|8,0:0|0:0,0:0:0:0:
320,72,74639,1,0,0:0:0:0:
208,72,74872,1,2,0:0:0:0:
120,120,75104,1,2,0:0:0:0:
104,216,75337,1,14,0:0:0:0:
168,288,75570,1,2,0:0:0:0:
392,272,75802,6,0,P|448:208|384:136,1,170,4|8,0:0|0:0,0:0:0:0:
328,128,76500,1,0,0:0:0:0:
224,128,76732,1,4,0:1:0:0:
328,128,76965,2,0,L|422:129,2,85,2|8|2,0:0|0:0|0:0,0:0:0:0:
120,129,77663,6,0,P|80:177|152:249,1,170,2|10,0:0|0:0,0:0:0:0:
344,281,78593,2,0,L|200:297,2,127.5,2|2|2,0:0|0:0|0:0,0:0:0:0:
136,225,79523,6,0,P|80:225|16:137,1,170,4|10,0:0|0:0,0:0:0:0:
224,161,80453,2,0,P|296:145|344:81,2,127.5,2|2|2,0:0|0:0|0:0,0:0:0:0:
120,160,81383,1,2,0:0:0:0:
344,288,81616,2,0,L|352:184,1,85,4|4,0:0|0:0,0:0:0:0:
256,192,83244,12,0,86500,0:0:0:0:
200,272,86965,6,0,P|144:248|120:168,1,127.5,4|4,0:0|0:0,0:0:0:0:
392,184,87663,1,4,0:0:0:0:
