osu file format v14

[General]
AudioFilename: Iris.mp3
AudioLeadIn: 0
PreviewTime: 45337
Countdown: 1
SampleSet: Soft
StackLeniency: 0.7
Mode: 2
LetterboxInBreaks: 0
WidescreenStoryboard: 0

[Editor]
DistanceSpacing: 1.6
BeatDivisor: 4
GridSize: 8
TimelineZoom: 2.3

[Metadata]
Title:Iris (TV Size)
TitleUnicode:アイリス (TV Size)
Artist:Aoi Eir
ArtistUnicode:藍井エイル
Creator:Yumeno Himiko
Version:Fluctlight
Source:ソードアート・オンライン アリシゼーション
Tags:sword art online alicization sao season 3 three ed ending キリト Kirito アスナ Asuna アリス Alice ユージオ Eugeo フラクトライト examination exam
BeatmapID:1805419
BeatmapSetID:863100

[Difficulty]
HPDrainRate:6
CircleSize:3.6
OverallDifficulty:9
ApproachRate:9
SliderMultiplier:1.9
SliderTickRate:2

[Events]
//Background and Video events
0,0,"Alicization.jpg",0,0
Video,0,"Iris.flv"
//Break Periods
//Storyboard Layer 0 (Background)
//Storyboard Layer 1 (Fail)
//Storyboard Layer 2 (Pass)
//Storyboard Layer 3 (Foreground)
//Storyboard Sound Samples

[TimingPoints]
888,535.714285714286,4,2,1,40,1,0
1384,465.116279069767,4,2,1,40,1,0
8825,-76.9230769230769,4,2,0,60,0,0
8942,-76.9230769230769,4,2,1,60,0,0
13942,-76.9230769230769,4,2,0,60,0,0
15337,-76.9230769230769,4,2,0,40,0,0
16267,-76.9230769230769,4,2,1,60,0,0
31151,-76.9230769230769,4,2,0,70,0,0
31267,-76.9230769230769,4,2,1,70,0,0
44174,-76.9230769230769,4,2,0,70,0,0
45337,-76.9230769230769,4,2,0,50,0,0
45570,-76.9230769230769,4,2,0,60,0,0
45802,-76.9230769230769,4,2,0,70,0,0
46035,-71.4285714285714,4,2,1,80,0,1
60221,-71.4285714285714,4,2,1,50,0,1
60453,-71.4285714285714,4,2,1,60,0,1
60686,-71.4285714285714,4,2,1,70,0,1
60918,-71.4285714285714,4,2,1,80,0,1
75802,-71.4285714285714,4,2,1,80,0,0
81616,-71.4285714285714,4,2,0,80,0,0
82081,-71.4285714285714,4,2,0,60,0,0
83244,-71.4285714285714,4,2,0,80,0,0
83477,-71.4285714285714,4,2,0,60,0,0
86732,-71.4285714285714,4,2,0,40,0,0
86965,-71.4285714285714,4,2,0,80,0,0

[Colours]
Combo1 : 176,130,6
Combo2 : 250,244,141
Combo3 : 55,55,87

[HitObjects]
144,296,888,6,0,L|128:184,1,95,2|0,0:0|0:0,0:0:0:0:
344,208,1384,6,0,P|368:152|336:80,1,142.5,6|2,0:0|0:0,0:0:0:0:
176,80,1965,1,0,0:0:0:0:
112,80,2081,2,0,P|80:120|168:192,1,190,2|0,0:0|0:0,0:0:0:0:
296,192,2779,2,0,L|400:192,1,95,2|2,0:0|0:0,0:0:0:0:
152,304,3244,6,0,P|88:304|16:248,2,142.5,6|2|2,0:0|0:0|0:0,0:0:0:0:
288,304,4174,2,0,P|328:240|248:176,1,190,2|0,0:0|0:0,0:0:0:0:
150,166,4872,2,0,L|91:123,1,47.5,2|0,0:0|0:0,0:0:0:0:
248,80,5104,6,0,P|256:136|160:192,1,142.5,6|2,0:0|0:0,0:0:0:0:
336,192,5686,1,0,0:0:0:0:
256,192,5802,2,0,P|192:232|264:288,1,190,2|0,0:0|0:0,0:0:0:0:
369,288,6500,2,0,L|443:215,1,95,2|2,0:0|0:0,0:0:0:0:
112,192,6965,5,6,0:0:0:0:
256,192,7197,12,0,8360,0:0:0:0:
144,192,8593,5,2,0:0:0:0:
80,192,8709,1,0,0:0:0:0:
352,288,8825,6,0,P|408:248|352:168,1,185.249991519928,4|2,0:0|0:0,0:0:0:0:
152,224,9290,2,0,L|40:216,2,61.7499971733095,8|0|2,0:0|0:0|0:0,0:0:0:0:
336,232,9756,2,0,L|352:96,1,123.499994346619,4|0,0:1|0:0,0:0:0:0:
192,96,10221,1,8,0:0:0:0:
376,56,10453,1,0,0:0:0:0:
80,48,10686,6,0,P|32:104|104:192,1,185.249991519928,4|0,0:0|0:0,0:0:0:0:
280,216,11151,2,0,L|416:232,1,123.499994346619,8|0,0:0|0:0,0:0:0:0:
224,280,11616,1,4,0:1:0:0:
312,256,11732,2,2,P|336:192|288:144,1,123.499994346619,2|0,0:0|0:0,0:0:0:0:
128,144,12081,1,8,0:0:0:0:
72,64,12314,2,0,L|128:24,1,61.7499971733095,2|0,0:0|0:0,0:0:0:0:
368,32,12546,6,0,P|424:80|368:168,1,185.249991519928,4|2,0:0|0:0,0:0:0:0:
192,288,13011,2,0,L|176:208,1,61.7499971733095,8|0,0:0|0:0,0:0:0:0:
312,216,13244,2,0,L|328:64,1,123.499994346619,0|4,0:0|0:1,0:0:0:0:
144,56,13709,1,0,0:0:0:0:
448,296,13942,2,0,L|464:160,1,123.499994346619,4|0,0:0|0:0,0:0:0:0:
112,304,14407,6,0,L|24:296,1,61.7499971733095,2|0,3:0|3:0,3:0:0:0:
216,224,14756,1,2,3:0:0:0:
48,152,14988,1,2,3:0:0:0:
224,96,15221,1,2,3:0:0:0:
48,80,15337,6,0,L|120:80,1,61.7499971733095,4|0,0:0|0:0,0:0:0:0:
288,80,15570,1,4,0:0:0:0:
472,80,15802,1,0,3:0:0:0:
502,149,15918,1,0,3:0:0:0:
466,212,16034,1,0,3:0:0:0:
395,217,16150,1,0,3:0:0:0:
216,216,16267,6,0,P|120:248|152:336,1,185.249991519928,4|0,0:0|0:0,0:0:0:0:
248,312,16732,2,0,L|376:312,1,123.499994346619,8|0,0:0|0:0,0:0:0:0:
200,232,17197,2,0,L|184:80,1,123.499994346619,2|0,0:0|0:0,0:0:0:0:
312,96,17546,2,0,P|336:176|224:224,1,185.249991519928,2|0,0:0|0:0,0:0:0:0:
80,248,18128,6,0,L|224:264,1,123.499994346619,2|0,0:0|0:0,0:0:0:0:
328,280,18477,2,0,P|400:240|320:176,1,185.249991519928,2|0,0:0|0:0,0:0:0:0:
168,168,19058,2,0,L|160:32,1,123.499994346619
344,48,19523,1,10,0:0:0:0:
160,44,19756,2,0,L|168:128,1,61.7499971733095
288,104,19988,6,0,P|304:176|256:232,1,123.499994346619,4|0,0:0|0:0,0:0:0:0:
160,224,20337,2,0,P|128:280|176:320,1,123.499994346619,2|0,0:0|0:0,0:0:0:0:
280,320,20686,1,2,0:0:0:0:
464,320,20918,2,0,L|440:184,1,123.499994346619,2|0,0:0|0:0,0:0:0:0:
256,176,21383,2,0,L|112:152,1,123.499994346619,10|0,0:0|0:0,0:0:0:0:
368,64,21849,6,0,P|416:120|296:208,1,246.999988693238,4|10,0:0|0:0,0:0:0:0:
128,224,22546,2,0,L|120:136,1,61.7499971733095
232,152,22779,2,0,L|384:136,1,123.499994346619,2|0,0:0|0:0,0:0:0:0:
144,72,23244,2,0,L|-8:56,1,123.499994346619,8|0,0:0|0:0,0:0:0:0:
120,120,23593,1,0,0:0:0:0:
224,120,23709,6,0,P|288:168|256:232,1,123.499994346619,2|0,0:0|0:0,0:0:0:0:
160,208,24058,2,0,P|96:248|168:304,1,185.249991519928,2|0,0:0|0:0,0:0:0:0:
344,304,24639,2,0,L|200:296,1,123.499994346619,2|0,0:0|0:0,0:0:0:0:
336,256,24988,2,0,P|408:240|456:128,1,185.249991519928,2|0,0:0|0:0,0:0:0:0:
224,136,25570,6,0,P|128:120|72:48,1,185.249991519928,2|0,0:0|0:0,0:0:0:0:
200,24,26035,2,0,L|184:160,1,123.499994346619,8|0,0:0|0:0,0:0:0:0:
24,240,26500,2,0,L|152:256,1,123.499994346619,2|0,0:0|0:0,0:0:0:0:
328,272,26965,2,0,P|360:208|320:160,1,123.499994346619,8|2,0:0|0:0,0:0:0:0:
224,144,27314,1,0,0:0:0:0:
112,120,27430,6,0,L|256:112,1,123.499994346619,2|0,0:0|0:0,0:0:0:0:
416,96,27895,2,0,P|448:168|416:208,1,123.499994346619,8|2,0:0|0:0,0:0:0:0:
328,240,28244,1,0,0:0:0:0:
224,264,28360,2,0,P|184:208|232:144,1,123.499994346619,2|0,0:0|0:0,0:0:0:0:
384,144,28825,2,0,L|256:136,1,123.499994346619,8|2,0:0|0:0,0:0:0:0:
176,128,29174,1,0,0:0:0:0:
304,96,29290,6,0,P|336:168|280:208,1,123.499994346619,2|0,0:0|0:0,0:0:0:0:
128,232,29756,2,0,L|261:240,1,123.499994346619,8|2,0:0|0:0,0:0:0:0:
440,248,30221,2,0,L|456:96,1,123.499994346619
272,104,30686,1,8,0:0:0:0:
333,110,30802,1,0,0:0:0:0:
394,116,30918,1,0,0:0:0:0:
80,320,31151,6,0,P|32:248|88:192,1,123.499994346619,4|0,0:0|0:0,0:0:0:0:
368,232,31616,2,0,L|384:96,1,123.499994346619,8|0,0:0|0:0,0:0:0:0:
200,80,32081,1,4,0:1:0:0:
384,88,32314,1,0,0:0:0:0:
80,240,32546,2,0,P|48:160|104:128,1,123.499994346619,8|0,0:0|0:0,0:0:0:0:
168,112,32895,1,0,0:0:0:0:
280,72,33011,6,0,L|104:48,1,123.499994346619,4|0,0:1|0:0,0:0:0:0:
472,272,33477,2,0,L|480:128,1,123.499994346619,8|0,0:0|0:0,0:0:0:0:
296,136,33942,1,4,0:1:0:0:
200,136,34058,2,0,P|168:216|216:264,1,123.499994346619
376,248,34407,2,0,P|411:316|376:363,1,123.499994346619,8|0,0:0|0:0,0:0:0:0:
299,351,34756,1,0,0:0:0:0:
104,344,34872,6,0,P|80:280|120:232,1,123.499994346619,4|0,0:0|0:0,0:0:0:0:
432,224,35337,2,0,L|288:208,1,123.499994346619,8|0,0:0|0:0,0:0:0:0:
128,192,35802,2,0,L|112:40,1,123.499994346619,4|0,0:1|0:0,0:0:0:0:
440,40,36267,1,8,0:0:0:0:
256,40,36500,1,2,0:0:0:0:
472,40,36732,6,0,P|488:120|424:160,1,123.499994346619,2|0,0:0|0:0,0:0:0:0:
136,320,37197,2,0,P|120:240|184:200,1,123.499994346619,10|0,0:0|0:0,0:0:0:0:
361,210,37663,1,2,0:0:0:0:
452,207,37779,2,0,P|468:143|436:87,1,123.499994346619,0|0,3:0|0:0,0:0:0:0:
200,80,38128,2,0,L|56:64,1,123.499994346619,8|0,0:0|0:0,0:0:0:0:
184,48,38477,1,0,0:0:0:0:
296,24,38593,6,0,P|352:64|328:136,1,123.499994346619,2|0,0:0|0:0,0:0:0:0:
48,136,39058,2,0,P|24:192|56:264,1,123.499994346619,8|0,0:0|0:0,0:0:0:0:
224,256,39523,2,0,L|88:248,1,123.499994346619,4|0,0:1|0:0,0:0:0:0:
424,264,39988,2,0,L|471:131,1,123.499994346619,8|0,0:0|0:0,0:0:0:0:
365,143,40337,1,0,0:0:0:0:
256,136,40453,6,0,P|232:72|272:24,1,123.499994346619,4|0,0:1|0:0,0:0:0:0:
352,16,40802,1,0,0:0:0:0:
152,280,40918,2,0,L|16:272,1,123.499994346619,8|0,0:0|0:0,0:0:0:0:
352,248,41383,2,0,L|368:160,1,61.7499971733095,4|0,0:1|0:0,0:0:0:0:
154,172,41732,1,0,0:0:0:0:
62,133,41849,2,0,P|54:60|97:20,1,123.499994346619,8|0,0:0|0:0,0:0:0:0:
186,23,42197,1,0,0:0:0:0:
392,48,42314,6,0,P|462:86|458:132,1,123.499994346619,4|0,0:1|0:0,0:0:0:0:
136,288,42779,2,0,L|272:298,1,123.499994346619,10|0,0:0|0:0,0:0:0:0:
104,224,43244,2,0,P|64:152|123:104,1,123.499994346619,2|0,0:0|0:0,0:0:0:0:
288,128,43593,2,0,L|424:112,1,123.499994346619,2|0,0:0|0:0,0:0:0:0:
160,48,43942,2,0,L|96:40,1,61.7499971733095,2|0,0:0|0:0,0:0:0:0:
304,304,44174,5,4,0:0:0:0:
480,224,44523,1,4,0:0:0:0:
32,128,44872,1,4,0:0:0:0:
392,264,45337,2,0,L|408:176,1,61.7499971733095,2|0,0:0|0:0,0:0:0:0:
304,184,45570,2,0,L|296:104,1,61.7499971733095,2|0,0:0|0:0,0:0:0:0:
392,88,45802,2,0,L|464:72,1,61.7499971733095,2|0,0:0|0:0,0:0:0:0:
80,312,46035,6,0,P|32:240|80:200,1,132.999995941162,4|0,0:0|0:0,0:0:0:0:
232,168,46383,2,0,L|400:144,1,132.999995941162,2|0,0:0|0:0,0:0:0:0:
176,72,46732,2,0,L|88:56,1,66.4999979705811,2|0,0:0|0:0,0:0:0:0:
304,56,46965,6,0,P|368:112|328:168,1,132.999995941162,2|0,0:0|0:0,0:0:0:0:
176,160,47314,2,0,P|136:216|192:272,1,132.999995941162,2|0,0:0|0:0,0:0:0:0:
352,272,47663,2,0,L|424:288,1,66.4999979705811,2|0,0:0|0:0,0:0:0:0:
208,328,47895,6,0,P|168:264|264:208,1,199.499993911743,2|0,0:0|0:0,0:0:0:0:
440,208,48360,2,0,L|456:64,1,132.999995941162,8|2,0:0|0:0,0:0:0:0:
240,64,48825,1,2,0:0:0:0:
173,57,48941,1,0,0:0:0:0:
107,50,49057,1,0,0:0:0:0:
320,48,49290,2,0,P|384:112|360:176,1,132.999995941162,8|2,0:0|0:0,0:0:0:0:
296,216,49639,1,0,0:0:0:0:
96,312,49756,6,0,P|72:240|136:208,1,132.999995941162,6|0,0:0|0:0,0:0:0:0:
288,200,50104,2,0,P|312:136|256:96,1,132.999995941162,2|0,0:0|0:0,0:0:0:0:
88,88,50453,2,0,L|16:88,1,66.4999979705811,2|0,0:0|0:0,0:0:0:0:
256,280,50686,6,0,L|424:272,1,132.999995941162,2|0,0:0|0:0,0:0:0:0:
136,240,51035,2,0,P|104:176|176:136,1,132.999995941162,2|0,0:0|0:0,0:0:0:0:
408,96,51383,2,0,L|336:96,1,66.4999979705811,2|0,0:0|0:0,0:0:0:0:
96,96,51616,6,0,P|32:144|128:216,1,199.499993911743,2|0,0:0|0:0,0:0:0:0:
272,224,52081,2,0,L|416:224,1,132.999995941162,8|2,0:0|0:0,0:0:0:0:
160,336,52546,2,0,L|152:248,1,66.4999979705811,2|0,0:0|0:0,0:0:0:0:
280,256,52779,2,0,L|288:160,1,66.4999979705811
96,80,53011,2,0,P|48:136|104:192,1,132.999995941162,8|0,0:0|0:0,0:0:0:0:
176,200,53360,1,0,0:0:0:0:
424,208,53477,6,0,L|440:72,1,132.999995941162,4|0,0:0|0:0,0:0:0:0:
104,80,53942,2,0,P|80:144|136:176,1,132.999995941162,8|0,0:0|0:0,0:0:0:0:
232,192,54290,1,0,0:0:0:0:
424,256,54407,2,2,L|200:272,2,199.499993911743,2|0|2,0:0|0:0|0:0,0:0:0:0:
321,224,55221,1,0,0:0:0:0:
216,200,55337,6,0,L|208:48,1,132.999995941162,2|0,0:0|0:0,0:0:0:0:
424,72,55802,2,0,L|416:232,1,132.999995941162,10|0,0:0|0:0,0:0:0:0:
208,256,56267,2,0,P|104:272|40:224,1,132.999995941162,2|0,0:0|0:0,0:0:0:0:
312,240,56616,2,0,P|336:176|312:104,1,132.999995941162,2|0,0:0|0:0,0:0:0:0:
136,96,56965,2,0,L|224:88,1,66.4999979705811,2|0,0:0|0:0,0:0:0:0:
423,89,57197,6,0,P|403:148|339:176,1,132.999995941162,6|0,0:0|0:0,0:0:0:0:
136,152,57663,2,0,P|96:224|136:272,1,132.999995941162,8|0,0:0|0:0,0:0:0:0:
208,320,58011,1,0,0:0:0:0:
424,328,58128,2,0,P|456:264|392:200,1,132.999995941162,2|0,0:0|0:0,0:0:0:0:
240,168,58477,2,0,L|88:128,1,132.999995941162,2|0,0:0|0:0,0:0:0:0:
304,72,58825,2,0,L|416:56,1,66.4999979705811,2|0,0:0|0:0,0:0:0:0:
152,56,59058,5,2,0:0:0:0:
64,112,59174,2,0,P|72:192|152:248,1,132.999995941162,2|0,0:0|0:0,0:0:0:0:
336,264,59523,2,0,L|424:256,1,66.4999979705811,10|0,0:0|0:0,0:0:0:0:
296,200,59756,2,0,L|208:192,1,66.4999979705811,2|0,0:0|0:0,0:0:0:0:
336,144,59988,2,0,L|344:64,1,66.4999979705811,2|0,0:0|0:0,0:0:0:0:
136,72,60221,6,0,L|64:80,1,66.4999979705811,2|0,0:0|0:0,0:0:0:0:
176,96,60453,2,0,L|192:208,1,66.4999979705811,2|0,0:0|0:0,0:0:0:0:
80,176,60686,2,0,L|64:248,1,66.4999979705811,2|0,0:0|0:0,0:0:0:0:
320,312,60918,6,0,P|400:288|440:232,1,132.999995941162,4|0,0:0|0:0,0:0:0:0:
232,232,61267,2,0,P|200:160|248:112,1,132.999995941162,2|0,0:0|0:0,0:0:0:0:
424,112,61616,2,0,L|496:112,1,66.4999979705811,2|0,0:0|0:0,0:0:0:0:
248,56,61849,6,0,P|216:128|280:160,1,132.999995941162,2|0,0:0|0:0,0:0:0:0:
440,256,62197,2,0,L|288:280,1,132.999995941162,2|0,0:0|0:0,0:0:0:0:
88,296,62546,2,0,L|184:280,1,66.4999979705811,2|0,0:0|0:0,0:0:0:0:
344,216,62779,6,0,P|368:144|320:112,1,132.999995941162,2|0,0:0|0:0,0:0:0:0:
152,112,63128,2,0,P|120:40|176:16,1,132.999995941162,2|0,0:0|0:0,0:0:0:0:
336,16,63477,2,0,L|416:16,1,66.4999979705811,2|0,0:0|0:0,0:0:0:0:
192,296,63709,1,2,0:0:0:0:
129,277,63825,1,0,0:0:0:0:
65,258,63941,1,0,0:0:0:0:
272,208,64174,2,0,P|304:144|256:96,1,132.999995941162,8|2,0:0|0:0,0:0:0:0:
168,88,64523,1,0,0:0:0:0:
368,304,64639,6,0,P|448:320|512:296,1,132.999995941162,4|0,0:0|0:0,0:0:0:0:
288,256,64988,2,0,P|256:192|304:144,1,132.999995941162,2|0,0:0|0:0,0:0:0:0:
480,128,65337,2,0,L|392:120,1,66.4999979705811,2|0,0:0|0:0,0:0:0:0:
192,104,65570,6,0,P|136:176|200:224,1,132.999995941162,2|0,0:0|0:0,0:0:0:0:
408,216,65918,2,0,P|464:280|464:336,1,132.999995941162,2|0,0:0|0:0,0:0:0:0:
200,328,66267,2,0,L|120:320,1,66.4999979705811,2|0,0:0|0:0,0:0:0:0:
448,80,66500,6,0,P|472:152|368:224,1,199.499993911743,4|0,0:0|0:0,0:0:0:0:
160,248,66965,2,0,L|152:104,1,132.999995941162,8|0,0:0|0:0,0:0:0:0:
328,186,67430,1,2,0:0:0:0:
249,169,67546,1,0,0:0:0:0:
223,94,67662,1,0,0:0:0:0:
288,45,67778,1,0,0:0:0:0:
472,40,67895,2,0,P|488:128|424:160,1,132.999995941162,8|0,0:0|0:0,0:0:0:0:
360,168,68244,1,0,0:0:0:0:
144,168,68360,6,0,P|96:240|168:296,1,132.999995941162,4|0,0:0|0:0,0:0:0:0:
320,312,68825,2,0,L|336:160,1,132.999995941162,8|0,0:0|0:0,0:0:0:0:
232,160,69174,1,0,0:0:0:0:
32,120,69290,2,2,L|240:112,2,199.499993911743,2|0|2,0:0|0:0|0:0,0:0:0:0:
128,160,70104,1,0,0:0:0:0:
344,256,70221,6,0,P|368:176|328:128,1,132.999995941162,2|0,0:0|0:0,0:0:0:0:
136,112,70686,2,0,L|0:88,1,132.999995941162,10|0,0:0|0:0,0:0:0:0:
352,312,71151,2,0,P|400:256|352:208,1,132.999995941162,2|0,0:0|0:0,0:0:0:0:
192,184,71500,2,0,L|32:160,1,132.999995941162,2|0,0:0|0:0,0:0:0:0:
280,104,71849,2,0,L|384:88,1,66.4999979705811,2|0,0:0|0:0,0:0:0:0:
152,328,72081,6,0,P|96:272|184:208,1,199.499993911743,4|0,0:0|0:0,0:0:0:0:
376,216,72546,2,0,P|400:136|344:104,1,132.999995941162,8|2,0:0|0:0,0:0:0:0:
264,104,72895,1,0,0:0:0:0:
64,112,73011,2,0,P|48:48|104:8,1,132.999995941162,2|0,0:0|0:0,0:0:0:0:
296,296,73360,2,0,L|448:296,1,132.999995941162,2|0,0:0|0:0,0:0:0:0:
224,192,73709,2,0,L|128:192,1,66.4999979705811,2|0,0:0|0:0,0:0:0:0:
384,192,73942,6,0,P|424:136|360:80,1,132.999995941162,2|0,0:0|0:0,0:0:0:0:
176,280,74407,2,0,P|152:208|184:168,1,132.999995941162,8|0,0:0|0:0,0:0:0:0:
392,168,74872,1,2,0:0:0:0:
219,129,75104,1,2,0:0:0:0:
395,80,75337,1,14,0:0:0:0:
176,280,75570,1,2,0:0:0:0:
488,280,75802,6,0,P|496:208|416:160,1,132.999995941162,4|0,0:0|0:0,0:0:0:0:
248,136,76267,2,0,L|96:112,1,132.999995941162,8|0,0:0|0:0,0:0:0:0:
224,88,76616,1,0,0:0:0:0:
328,56,76732,2,0,P|360:128|312:192,1,132.999995941162,4|0,0:1|0:0,0:0:0:0:
16,296,77197,2,0,L|160:312,1,132.999995941162,8|0,0:0|0:0,0:0:0:0:
255,317,77546,1,0,0:0:0:0:
360,280,77663,6,0,L|375:142,1,132.999995941162,2|0,0:0|0:0,0:0:0:0:
162,190,78128,2,0,L|146:38,1,132.999995941162,10|0,0:0|0:0,0:0:0:0:
360,32,78593,2,0,P|400:88|352:152,1,132.999995941162,2|0,0:0|0:0,0:0:0:0:
184,152,78942,2,0,P|144:224|192:256,1,132.999995941162,2|0,0:0|0:0,0:0:0:0:
352,296,79290,2,0,L|432:304,1,66.4999979705811,2|0,0:0|0:0,0:0:0:0:
200,328,79523,6,0,P|128:304|128:224,1,132.999995941162,4|0,0:0|0:0,0:0:0:0:
328,232,79988,2,0,P|392:200|392:128,1,132.999995941162,10|0,0:0|0:0,0:0:0:0:
184,152,80453,2,0,P|136:80|184:40,1,132.999995941162,2|0,0:0|0:0,0:0:0:0:
360,48,80802,2,0,P|368:120|312:184,1,132.999995941162,2|0,0:0|0:0,0:0:0:0:
96,224,81151,2,0,L|184:240,1,66.4999979705811,2|0,0:0|0:0,0:0:0:0:
376,280,81383,6,0,P|424:200|384:160,1,132.999995941162,2|4,0:0|0:0,0:0:0:0:
112,136,81849,1,4,0:0:0:0:
320,136,82081,1,0,0:0:0:0:
443,136,82314,2,2,P|363:176|243:104,2,199.499993911743
32,136,83244,5,4,0:0:0:0:
256,192,83477,12,0,86732,0:0:0:0:
131,273,86965,6,0,L|115:105,1,132.999995941162,4|0,0:0|0:0,0:0:0:0:
314,193,87314,2,0,L|193:113,1,132.999995941162,4|0,0:0|0:0,0:0:0:0:
419,47,87663,1,4,0:0:0:0:
