osu file format v14

[General]
AudioFilename: audio.mp3
AudioLeadIn: 0
PreviewTime: 44195
Countdown: 0
SampleSet: Soft
StackLeniency: 0.7
Mode: 0
LetterboxInBreaks: 0
WidescreenStoryboard: 0

[Editor]
DistanceSpacing: 1.1
BeatDivisor: 4
GridSize: 32
TimelineZoom: 1.5

[Metadata]
Title:Iris (TV Size)
TitleUnicode:アイリス (TV Size)
Artist:Aoi Eir
ArtistUnicode:藍井エイル
Creator:Seto Kousuke
Version:Trynna's Hard
Source:ソードアート・オンライン アリシゼーション
Tags:sword art online alicization sao ending ed Trynna
BeatmapID:1806906
BeatmapSetID:863319

[Difficulty]
HPDrainRate:5
CircleSize:4
OverallDifficulty:7
ApproachRate:7.5
SliderMultiplier:1.5
SliderTickRate:1

[Events]
//Background and Video events
Video,-920,"sao anime.avi"
0,0,"jpg bg.jpg",0,0
//Break Periods
//Storyboard Layer 0 (Background)
//Storyboard Layer 1 (Fail)
//Storyboard Layer 2 (Pass)
//Storyboard Layer 3 (Foreground)
//Storyboard Sound Samples

[TimingPoints]
475,465.116279069767,4,2,1,50,1,0
7684,-76.9230769230769,4,2,1,65,0,0
15358,-83.3333333333333,4,2,1,50,0,0
30242,-76.9230769230769,4,2,1,60,0,0
45126,-66.6666666666667,4,2,1,80,0,1
74893,-66.6666666666667,4,2,1,70,0,0
82335,-100,4,2,1,70,0,0
85397,-100,4,2,1,50,0,0
85474,-100,4,2,1,70,0,0

[Colours]
Combo1 : 203,160,102
Combo2 : 72,91,175
Combo3 : 107,141,165
Combo4 : 236,203,104

[HitObjects]
78,108,9,5,2,0:0:0:0:
78,108,242,1,2,0:0:0:0:
78,108,475,2,0,L|152:100,1,75,2|0,0:0|0:0,0:0:0:0:
172,84,823,1,2,0:0:0:0:
237,156,1056,1,0,0:0:0:0:
237,156,1172,2,0,L|231:250,1,75,2|0,0:0|0:0,0:0:0:0:
310,288,1637,1,2,0:0:0:0:
324,191,1870,1,2,0:0:0:0:
336,94,2102,1,2,0:0:0:0:
414,150,2335,6,0,P|452:146|489:150,1,75,2|0,0:0|0:0,0:0:0:0:
509,139,2684,2,0,L|502:251,1,112.5,2|2,0:0|0:0,0:0:0:0:
439,325,3265,2,0,B|357:344|380:286|294:308,1,150,2|0,0:0|0:0,0:0:0:0:
183,349,3963,5,2,0:0:0:0:
183,349,4079,1,0,0:0:0:0:
183,349,4195,2,0,P|173:310|184:265,1,75,2|0,0:0|0:0,0:0:0:0:
193,256,4544,2,0,P|203:217|192:172,1,75,2|0,0:0|0:0,0:0:0:0:
185,161,4893,1,2,0:0:0:0:
23,51,5358,2,0,L|97:57,2,75,2|2|2,0:0|0:0|0:0,0:0:0:0:
51,144,6056,5,2,0:0:0:0:
256,192,6172,12,0,7451,0:0:0:0:
256,192,7684,5,2,0:0:0:0:
256,192,7800,1,0,0:0:0:0:
256,191,7916,2,0,P|262:142|254:95,1,97.4999955368044,6|0,3:2|0:0,0:0:0:0:
297,23,8265,2,0,P|250:12|204:26,1,97.4999955368044,2|2,0:0|0:0,0:0:0:0:
145,85,8614,2,0,B|36:81|36:81|67:54,1,146.249993305207,2|0,0:0|0:0,0:0:0:0:
127,2,9079,1,2,0:0:0:0:
132,167,9312,1,10,0:0:0:0:
9,244,9544,5,2,0:0:0:0:
9,244,9661,1,0,0:0:0:0:
10,244,9777,2,0,B|88:226|57:288|146:272,1,146.249993305207,2|2,3:2|0:0,0:0:0:0:
197,332,10242,1,8,0:0:0:0:
271,195,10474,1,2,0:0:0:0:
330,339,10707,1,2,3:2:0:0:
330,339,10823,2,0,P|368:321|429:315,1,97.4999955368044,8|0,0:0|0:0,0:0:0:0:
493,358,11172,1,8,0:0:0:0:
445,207,11405,5,2,3:2:0:0:
445,207,11521,1,0,3:2:0:0:
445,207,11637,2,0,L|449:83,1,97.4999955368044,2|0,3:2|0:0,0:0:0:0:
367,150,11986,2,0,L|370:53,1,97.4999955368044,2|0,0:0|0:0,0:0:0:0:
288,88,12335,1,2,0:0:0:0:
125,58,12568,1,0,3:2:0:0:
125,58,12684,2,0,L|27:54,1,97.4999955368044,8|0,0:0|0:0,0:0:0:0:
5,134,13033,2,0,P|21:182|71:212,1,97.4999955368044,14|2,0:0|0:0,0:0:0:0:
115,353,13498,5,10,0:0:0:0:
115,353,13614,2,0,L|15:365,2,97.4999955368044,8|8|8,0:0|0:0|0:0,0:0:0:0:
256,247,14312,1,8,0:0:0:0:
256,247,14428,2,0,L|257:344,1,97.4999955368044,8|8,0:0|0:0,0:0:0:0:
422,338,14893,2,0,L|420:290,1,48.7499977684022,4|4,3:0|3:0,0:0:0:0:
440,271,15126,2,0,L|439:222,1,48.7499977684022,0|0,3:0|3:0,0:0:0:0:
454,199,15358,6,0,P|411:191|364:196,1,89.9999972534181,6|0,3:2|0:0,0:0:0:0:
296,153,15707,2,0,P|283:103|339:41,1,134.999995880127,2|2,0:0|0:0,0:0:0:0:
177,90,16288,2,0,L|132:90,1,44.999998626709,2|0,3:2|0:0,0:0:0:0:
63,44,16521,1,2,0:0:0:0:
63,44,16637,2,0,B|82:94|82:94|61:178,1,134.999995880127,2|2,0:0|0:0,0:0:0:0:
7,326,17219,6,0,P|40:296|84:290,1,89.9999972534181,2|0,3:2|0:0,0:0:0:0:
134,227,17568,2,0,P|178:229|232:309,1,134.999995880127,2|2,0:0|0:0,0:0:0:0:
382,357,18149,1,2,3:2:0:0:
337,201,18381,1,0,0:0:0:0:
492,247,18614,2,0,L|404:267,1,89.9999972534181,0|2,3:0|0:0,0:0:0:0:
337,201,18963,5,2,0:0:0:0:
333,197,19079,2,0,P|324:130|337:85,1,89.9999972534181,2|2,3:2|0:0,0:0:0:0:
393,64,19428,2,0,L|258:72,1,134.999995880127,2|2,0:0|0:0,0:0:0:0:
103,103,20009,2,0,P|88:60|97:17,1,89.9999972534181,2|2,3:2|0:0,0:0:0:0:
200,142,20474,2,0,P|208:185|194:227,1,89.9999972534181,2|2,3:2|0:0,0:0:0:0:
126,376,20940,6,0,P|193:335|284:374,2,179.999994506836,2|2|2,3:2|3:2|3:2,0:0:0:0:
5,235,22102,1,0,0:0:0:0:
194,230,22335,2,0,L|256:229,1,44.999998626709,4|0,3:0|0:0,0:0:0:0:
104,274,22568,5,2,0:0:0:0:
104,274,22684,1,2,0:0:0:0:
104,274,22800,2,0,L|99:184,1,89.9999972534181,2|2,3:2|0:0,0:0:0:0:
38,130,23149,2,0,P|96:99|157:122,1,134.999995880127,2|2,0:0|0:0,0:0:0:0:
311,73,23730,2,0,L|416:73,1,89.9999972534181,2|2,3:2|0:0,0:0:0:0:
466,17,24079,2,0,B|486:68|486:68|469:146,1,134.999995880127,2|2,0:0|0:0,0:0:0:0:
494,232,24544,5,0,0:0:0:0:
494,232,24661,2,0,L|486:346,1,89.9999972534181,2|0,3:2|0:0,0:0:0:0:
417,360,25009,2,0,P|369:344|349:263,1,134.999995880127,2|2,0:0|0:0,0:0:0:0:
255,129,25591,1,2,3:2:0:0:
165,267,25823,1,0,0:0:0:0:
304,203,26056,1,0,3:0:0:0:
145,173,26288,5,2,0:0:0:0:
145,173,26405,1,2,0:0:0:0:
145,173,26521,2,0,P|95:203|83:319,1,179.999994506836,2|0,3:2|3:0,0:0:0:0:
238,360,27219,2,0,L|293:355,1,44.999998626709,2|2,0:0|0:0,0:0:0:0:
345,304,27451,2,0,B|441:287|417:364|512:347,1,179.999994506836,2|0,3:2|3:0,0:0:0:0:
440,202,28149,5,2,0:0:0:0:
440,202,28265,1,2,0:0:0:0:
440,202,28381,2,0,P|431:150|437:107,1,89.9999972534181,2|0,3:2|0:0,0:0:0:0:
458,35,28730,1,0,0:0:0:0:
458,35,28847,1,2,3:2:0:0:
339,144,29079,2,0,B|208:152|208:152|189:130|200:106,1,179.999994506836,2|0,0:0|0:0,0:0:0:0:
310,31,29777,2,0,L|314:2,3,29.9999990844727,8|0|0|0,0:0|3:0|3:0|3:0,0:0:0:0:
351,164,30242,6,0,L|344:261,1,97.4999955368044,6|0,3:2|0:0,0:0:0:0:
275,317,30591,1,2,0:0:0:0:
275,317,30707,2,0,P|226:299|199:260,1,97.4999955368044,8|2,0:0|0:0,0:0:0:0:
117,202,31056,1,0,0:0:0:0:
117,202,31172,2,0,L|107:299,2,97.4999955368044,2|0|8,3:2|0:0|0:0,0:0:0:0:
45,41,31870,5,2,3:2:0:0:
45,41,31986,1,2,3:2:0:0:
45,41,32102,2,0,P|91:41|135:75,1,97.4999955368044,2|0,3:2|0:0,0:0:0:0:
212,35,32451,1,2,0:0:0:0:
212,35,32568,2,0,P|250:6|298:5,1,97.4999955368044,8|2,0:0|0:0,0:0:0:0:
368,58,32916,1,0,0:0:0:0:
368,58,33033,2,0,B|375:108|375:108|362:155,2,97.4999955368044,2|0|8,3:2|3:0|0:0,0:0:0:0:
466,203,33730,6,0,L|458:272,1,48.7499977684022,2|2,3:2|3:2,0:0:0:0:
496,332,33963,2,0,P|448:337|404:316,1,97.4999955368044,2|0,3:2|0:0,0:0:0:0:
324,354,34312,1,2,0:0:0:0:
324,354,34428,2,0,B|281:342|281:342|226:352,1,97.4999955368044,8|2,0:0|0:0,0:0:0:0:
149,314,34777,1,0,0:0:0:0:
149,314,34893,1,2,3:2:0:0:
171,139,35126,1,0,0:0:0:0:
313,241,35358,1,8,0:0:0:0:
162,227,35591,1,2,0:0:0:0:
324,147,35823,6,0,P|399:202|394:296,2,194.999991073609,2|10|2,3:2|0:2|3:2,0:0:0:0:
261,84,36870,2,0,P|214:93|166:89,1,97.4999955368044,8|0,0:0|0:0,0:0:0:0:
92,40,37219,1,8,0:0:0:0:
56,211,37451,5,2,3:2:0:0:
56,211,37568,1,2,3:2:0:0:
56,211,37684,2,0,L|60:314,1,97.4999955368044,2|0,3:2|0:0,0:0:0:0:
133,357,38033,1,2,0:0:0:0:
133,357,38149,2,0,P|181:359|218:328,1,97.4999955368044,8|2,0:0|0:0,0:0:0:0:
274,161,38614,2,0,P|249:201|256:249,1,97.4999955368044,2|0,3:2|0:0,0:0:0:0:
402,347,39079,1,10,0:2:0:0:
217,327,39312,1,2,0:0:0:0:
368,254,39544,6,0,B|413:242|413:242|465:266,1,97.4999955368044,2|0,3:2|0:0,0:0:0:0:
504,187,39893,1,2,0:0:0:0:
504,187,40009,2,0,L|491:86,1,97.4999955368044,10|2,0:0|0:0,0:0:0:0:
413,48,40358,1,0,0:0:0:0:
413,48,40474,1,2,3:2:0:0:
413,48,40591,2,0,B|368:32|368:32|315:40,1,97.4999955368044,8|2,0:0|0:0,0:0:0:0:
251,97,40940,2,0,P|230:53|230:5,1,97.4999955368044,8|2,0:0|3:2,0:0:0:0:
55,27,41405,6,0,B|78:95|78:95|59:225,1,194.999991073609,2|10,3:2|0:2,0:0:0:0:
162,321,42102,1,0,0:0:0:0:
277,231,42335,2,0,L|273:182,1,48.7499977684022,10|0,0:2|3:0,0:0:0:0:
288,158,42568,2,0,L|284:109,1,48.7499977684022,0|2,3:0|3:2,0:0:0:0:
302,84,42800,2,0,P|350:81|398:71,1,97.4999955368044,8|2,0:0|3:2,0:0:0:0:
500,176,43265,6,0,B|453:160|453:160|402:171,1,97.4999955368044,14|0,0:2|0:0,0:0:0:0:
448,245,43614,2,0,L|445:345,1,97.4999955368044,12|0,0:0|0:0,0:0:0:0:
365,367,43963,1,12,0:0:0:0:
365,367,44195,2,0,P|297:352|281:240,1,194.999991073609,2|2,0:0|0:0,0:0:0:0:
279,241,45126,6,0,L|154:231,1,112.500004291535,6|0,3:2|0:0,0:0:0:0:
81,231,45474,2,0,P|92:178|138:147,1,112.500004291535,2|0,0:0|0:0,0:0:0:0:
160,53,45823,2,0,L|215:59,1,56.2500021457673,2|0,0:0|0:0,0:0:0:0:
319,111,46056,2,0,L|438:95,1,112.500004291535,2|0,3:2|0:0,0:0:0:0:
480,34,46405,2,0,P|469:88|495:137,1,112.500004291535,2|0,0:0|0:0,0:0:0:0:
448,207,46754,1,2,0:0:0:0:
490,370,46986,6,0,B|370:396|408:295|279:330,1,225.000008583069,2|8,3:2|0:0,0:0:0:0:
146,226,47684,1,2,0:0:0:0:
262,104,47916,1,2,3:2:0:0:
262,104,48033,2,0,P|255:50|214:13,1,112.500004291535,8|0,0:0|0:0,0:0:0:0:
178,88,48381,2,0,L|62:80,1,112.500004291535,8|2,0:0|3:2,0:0:0:0:
21,153,48730,5,2,3:2:0:0:
21,153,48847,2,0,B|12:201|12:201|25:265,1,112.500004291535,2|0,3:2|0:0,0:0:0:0:
10,346,49195,2,0,L|161:323,1,112.500004291535,2|0,0:0|0:0,0:0:0:0:
204,342,49544,2,0,P|201:313|193:287,1,56.2500021457673,2|0,0:0|0:0,0:0:0:0:
257,209,49777,2,0,L|260:52,1,112.500004291535,2|0,3:2|0:0,0:0:0:0:
323,40,50126,2,0,P|371:68|426:71,1,112.500004291535,2|0,0:0|0:0,0:0:0:0:
460,147,50474,1,2,0:0:0:0:
358,294,50707,6,0,B|301:285|301:285|250:297|250:297|192:286,1,168.750006437302,2|0,3:2|0:0,0:0:0:0:
112,258,51172,1,8,0:0:0:0:
37,106,51405,1,2,0:0:0:0:
190,37,51637,1,2,3:2:0:0:
190,37,51754,2,0,L|301:51,1,112.500004291535,8|0,0:0|0:0,0:0:0:0:
372,6,52102,2,0,P|385:59|363:110,1,112.500004291535,8|2,0:0|3:2,0:0:0:0:
261,239,52568,6,0,B|352:227|320:295|417:283,1,168.750006437302,6|0,3:2|0:0,0:0:0:0:
484,334,53033,1,8,0:0:0:0:
398,189,53265,1,2,0:0:0:0:
279,319,53498,2,0,L|166:311,1,112.500004291535,2|0,3:2|0:0,0:0:0:0:
97,360,53847,2,0,B|86:303|86:303|105:247,1,112.500004291535,2|0,0:0|0:0,0:0:0:0:
145,178,54195,1,2,0:0:0:0:
26,57,54428,6,0,B|134:68|134:68|160:42|145:11,1,168.750006437302,2|0,3:2|0:0,0:0:0:0:
231,6,54893,2,0,P|238:61|214:118,1,112.500004291535,10|0,0:0|0:0,0:0:0:0:
266,251,55358,2,0,L|377:235,1,112.500004291535,2|0,3:2|0:0,0:0:0:0:
454,271,55707,2,0,P|463:216|433:170,1,112.500004291535,2|0,0:0|0:0,0:0:0:0:
431,85,56056,1,2,0:0:0:0:
268,40,56288,6,0,L|155:48,1,112.500004291535,2|0,3:2|0:0,0:0:0:0:
88,100,56637,1,0,0:0:0:0:
88,100,56754,1,8,0:0:0:0:
188,234,56986,2,0,L|181:162,1,56.2500021457673,2|0,0:0|0:0,0:0:0:0:
144,312,57219,2,0,P|197:325|246:302,1,112.500004291535,2|0,3:2|0:0,0:0:0:0:
324,240,57568,2,0,L|336:368,1,112.500004291535,2|0,0:0|0:0,0:0:0:0:
416,371,57916,1,2,0:0:0:0:
446,204,58149,5,2,3:2:0:0:
446,204,58265,2,0,P|419:156|403:102,1,112.500004291535,2|0,0:0|0:0,0:0:0:0:
347,36,58614,2,0,B|217:13|268:99|133:75,1,225.000008583069,8|0,0:0|3:2,0:0:0:0:
308,128,59312,1,2,3:2:0:0:
225,274,59544,1,2,3:2:0:0:
393,280,59777,1,2,3:2:0:0:
216,183,60009,6,0,P|165:206|138:254,1,112.500004291535,6|0,3:2|0:0,0:0:0:0:
60,312,60358,2,0,L|56:189,1,112.500004291535,2|0,0:0|0:0,0:0:0:0:
21,121,60707,2,0,P|48:115|76:116,1,56.2500021457673,2|0,0:0|0:0,0:0:0:0:
151,38,60940,2,0,P|206:37|257:61,1,112.500004291535,2|0,3:2|0:0,0:0:0:0:
317,118,61288,2,0,P|362:86|417:76,1,112.500004291535,2|0,0:0|0:0,0:0:0:0:
493,38,61637,1,2,0:0:0:0:
480,220,61870,6,0,P|428:206|369:200,1,112.500004291535,2|0,3:2|0:0,0:0:0:0:
301,258,62219,2,0,P|270:183|316:117,1,168.750006437302,2|2,0:0|0:0,0:0:0:0:
153,160,62800,1,2,3:2:0:0:
153,160,62916,2,0,P|101:140|47:153,1,112.500004291535,8|0,0:0|0:0,0:0:0:0:
93,224,63265,2,0,B|81:280|81:280|90:337,1,112.500004291535,8|2,0:0|3:2,0:0:0:0:
169,363,63614,1,2,3:2:0:0:
169,363,63730,6,0,L|292:353,1,112.500004291535,2|0,3:2|0:0,0:0:0:0:
313,275,64079,2,0,L|436:285,1,112.500004291535,2|0,0:0|0:0,0:0:0:0:
484,223,64428,2,0,L|477:160,1,56.2500021457673,2|0,0:0|0:0,0:0:0:0:
414,73,64661,2,0,P|358:97|343:157,1,112.500004291535,2|0,3:2|0:0,0:0:0:0:
262,113,65009,2,0,B|218:132|218:132|152:132,1,112.500004291535,2|0,0:0|0:0,0:0:0:0:
79,90,65358,1,2,0:0:0:0:
51,256,65591,6,0,P|161:273|273:264,1,225.000008583069,2|8,3:2|0:0,0:0:0:0:
434,313,66288,1,2,0:0:0:0:
387,150,66521,1,2,3:2:0:0:
387,150,66637,2,0,L|406:34,1,112.500004291535,8|0,0:0|0:0,0:0:0:0:
483,6,66986,1,8,0:0:0:0:
314,75,67219,6,0,L|258:65,1,56.2500021457673,2|0,3:2|3:2,0:0:0:0:
189,16,67451,2,0,B|149:105|214:90|180:179,1,168.750006437302,6|0,3:2|0:0,0:0:0:0:
220,253,67916,1,8,0:0:0:0:
65,322,68149,1,2,0:0:0:0:
5,164,68381,2,0,L|14:42,1,112.500004291535,2|0,3:2|0:0,0:0:0:0:
92,21,68730,2,0,P|147:27|188:64,1,112.500004291535,2|0,0:0|0:0,0:0:0:0:
268,91,69079,1,2,0:0:0:0:
421,20,69312,6,0,P|467:87|441:164,1,168.750006437302,2|0,3:2|0:0,0:0:0:0:
376,219,69777,2,0,P|353:168|366:114,1,112.500004291535,10|0,0:0|0:0,0:0:0:0:
434,308,70242,2,0,L|321:304,1,112.500004291535,2|0,3:2|0:0,0:0:0:0:
253,355,70591,2,0,B|240:302|240:302|257:242,1,112.500004291535,2|0,0:0|0:0,0:0:0:0:
211,174,70940,1,2,0:0:0:0:
94,295,71172,6,0,B|113:168|40:215|49:80,1,225.000008583069,2|8,3:2|0:0,0:0:0:0:
215,50,71870,1,2,0:0:0:0:
369,117,72102,2,0,L|356:242,1,112.500004291535,2|0,3:2|0:0,0:0:0:0:
435,262,72451,2,0,B|447:216|474:188|474:188|451:153|454:105,1,168.750006437302,2|2,0:0|0:0,0:0:0:0:
338,245,73033,6,0,P|240:195|140:238,1,225.000008583069,2|8,3:2|0:0,0:0:0:0:
17,353,73730,1,0,3:2:0:0:
182,320,73963,2,0,L|303:326,1,112.500004291535,2|2,3:2|3:2,0:0:0:0:
364,373,74312,1,0,0:0:0:0:
364,373,74428,2,0,P|426:348|449:304,1,112.500004291535,10|2,0:0|3:2,0:0:0:0:
374,157,74893,6,0,B|387:113|387:113|373:47,1,112.500004291535,6|0,3:2|0:0,0:0:0:0:
297,9,75242,1,0,0:0:0:0:
297,9,75358,1,10,0:0:0:0:
162,118,75591,2,0,L|88:118,1,56.2500021457673,0|0,0:0|0:0,0:0:0:0:
230,170,75823,2,0,P|244:117|227:65,1,112.500004291535,0|2,3:2|0:0,0:0:0:0:
45,62,76288,2,0,P|27:114|41:167,1,112.500004291535,10|2,0:0|0:0,0:0:0:0:
141,304,76754,6,0,L|269:287,1,112.500004291535,2|0,3:2|0:0,0:0:0:0:
327,329,77102,1,0,0:0:0:0:
327,329,77219,2,0,P|330:270|302:225,1,112.500004291535,10|0,0:0|0:0,0:0:0:0:
259,62,77684,1,2,3:2:0:0:
259,62,77800,2,0,L|380:60,1,112.500004291535,8|2,0:0|0:0,0:0:0:0:
447,21,78149,2,0,B|458:67|458:67|451:133,1,112.500004291535,10|2,0:0|3:2,0:0:0:0:
498,202,78498,5,0,3:2:0:0:
498,202,78614,2,0,L|492:338,1,112.500004291535,2|0,3:2|0:0,0:0:0:0:
332,366,79079,2,0,L|338:230,1,112.500004291535,10|0,0:0|0:0,0:0:0:0:
182,189,79544,2,0,L|176:325,1,112.500004291535,2|0,3:2|3:2,0:0:0:0:
100,336,79893,2,0,P|53:303|51:227,1,112.500004291535,2|0,3:2|0:0,0:0:0:0:
14,171,80242,1,10,0:0:0:0:
154,78,80474,6,0,P|209:74|256:104,1,112.500004291535,2|8,0:0|0:0,0:0:0:0:
338,253,80940,1,8,0:0:0:0:
256,192,82335,5,6,0:0:0:0:
256,192,82451,12,0,84195,3:0:0:0:
256,194,84428,5,0,3:2:0:0:
134,107,84660,2,0,P|124:70|130:34,2,75,8|8|8,3:2|3:2|3:2,0:0:0:0:
65,240,85358,2,0,L|31:249,2,25,4|0|4,3:3|0:0|3:3,0:0:0:0:
117,298,85590,2,0,L|161:309,2,37.5,0|4|4,3:2|3:3|3:3,0:0:0:0:
256,362,86056,6,0,P|310:349|371:340,2,112.5,12|12|12,0:0|0:0|0:0,0:0:0:0:
