osu file format v14

[General]
AudioFilename: audio.mp3
AudioLeadIn: 0
PreviewTime: 44195
Countdown: 0
SampleSet: Soft
StackLeniency: 0.7
Mode: 0
LetterboxInBreaks: 0
WidescreenStoryboard: 0

[Editor]
Bookmarks: 30645,45529,60412,75296
DistanceSpacing: 1.1
BeatDivisor: 4
GridSize: 32
TimelineZoom: 1.6

[Metadata]
Title:Iris (TV Size)
TitleUnicode:アイリス (TV Size)
Artist:Aoi Eir
ArtistUnicode:藍井エイル
Creator:Seto Kousuke
Version:Insane
Source:ソードアート・オンライン アリシゼーション
Tags:sword art online alicization sao ending ed Trynna
BeatmapID:1805791
BeatmapSetID:863319

[Difficulty]
HPDrainRate:5.2
CircleSize:4
OverallDifficulty:8
ApproachRate:8.5
SliderMultiplier:2.1
SliderTickRate:1

[Events]
//Background and Video events
Video,-920,"sao anime.avi"
0,0,"jpg bg.jpg",0,0
//Break Periods
//Storyboard Layer 0 (Background)
//Storyboard Layer 1 (Fail)
//Storyboard Layer 2 (Pass)
//Storyboard Layer 3 (Foreground)
//Storyboard Sound Samples

[TimingPoints]
475,465.116279069767,4,2,1,50,1,0
6056,-133.333333333333,4,2,1,50,0,0
7684,-80,4,2,1,65,0,0
15358,-100,4,2,1,50,0,0
30242,-90.9090909090909,4,2,1,60,0,0
45126,-80,4,2,1,80,0,1
74893,-80,4,2,1,70,0,0
86056,-100,4,2,1,70,0,0
86754,-222.222222222221,4,2,1,70,0,0
87219,-222.222222222221,4,2,1,20,0,0

[Colours]
Combo1 : 203,160,102
Combo2 : 72,91,175
Combo3 : 107,141,165
Combo4 : 236,203,104

[HitObjects]
84,146,9,5,2,0:0:0:0:
144,59,242,1,2,0:0:0:0:
227,123,475,6,0,P|268:128|318:85,1,105,2|0,0:0|0:0,0:0:0:0:
341,44,823,2,0,P|337:95|368:137,1,105,2|0,0:0|0:0,0:0:0:0:
460,182,1172,6,0,P|403:149|314:250,1,210,2|2,0:0|0:0,0:0:0:0:
323,339,1870,1,2,0:0:0:0:
224,375,2102,1,2,0:0:0:0:
132,323,2335,2,0,L|110:154,2,157.5,2|2|2,0:0|0:0|0:0,0:0:0:0:
212,175,3265,2,0,L|228:305,1,105,2|0,0:0|0:0,0:0:0:0:
47,367,3730,1,0,0:0:0:0:
28,154,3963,1,2,0:0:0:0:
22,163,4079,1,0,0:0:0:0:
17,172,4195,6,0,P|68:184|132:145,1,105,2|0,0:0|0:0,0:0:0:0:
245,160,4544,2,0,P|194:159|153:128,1,105,2|0,0:0|0:0,0:0:0:0:
120,10,4893,2,0,B|166:1|203:16|203:16|234:45|234:45|273:58|324:52,1,210,2|2,0:0|0:0,0:0:0:0:
484,91,5591,1,2,0:0:0:0:
414,14,5823,1,2,0:0:0:0:
353,181,6056,5,2,0:0:0:0:
256,192,6172,12,0,7451,0:0:0:0:
408,108,7684,5,2,0:0:0:0:
404,115,7800,1,0,0:0:0:0:
400,122,7916,2,0,P|339:94|275:131,1,131.25,6|0,3:2|0:0,0:0:0:0:
183,17,8265,2,0,P|204:44|190:142,1,131.25,2|2,0:0|0:0,0:0:0:0:
246,221,8614,6,0,B|159:268|145:184|57:222,1,196.875,2|0,0:0|0:0,0:0:0:0:
32,228,9079,2,0,P|58:193|60:137,1,65.625,2|0,0:0|0:0,0:0:0:0:
38,36,9312,2,0,P|29:67|33:100,1,65.625,10|0,0:0|0:0,0:0:0:0:
177,80,9544,2,0,P|181:48|172:17,1,65.625,2|0,0:0|0:0,0:0:0:0:
321,90,9777,6,0,B|282:119|282:119|269:163|287:199,1,131.25,2|0,3:2|0:0,0:0:0:0:
403,291,10126,2,0,B|362:280|345:262|345:262|318:283|283:281,1,131.25,2|0,0:0|0:0,0:0:0:0:
416,203,10474,2,0,P|448:218|504:219,1,65.625,2|0,0:0|0:0,0:0:0:0:
327,363,10707,2,0,L|256:364,2,65.625,10|0|0,0:2|3:0|3:2,0:0:0:0:
483,129,11172,1,8,0:0:0:0:
259,45,11405,1,2,3:2:0:0:
264,57,11521,1,0,3:2:0:0:
269,69,11637,6,0,B|269:115|269:115|251:147|251:147|256:221,1,131.25,2|0,3:2|0:0,0:0:0:0:
323,302,11986,2,0,B|323:256|323:256|341:224|341:224|336:150,1,131.25,2|0,0:0|0:0,0:0:0:0:
452,72,12335,2,0,B|430:55|405:54|405:54|329:110|250:58,1,196.875,2|0,0:0|0:0,0:0:0:0:
247,52,12800,2,0,P|267:79|265:146,1,65.625,2|0,0:0|0:0,0:0:0:0:
227,253,13033,2,0,P|247:226|245:159,1,65.625,14|0,0:0|0:0,0:0:0:0:
148,144,13265,1,2,0:0:0:0:
368,186,13498,5,10,0:0:0:0:
368,186,13614,1,8,0:0:0:0:
349,76,13847,1,8,0:0:0:0:
320,271,14079,1,8,0:0:0:0:
226,97,14312,2,0,L|199:60,2,32.8125,0|0|8,3:0|3:0|0:0,0:0:0:0:
404,268,14661,1,8,0:0:0:0:
227,341,14893,1,4,3:0:0:0:
200,338,15009,1,4,3:0:0:0:
173,334,15126,1,0,3:0:0:0:
146,331,15242,1,0,3:0:0:0:
119,328,15358,6,0,P|107:277|129:196,1,105,6|0,3:2|0:0,0:0:0:0:
44,188,15707,1,0,0:0:0:0:
44,188,15823,2,0,P|82:152|163:130,1,105,2|0,3:2|0:0,0:0:0:0:
127,53,16172,1,0,0:0:0:0:
127,53,16288,2,0,P|177:68|236:127,1,105,2|0,3:2|0:0,0:0:0:0:
196,188,16637,1,0,0:0:0:0:
196,188,16753,2,0,P|246:172|305:113,1,105,2|0,3:2|0:0,0:0:0:0:
391,12,17219,6,0,P|375:64|392:120,1,105,2|0,3:2|0:0,0:0:0:0:
456,166,17568,1,0,0:0:0:0:
456,166,17684,2,0,P|472:218|455:274,1,105,2|0,3:2|0:0,0:0:0:0:
418,339,18033,1,0,0:0:0:0:
418,339,18149,2,0,P|364:323|292:340,1,105,2|0,3:2|0:0,0:0:0:0:
198,237,18614,1,2,3:2:0:0:
102,354,18847,1,2,0:2:0:0:
111,358,18963,1,2,0:2:0:0:
120,363,19079,6,0,P|123:310|107:240,1,105,2|0,3:2|0:0,0:0:0:0:
200,133,19428,1,0,0:0:0:0:
200,133,19544,2,0,P|193:184|198:237,1,105,2|0,3:2|0:0,0:0:0:0:
273,371,19893,1,0,0:0:0:0:
273,371,20009,2,0,P|281:319|276:267,1,105,2|0,3:2|0:0,0:0:0:0:
104,179,20474,1,2,3:2:0:0:
279,180,20707,1,2,0:2:0:0:
246,28,20940,6,0,P|195:41|143:33,1,105,2|0,3:2|0:0,0:0:0:0:
66,50,21288,1,0,0:0:0:0:
66,50,21405,2,0,P|47:95|74:170,1,105,2|0,3:2|0:0,0:0:0:0:
198,233,21870,1,2,3:2:0:0:
179,106,22102,1,2,0:2:0:0:
62,263,22335,1,4,3:0:0:0:
217,360,22568,1,2,0:2:0:0:
227,361,22684,1,2,0:2:0:0:
237,362,22800,6,0,P|284:332|319:278,1,105,2|0,3:2|0:0,0:0:0:0:
442,317,23149,1,0,0:0:0:0:
432,315,23265,2,0,P|394:273|374:212,1,105,2|0,3:2|0:0,0:0:0:0:
256,207,23614,1,0,0:0:0:0:
266,205,23730,2,0,P|303:163|323:102,1,105,2|0,3:2|0:0,0:0:0:0:
470,140,24079,1,0,0:0:0:0:
460,138,24195,2,0,P|422:96|402:35,1,105,2|0,3:2|0:0,0:0:0:0:
247,12,24661,5,2,3:2:0:0:
196,132,24893,1,0,0:0:0:0:
196,142,25009,1,0,0:0:0:0:
197,152,25126,1,2,3:2:0:0:
152,48,25358,1,2,0:0:0:0:
62,160,25591,2,0,P|57:219|65:276,1,105,2|0,3:2|0:0,0:0:0:0:
205,363,26056,1,0,3:0:0:0:
295,216,26288,1,2,0:2:0:0:
297,226,26405,1,2,0:2:0:0:
299,236,26521,6,0,P|347:263|459:176,1,210,2|0,3:2|3:0,0:0:0:0:
319,33,27219,1,2,0:2:0:0:
317,43,27336,1,2,0:2:0:0:
315,53,27452,2,0,B|205:81|231:19|108:46,1,210,2|0,3:2|3:0,0:0:0:0:
42,242,28149,1,2,0:2:0:0:
44,252,28266,1,2,0:2:0:0:
46,262,28382,6,0,B|56:271|80:272|80:272|113:256|162:263,1,105,2|0,3:2|0:0,0:0:0:0:
224,185,28730,1,0,0:0:0:0:
224,185,28847,2,0,P|220:223|236:256,1,52.5,2|0,3:2|0:0,0:0:0:0:
288,348,29079,1,2,0:0:0:0:
370,210,29312,1,0,3:0:0:0:
458,294,29544,1,2,0:0:0:0:
459,304,29661,1,0,0:0:0:0:
460,314,29777,2,0,L|464:356,2,35,8|0|0,0:0|3:0|3:2,0:0:0:0:
491,218,30009,1,0,3:0:0:0:
487,197,30126,1,0,3:0:0:0:
484,176,30242,6,0,P|431:154|367:181,1,115.50000352478,6|0,3:2|0:0,0:0:0:0:
335,75,30591,1,2,0:0:0:0:
336,85,30707,2,0,P|320:112|286:132,1,57.7500017623902,10|0,0:0|0:0,0:0:0:0:
323,255,30940,2,0,P|307:227|273:207,1,57.7500017623902,2|0,0:0|0:0,0:0:0:0:
212,114,31172,2,0,B|200:96|164:90|164:90|132:154|51:143,1,173.250005287171,2|0,3:2|0:0,0:0:0:0:
47,130,31637,2,0,P|69:162|46:235,1,115.50000352478,8|0,0:0|3:0,0:0:0:0:
28,354,31986,1,0,3:0:0:0:
34,341,32102,6,0,B|54:322|75:323|75:323|107:339|145:325,1,115.50000352478,2|0,3:2|0:0,0:0:0:0:
257,201,32451,1,2,0:0:0:0:
237,212,32568,2,0,B|218:226|211:265|211:265|226:291|225:317,1,115.50000352478,10|2,0:0|0:0,0:0:0:0:
433,296,33033,1,10,0:2:0:0:
421,315,33149,1,0,3:0:0:0:
409,334,33265,1,0,3:0:0:0:
351,154,33498,1,8,0:0:0:0:
225,317,33730,1,2,3:2:0:0:
206,331,33847,1,2,3:2:0:0:
188,345,33963,6,0,P|124:352|73:309,1,115.50000352478,2|0,3:2|0:0,0:0:0:0:
29,239,34312,1,2,0:0:0:0:
45,222,34428,2,0,B|77:211|106:220,1,57.7500017623902,10|0,0:0|0:0,0:0:0:0:
162,108,34661,2,0,B|187:130|194:159,1,57.7500017623902,2|0,0:0|0:0,0:0:0:0:
295,271,34893,2,0,P|287:223|319:166,1,115.50000352478,2|0,3:2|0:0,0:0:0:0:
512,206,35358,2,0,P|483:208|455:200,1,57.7500017623902,10|0,0:0|0:0,0:0:0:0:
402,81,35591,2,0,P|393:108|395:137,1,57.7500017623902,2|0,0:0|0:0,0:0:0:0:
306,271,35823,6,0,P|332:222|303:150,1,115.50000352478,2|0,3:2|0:0,0:0:0:0:
419,65,36172,1,0,0:0:0:0:
402,81,36289,2,0,P|343:88|283:49,1,115.50000352478,10|0,0:0|0:0,0:0:0:0:
89,106,36754,1,10,0:2:0:0:
106,91,36870,1,0,3:0:0:0:
123,76,36986,1,0,3:0:0:0:
197,232,37219,1,8,0:0:0:0:
206,20,37451,1,2,3:2:0:0:
207,31,37568,1,2,3:2:0:0:
208,42,37684,6,0,B|219:85|191:111|204:160,1,115.50000352478,2|0,3:2|0:0,0:0:0:0:
322,259,38033,1,2,0:0:0:0:
306,241,38149,2,0,P|275:237|228:262,1,57.7500017623902,10|0,0:0|0:0,0:0:0:0:
105,237,38381,2,0,P|136:241|183:216,1,57.7500017623902,2|0,0:0|0:0,0:0:0:0:
252,330,38614,2,0,P|203:313|120:335,1,115.50000352478,2|0,3:2|0:0,0:0:0:0:
52,148,39079,1,10,0:2:0:0:
227,76,39312,1,2,0:2:0:0:
237,82,39428,1,2,0:2:0:0:
247,89,39544,6,0,B|265:101|283:108|283:108|323:88|376:96,1,115.50000352478,2|0,3:2|0:0,0:0:0:0:
487,125,39893,1,2,0:0:0:0:
476,129,40009,2,0,P|454:187|467:262,1,115.50000352478,10|2,0:0|0:0,0:0:0:0:
336,372,40474,1,10,0:2:0:0:
345,350,40591,1,0,3:0:0:0:
355,329,40707,1,0,3:0:0:0:
245,196,40940,1,10,0:0:0:0:
124,339,41172,1,2,3:2:0:0:
133,344,41288,1,0,3:0:0:0:
143,349,41405,6,0,P|162:283|149:216,1,115.50000352478,2|0,3:2|0:0,0:0:0:0:
184,27,41870,2,0,P|165:93|178:160,1,115.50000352478,10|0,0:2|0:0,0:0:0:0:
363,168,42335,1,10,0:2:0:0:
343,155,42451,1,0,3:0:0:0:
308,148,42568,1,0,3:0:0:0:
265,165,42684,1,2,3:2:0:0:
240,217,42800,2,0,P|240:260|248:293,1,57.7500017623902,8|0,0:0|0:0,0:0:0:0:
447,205,43033,2,0,P|450:176|449:147,1,57.7500017623902,2|0,3:2|0:0,0:0:0:0:
325,49,43265,5,12,0:0:0:0:
187,271,43614,1,12,0:0:0:0:
70,44,43963,1,12,0:0:0:0:
70,44,44428,5,2,0:0:0:0:
77,168,44661,1,2,0:0:0:0:
70,18,44893,1,2,0:0:0:0:
193,154,45126,6,0,B|214:183|231:187|231:187|284:162|327:181,1,131.25,6|0,3:2|0:0,0:0:0:0:
434,115,45474,2,0,P|408:133|412:238,1,131.25,2|0,0:0|0:0,0:0:0:0:
355,300,45823,2,0,P|365:269|362:236,1,65.625,2|0,0:0|0:0,0:0:0:0:
325,88,46056,2,0,B|275:87|244:97|244:97|226:77|206:65,1,131.25,2|0,3:2|0:0,0:0:0:0:
120,19,46405,2,0,P|155:50|121:164,1,131.25,2|0,0:0|0:0,0:0:0:0:
224,173,46754,2,0,P|191:169|160:180,1,65.625,2|0,0:0|0:0,0:0:0:0:
9,139,46986,6,0,P|60:176|43:260,1,131.25,2|0,3:2|0:0,0:0:0:0:
156,337,47335,1,0,0:0:0:0:
163,311,47451,2,0,P|195:299|274:297,1,65.625,8|0,0:0|0:0,0:0:0:0:
377,265,47684,2,0,P|344:253|266:251,1,65.625,2|0,0:0|0:0,0:0:0:0:
265,111,47916,1,10,0:2:0:0:
247,130,48033,1,0,3:0:0:0:
229,149,48149,2,0,P|228:189|256:235,1,65.625,0|0,3:2|0:0,0:0:0:0:
482,146,48381,1,8,0:0:0:0:
371,352,48614,1,2,3:2:0:0:
359,357,48730,1,2,3:2:0:0:
346,361,48847,6,0,L|202:343,1,131.25,2|0,3:2|0:0,0:0:0:0:
6,307,49195,2,0,P|62:338|125:323,1,131.25,2|0,0:0|0:0,0:0:0:0:
254,269,49544,2,0,P|223:260|174:273,1,65.625,2|0,0:0|0:0,0:0:0:0:
60,215,49777,6,0,B|92:226|118:219|118:219|144:179|192:184,1,131.25,2|0,3:2|0:0,0:0:0:0:
343,265,50126,2,0,P|318:206|258:182,1,131.25,2|0,0:0|0:0,0:0:0:0:
154,103,50474,2,0,P|186:108|217:101,1,65.625,2|0,0:0|0:0,0:0:0:0:
325,27,50707,6,0,B|255:39|250:0|192:22,1,131.25,2|0,3:2|0:0,0:0:0:0:
63,39,51056,1,0,0:0:0:0:
76,61,51172,2,0,P|78:97|67:159,1,65.625,8|0,0:0|0:0,0:0:0:0:
177,183,51405,2,0,P|152:210|101:245,1,65.625,2|0,0:0|0:0,0:0:0:0:
31,311,51637,1,10,0:2:0:0:
22,286,51754,1,0,3:0:0:0:
14,261,51870,2,0,P|29:224|74:194,1,65.625,0|0,3:2|0:0,0:0:0:0:
203,332,52102,1,8,0:0:0:0:
322,86,52335,1,2,3:2:0:0:
325,97,52451,1,0,3:2:0:0:
329,109,52568,6,0,B|330:158|330:158|317:196|317:196|318:247,1,131.25,6|0,3:2|0:0,0:0:0:0:
397,372,52916,1,0,0:0:0:0:
410,349,53033,2,0,L|409:217,1,131.25,8|2,0:0|0:0,0:0:0:0:
329,109,53381,1,0,0:0:0:0:
315,131,53498,2,0,P|257:151|186:105,1,131.25,2|0,3:2|0:0,0:0:0:0:
155,4,53847,2,0,B|126:61|176:82|151:135,1,131.25,2|0,0:0|0:0,0:0:0:0:
80,115,54195,2,0,P|111:125|134:149,1,65.625,2|0,0:0|0:0,0:0:0:0:
266,195,54428,6,0,B|251:234|222:236|222:236|191:217|150:235,1,131.25,2|0,3:2|0:0,0:0:0:0:
62,347,54777,1,0,0:0:0:0:
84,360,54893,2,0,P|116:369|182:277,1,131.25,10|0,0:0|0:0,0:0:0:0:
336,284,55242,1,0,0:0:0:0:
312,296,55358,2,0,P|281:282|290:169,1,131.25,2|0,3:2|0:0,0:0:0:0:
166,46,55707,2,0,P|213:88|202:150,1,131.25,2|0,0:0|0:0,0:0:0:0:
317,158,56056,2,0,P|287:170|265:193,1,65.625,2|0,0:0|0:0,0:0:0:0:
117,261,56288,6,0,P|126:196|117:132,1,131.25,2|0,3:2|0:0,0:0:0:0:
286,27,56754,1,8,0:0:0:0:
423,218,56986,1,2,0:0:0:0:
434,210,57102,1,0,0:0:0:0:
445,203,57219,2,0,B|453:151|444:123|444:123|418:106|386:113,1,131.25,2|0,3:2|0:0,0:0:0:0:
256,108,57568,2,0,B|284:118|307:149|307:149|328:127|367:128,1,131.25,2|0,0:0|0:0,0:0:0:0:
368,275,57916,2,0,P|368:243|356:213,1,65.625,2|0,0:0|0:0,0:0:0:0:
227,201,58149,5,2,3:2:0:0:
205,225,58265,2,0,L|87:225,1,65.625,2|0,0:0|0:0,0:0:0:0:
46,123,58498,1,0,0:0:0:0:
63,150,58614,2,0,L|46:303,1,131.25,8|0,0:0|3:2,0:0:0:0:
152,366,58963,1,0,0:0:0:0:
184,374,59079,2,0,P|243:349|260:322,2,65.625,8|0|2,0:2|3:0|3:2,0:0:0:0:
189,144,59544,5,10,3:2:0:0:
340,305,59777,1,2,3:2:0:0:
403,70,60009,6,0,B|368:92|368:128|368:128|401:143|404:190,1,131.25,6|0,3:2|0:0,0:0:0:0:
340,305,60358,2,0,B|326:310|304:294|304:294|293:247|319:204,1,131.25,2|0,0:0|0:0,0:0:0:0:
461,234,60707,2,0,P|434:251|402:254,1,65.625,2|0,0:0|0:0,0:0:0:0:
289,102,60940,2,0,P|318:166|280:233,1,131.25,2|0,3:2|0:0,0:0:0:0:
218,320,61288,2,0,B|257:292|257:292|339:304,1,131.25,2|0,0:0|0:0,0:0:0:0:
198,223,61637,2,0,L|116:293,1,65.625,2|0,0:0|0:0,0:0:0:0:
61,379,61870,6,0,B|62:332|62:332|46:310|46:310|48:223,1,131.25,2|0,3:2|0:0,0:0:0:0:
126,68,62219,2,0,B|127:115|127:115|111:137|111:137|113:224,1,131.25,2|0,0:0|0:0,0:0:0:0:
42,78,62568,2,0,L|42:13,1,65.625,2|0,0:0|0:0,0:0:0:0:
195,178,62800,1,10,0:2:0:0:
214,196,62917,1,0,3:0:0:0:
233,214,63033,2,0,P|273:215|319:187,1,65.625,0|0,3:2|0:0,0:0:0:0:
392,41,63265,1,8,0:0:0:0:
492,242,63498,1,2,3:2:0:0:
485,253,63614,1,2,3:2:0:0:
479,264,63730,6,0,B|442:276|442:276|399:263|399:263|320:281,1,131.25,2|0,3:2|0:0,0:0:0:0:
268,368,64079,2,0,B|304:355|304:355|348:369|348:369|427:351,1,131.25,2|0,0:0|0:0,0:0:0:0:
335,199,64428,2,0,P|304:211|281:234,1,65.625,2|0,0:0|0:0,0:0:0:0:
164,150,64661,2,0,B|175:197|175:197|161:240|161:240|174:277,1,131.25,2|0,3:2|0:0,0:0:0:0:
247,107,65009,2,0,P|200:59|128:64,1,131.25,2|0,0:0|0:0,0:0:0:0:
8,38,65358,2,0,P|44:56|60:99,1,65.625,2|0,0:0|0:0,0:0:0:0:
164,150,65591,6,0,P|124:225|184:295,1,131.25,2|0,3:2|0:0,0:0:0:0:
252,344,65940,1,0,0:0:0:0:
277,337,66056,2,0,B|291:304|291:304|295:247,1,65.625,8|0,0:0|0:0,0:0:0:0:
291,109,66288,2,0,B|277:142|277:142|273:199,1,65.625,2|0,0:0|0:0,0:0:0:0:
420,258,66521,1,10,0:2:0:0:
438,239,66638,1,0,3:0:0:0:
456,220,66754,2,0,P|457:180|429:134,1,65.625,0|0,3:2|0:0,0:0:0:0:
310,23,66986,1,8,0:0:0:0:
186,225,67219,1,2,3:2:0:0:
182,212,67335,1,0,3:2:0:0:
179,199,67451,6,0,L|189:55,1,131.25,6|0,3:2|0:0,0:0:0:0:
44,16,67800,1,0,0:0:0:0:
31,39,67917,2,0,L|32:171,1,131.25,8|0,0:0|0:0,0:0:0:0:
132,288,68265,1,0,0:0:0:0:
151,305,68382,2,0,P|212:309|268:246,1,131.25,2|0,3:2|0:0,0:0:0:0:
228,128,68730,2,0,P|225:192|268:240,1,131.25,2|0,0:0|0:0,0:0:0:0:
331,307,69079,2,0,P|314:279|312:246,1,65.625,2|0,0:0|0:0,0:0:0:0:
449,174,69312,6,0,B|438:209|404:221|404:221|387:244|407:281,1,131.25,2|0,3:2|0:0,0:0:0:0:
371,128,69661,1,0,0:0:0:0:
387,106,69777,2,0,P|456:79|513:109,1,131.25,10|0,0:0|0:0,0:0:0:0:
364,14,70126,1,0,0:0:0:0:
343,27,70242,2,0,B|295:26|295:26|276:40|276:40|234:49|194:40,1,131.25,2|0,3:2|0:0,0:0:0:0:
43,37,70591,2,0,P|107:39|142:128,1,131.25,2|0,0:0|0:0,0:0:0:0:
234,130,70940,2,0,P|201:151|178:204,1,65.625,2|0,0:0|0:0,0:0:0:0:
69,234,71172,6,0,P|91:174|67:115,1,131.25,2|0,3:2|0:0,0:0:0:0:
28,343,71637,1,8,0:0:0:0:
213,281,71870,1,2,0:0:0:0:
223,288,71986,1,0,0:0:0:0:
233,295,72102,2,0,B|265:301|295:314|295:314|322:299|382:295,1,131.25,2|0,3:2|0:0,0:0:0:0:
441,359,72451,2,0,P|411:320|443:240,1,131.25,2|0,0:0|0:0,0:0:0:0:
506,167,72800,2,0,P|471:174|396:150,1,65.625,2|0,0:0|0:0,0:0:0:0:
299,63,73033,5,2,3:2:0:0:
447,31,73265,1,0,3:0:0:0:
405,159,73498,1,8,0:0:0:0:
274,68,73730,1,0,3:2:0:0:
202,218,73963,5,10,0:2:0:0:
206,243,74079,1,0,3:0:0:0:
210,269,74195,1,2,3:2:0:0:
296,176,74428,1,10,0:0:0:0:
121,88,74661,1,2,3:2:0:0:
89,294,74893,6,0,P|145:262|210:268,1,131.25,6|0,3:2|0:0,0:0:0:0:
311,342,75242,1,0,0:0:0:0:
328,361,75358,2,0,P|396:374|449:337,1,131.25,10|0,0:0|0:0,0:0:0:0:
440,129,75823,1,0,3:2:0:0:
505,244,76056,1,2,0:0:0:0:
324,138,76288,2,0,B|303:127|285:125|285:125|236:136|181:131,1,131.25,10|2,0:0|0:0,0:0:0:0:
79,42,76637,1,0,0:0:0:0:
97,60,76754,6,0,P|117:137|82:198,1,131.25,2|0,3:2|0:0,0:0:0:0:
253,344,77219,2,0,P|232:283|254:222,1,131.25,10|0,0:0|0:0,0:0:0:0:
422,67,77684,1,10,0:2:0:0:
420,93,77800,1,0,3:0:0:0:
418,119,77916,1,0,3:2:0:0:
355,289,78149,1,10,0:0:0:0:
290,103,78381,1,2,3:2:0:0:
280,111,78498,1,0,3:2:0:0:
270,119,78614,6,0,P|205:109|108:121,1,131.25,2|0,3:2|0:0,0:0:0:0:
34,199,78963,1,0,0:0:0:0:
45,208,79079,2,0,P|109:217|175:213,1,131.25,10|0,0:0|0:0,0:0:0:0:
220,31,79544,1,2,3:2:0:0:
391,134,79777,1,0,3:2:0:0:
397,159,79893,1,2,3:2:0:0:
403,184,80009,1,8,0:0:0:0:
409,209,80126,1,8,0:0:0:0:
415,234,80242,5,10,0:0:0:0:
96,302,80707,1,8,0:0:0:0:
318,340,80940,1,8,0:0:0:0:
256,192,82335,1,6,0:0:0:0:
256,192,82451,12,0,83963,0:0:0:0:
155,178,84195,5,0,3:2:0:0:
317,140,84428,1,0,3:2:0:0:
259,296,84661,1,8,3:2:0:0:
228,94,84893,1,8,3:2:0:0:
135,289,85126,1,8,3:2:0:0:
371,234,85358,1,4,3:3:0:0:
124,154,85591,2,0,L|53:173,2,65.625,0|4|4,3:2|3:3|3:3,0:0:0:0:
406,82,86056,6,0,P|374:111|313:111,1,105,12|0,0:0|0:0,0:0:0:0:
191,74,86405,2,0,P|242:71|281:104,1,105,12|0,0:0|0:0,0:0:0:0:
291,249,86754,6,0,B|290:234|300:220|300:220|291:206|291:206|303:183|299:130,1,118.124996395111,12|0,0:0|0:0,0:0:0:0:
