osu file format v14

[General]
AudioFilename: audio.mp3
AudioLeadIn: 0
PreviewTime: 44195
Countdown: 0
SampleSet: Soft
StackLeniency: 0.7
Mode: 0
LetterboxInBreaks: 0
WidescreenStoryboard: 1

[Editor]
Bookmarks: 30645,45529,60412,75296
DistanceSpacing: 1.1
BeatDivisor: 4
GridSize: 4
TimelineZoom: 1.6

[Metadata]
Title:Iris (TV Size)
TitleUnicode:アイリス (TV Size)
Artist:Aoi Eir
ArtistUnicode:藍井エイル
Creator:Seto Kousuke
Version:Easy
Source:ソードアート・オンライン アリシゼーション
Tags:sword art online alicization sao ending ed Trynna
BeatmapID:1805907
BeatmapSetID:863319

[Difficulty]
HPDrainRate:2
CircleSize:3
OverallDifficulty:2
ApproachRate:3
SliderMultiplier:1
SliderTickRate:1

[Events]
//Background and Video events
Video,-920,"sao anime.avi"
0,0,"jpg bg.jpg",0,0
//Break Periods
//Storyboard Layer 0 (Background)
//Storyboard Layer 1 (Fail)
//Storyboard Layer 2 (Pass)
//Storyboard Layer 3 (Foreground)
//Storyboard Sound Samples

[TimingPoints]
475,465.116279069767,4,2,1,50,1,0
7916,-100,4,2,1,65,0,0
15358,-100,4,2,1,50,0,0
30242,-100,4,2,1,60,0,0
45126,-100,4,2,1,80,0,1
74893,-100,4,2,1,70,0,0

[Colours]
Combo1 : 203,160,102
Combo2 : 72,91,175
Combo3 : 107,141,165
Combo4 : 236,203,104

[HitObjects]
78,203,9,5,2,0:0:0:0:
156,265,475,2,0,B|208:269|248:233|248:233|288:269|340:265,1,200,2|0,0:0|0:0,0:0:0:0:
420,206,1870,1,2,0:0:0:0:
336,151,2335,2,0,P|325:106|356:54,2,100,2|0|2,0:0|0:0|0:0,0:0:0:0:
428,328,4195,6,0,B|396:280|348:272|348:272|300:280|268:328,1,200,2|0,0:0|0:0,0:0:0:0:
177,369,5591,1,2,0:0:0:0:
85,329,6056,1,2,0:0:0:0:
452,185,7916,5,6,3:2:0:0:
371,127,8381,1,8,0:0:0:0:
294,190,8847,2,0,B|246:204|246:204|188:186,1,100,0|10,3:2|0:0,0:0:0:0:
128,117,9777,2,0,B|59:115|59:115|18:134,2,100,2|8|2,3:2|0:0|3:2,0:0:0:0:
225,97,11172,1,8,0:0:0:0:
294,169,11637,5,2,3:2:0:0:
231,246,12102,1,8,0:0:0:0:
301,317,12568,2,0,L|405:306,1,100,0|14,3:2|0:0,0:0:0:0:
479,245,13498,6,0,B|503:202|483:148|483:148|431:174|382:136,1,200,10|8,0:0|0:0,0:0:0:0:
304,86,14893,1,4,3:0:0:0:
238,161,15358,6,0,P|154:200|88:115,1,200,6|2,3:2|3:2,0:0:0:0:
52,37,16754,1,0,3:0:0:0:
149,13,17219,2,0,B|227:21|227:21|271:47|271:47|362:54,1,200,2|2,3:2|3:2,0:0:0:0:
424,107,18614,1,0,3:0:0:0:
345,168,19079,6,0,P|318:216|403:317,1,200,2|2,3:2|3:2,0:0:0:0:
493,293,20474,1,2,3:2:0:0:
503,193,20940,2,0,L|462:93,1,100,2|2,3:2|3:2,0:0:0:0:
365,101,21870,2,0,L|327:193,1,100,2|4,3:2|3:0,0:0:0:0:
258,266,22800,6,0,B|206:270|166:234|166:234|126:270|74:266,1,200,2|2,3:2|3:2,0:0:0:0:
12,187,24195,1,0,3:0:0:0:
55,96,24661,2,0,B|144:67|162:132|256:94,1,200,2|2,3:2|3:2,0:0:0:0:
331,36,26056,1,0,3:0:0:0:
425,68,26521,6,0,P|465:110|464:160,1,100,2|0,3:2|3:0,0:0:0:0:
446,247,27451,2,0,L|334:269,1,100,2|0,3:2|3:0,0:0:0:0:
266,208,28381,2,0,P|224:221|195:274,1,100,2|0,3:2|3:0,0:0:0:0:
171,364,29312,1,0,3:0:0:0:
71,375,29777,1,10,0:0:0:0:
25,285,30242,6,0,L|49:178,1,100,6|8,3:2|0:0,0:0:0:0:
107,107,31172,1,2,3:2:0:0:
190,162,31637,1,8,0:0:0:0:
258,89,32102,2,0,P|308:77|357:103,1,100,2|8,3:2|0:0,0:0:0:0:
419,169,33033,2,0,L|415:284,1,100,2|8,3:2|0:0,0:0:0:0:
370,357,33963,5,2,3:2:0:0:
271,371,34428,1,8,0:0:0:0:
207,293,34893,2,0,L|210:178,1,100,2|8,3:2|0:0,0:0:0:0:
171,100,35823,2,0,P|124:90|68:114,2,100,2|10|2,3:2|0:2|3:2,0:0:0:0:
270,113,37219,1,8,0:0:0:0:
365,83,37684,6,0,P|412:73|468:97,1,100,2|8,3:2|0:0,0:0:0:0:
500,181,38614,2,0,L|478:296,1,100,2|10,3:2|0:2,0:0:0:0:
427,363,39544,1,2,3:2:0:0:
341,311,40009,1,8,0:2:0:0:
255,362,40474,2,0,P|209:372|156:343,1,100,2|8,3:2|0:0,0:0:0:0:
82,290,41405,6,0,B|64:245|64:245|93:184,1,100,2|10,3:2|0:2,0:0:0:0:
160,131,42335,1,10,0:2:0:0:
231,200,42800,1,8,0:0:0:0:
304,132,43265,2,0,B|378:128|378:128|407:159|397:211,1,150,14|12,0:2|0:0,0:0:0:0:
154,317,45126,6,0,P|170:272|160:205,1,100,6|8,3:2|0:0,0:0:0:0:
234,147,46056,2,0,P|203:110|140:85,1,100,2|8,3:2|0:0,0:0:0:0:
56,90,46986,2,0,B|24:116|19:145|19:145|67:201|42:279,1,200,2|2,3:2|3:2,0:0:0:0:
100,351,48381,1,8,0:0:0:0:
198,368,48847,6,0,P|240:367|288:314,1,100,2|8,3:2|0:0,0:0:0:0:
382,326,49777,2,0,P|403:288|381:221,1,100,2|8,3:2|0:0,0:0:0:0:
411,136,50707,2,0,B|324:109|311:175|215:132,1,200,2|2,3:2|3:2,0:0:0:0:
145,61,52102,1,8,0:0:0:0:
237,21,52568,6,0,L|354:23,1,100,6|8,3:2|0:0,0:0:0:0:
435,39,53498,1,2,3:2:0:0:
478,128,53963,1,8,0:0:0:0:
424,212,54428,2,0,P|415:255|449:310,2,100,2|10|2,3:2|0:0|3:2,0:0:0:0:
478,128,55823,1,10,0:0:0:0:
384,92,56288,6,0,L|271:84,1,100,2|8,3:2|0:0,0:0:0:0:
217,10,57219,1,2,3:2:0:0:
119,30,57684,1,8,0:0:0:0:
100,128,58149,2,0,B|89:166|119:189|119:189|266:200,1,200,2|0,3:2|3:2,0:0:0:0:
331,140,59544,1,10,3:2:0:0:
409,201,60009,6,0,P|416:251|381:296,1,100,6|8,3:2|0:0,0:0:0:0:
343,379,60940,2,0,L|247:353,1,100,2|8,3:2|0:0,0:0:0:0:
185,273,61870,2,0,P|167:219|284:143,1,200,2|2,3:2|3:2,0:0:0:0:
335,69,63265,1,8,0:0:0:0:
245,25,63730,6,0,B|194:22|194:22|144:58,1,100,2|8,3:2|0:0,0:0:0:0:
57,78,64661,2,0,B|49:128|49:128|81:181,1,100,2|8,3:2|0:0,0:0:0:0:
75,270,65591,2,0,L|277:246,1,200,2|2,3:2|3:2,0:0:0:0:
364,288,66986,1,8,0:0:0:0:
438,221,67451,6,0,P|452:174|427:133,1,100,6|8,3:2|0:0,0:0:0:0:
344,77,68381,2,0,L|229:84,1,100,2|8,3:2|0:0,0:0:0:0:
153,41,69312,1,2,3:2:0:0:
72,100,69777,1,10,0:0:0:0:
136,176,70242,2,0,P|154:226|118:278,1,100,2|10,3:2|0:0,0:0:0:0:
61,333,71172,6,0,P|144:312|256:339,1,200,2|2,3:2|3:2,0:0:0:0:
347,372,72568,1,8,0:0:0:0:
430,316,73033,2,0,L|396:201,1,100,2|8,3:2|0:0,0:0:0:0:
342,139,73963,1,2,3:2:0:0:
243,153,74428,1,10,0:0:0:0:
155,103,74893,6,0,P|113:99|91:230,1,200,6|0,3:2|3:2,0:0:0:0:
169,266,76288,1,10,0:0:0:0:
254,213,76754,2,0,L|361:230,1,100,2|10,3:2|0:0,0:0:0:0:
434,286,77684,1,2,3:2:0:0:
498,209,78149,1,10,0:0:0:0:
417,149,78614,6,0,L|318:133,1,100,2|10,3:2|0:0,0:0:0:0:
284,39,79544,2,0,L|185:54,1,100,2|8,3:2|0:0,0:0:0:0:
87,34,80474,1,2,0:0:0:0:
25,113,80940,1,8,0:0:0:0:
304,212,82335,6,0,B|328:140|256:80|256:80|184:140|208:212,1,300,6|0,0:0|0:0,0:0:0:0:
256,192,84195,12,4,86056,3:2:0:0:
